osu file format v9

[General]
AudioFilename: Cool Joke - Undo.mp3
AudioLeadIn: 1500
PreviewTime: -1
Countdown: 1
SampleSet: Normal
StackLeniency: 1
Mode: 0
LetterboxInBreaks: 1

[Editor]
Bookmarks: 114174
DistanceSpacing: 1
BeatDivisor: 4
GridSize: 8

[Metadata]
Title:UNDO
Artist:Cool Joke
Creator:[D]avideTheBest[ITA]
Version:Insane
Source:FullMetal Alchemist
Tags:3rd Opening

[Difficulty]
HPDrainRate:7
CircleSize:4
OverallDifficulty:6
ApproachRate:8
SliderMultiplier:2.2
SliderTickRate:1

[Events]
//Background and Video events
0,0,"BG Insane - Hard.jpg"
Video,0,"Fullmetal Alchemist_ Undo ( full ).avi"
//Break Periods
2,32970,36231
2,159086,169564
//Storyboard Layer 0 (Background)
//Storyboard Layer 1 (Fail)
//Storyboard Layer 2 (Pass)
//Storyboard Layer 3 (Foreground)
//Storyboard Sound Samples
//Background Colour Transformations
3,100,163,162,255

[TimingPoints]
489,350.877192982456,4,1,0,100,1,0
8911,350.877192982456,4,1,1,100,1,0
18735,-100,4,1,1,100,0,0
32770,-100,4,1,1,100,0,0
45399,-200,4,1,1,100,0,0
45753,-200,4,1,2,100,0,0
46103,-200,4,1,1,100,0,0
47156,-200,4,1,2,100,0,0
47507,-200,4,1,1,100,0,0
48206,-100,4,1,1,100,0,0
51367,-100,4,1,2,100,0,0
51718,-100,4,1,1,100,0,0
55577,-100,4,2,0,5,0,0
56630,-100,4,1,1,100,0,0
63121,-100,4,1,1,100,0,0
63296,-100,4,1,1,100,0,0
63998,-100,4,1,2,100,0,0
64349,-100,4,1,1,100,0,0
67858,-100,4,1,1,100,0,0
76279,-200,4,1,1,100,0,0
76630,-200,4,1,2,100,0,0
76981,-200,4,1,1,100,0,0
78384,-100,4,1,1,100,0,0
82244,-100,4,1,2,100,0,0
83823,-100,4,1,1,100,0,0
85051,-100,4,1,2,100,0,0
85226,-100,4,1,1,100,0,0
86454,-100,4,2,0,5,0,0
87507,-100,4,1,1,100,0,0
93472,-100,4,1,2,100,0,0
93647,-100,4,1,1,100,0,0
95402,-100,4,1,1,100,0,0
95928,-100,4,1,1,50,0,0
98209,-100,4,1,1,25,0,0
98560,-100,4,1,1,30,0,0
98647,-100,4,1,1,20,0,0
98735,-100,4,1,1,30,0,0
98823,-100,4,1,1,40,0,0
98910,-100,4,1,1,50,0,0
98998,-100,4,1,1,60,0,0
99086,-100,4,1,1,70,0,0
99174,-100,4,1,1,80,0,0
99261,-100,4,1,1,90,0,0
99437,-100,4,2,1,5,0,0
99525,-100,4,2,0,5,0,0
99612,-100,4,2,0,5,0,0
99700,-100,4,2,0,5,0,0
99788,-100,4,2,0,5,0,0
100139,-100,4,1,1,100,0,1
110665,-100,4,1,1,100,0,1
122595,-100,4,1,1,100,0,0
128209,-100,4,1,1,100,0,0
136630,-200,4,1,1,100,0,0
136981,-200,4,1,2,100,0,0
137332,-200,4,1,1,100,0,0
138384,-200,4,1,2,100,0,0
138735,-200,4,1,1,100,0,0
139437,-100,4,1,1,100,0,0
142595,-100,4,1,2,100,0,0
142770,-100,4,1,1,100,0,0
146805,-100,4,2,0,5,0,0
147858,-100,4,1,1,100,0,0
155402,-100,4,1,1,100,0,0
161191,-100,4,1,0,100,0,0
161235,-100,4,1,1,100,0,0
186454,-200,4,2,0,50,0,0
188209,-200,4,2,0,5,0,0
188560,-200,4,2,0,50,0,0
197682,-100,4,2,0,5,0,0
198033,-100,4,2,1,5,0,0
198384,-100,4,1,1,100,0,1
231718,-100,4,1,1,100,0,1
233121,-100,4,1,1,100,0,1
233472,-100,4,1,1,100,0,1
234174,-100,4,1,0,100,0,1
234349,-100,4,1,1,100,0,1
236805,-200,4,1,1,100,0,1
237156,-66.6666666666667,4,1,0,5,0,1
237507,-100,4,2,0,5,0,0

[Colours]
Combo1 : 0,255,0
Combo2 : 255,0,0
Combo3 : 0,128,255
Combo4 : 255,128,0

[HitObjects]
256,192,489,12,8,3120
96,96,3296,5,0
200,136,3471,1,8
112,200,3646,1,0
216,232,3822,2,8,B|320:280|448:224,1,220
240,344,4524,6,0,B|216:304|240:232,1,110,8|0
344,248,4874,2,0,B|368:208|344:136,1,110,8|0
272,56,5225,2,0,B|128:56|128:200,2,220,8|8|8
376,96,6103,5,0
320,192,6278,1,8
432,192,6453,1,0
376,288,6629,1,8
160,336,6980,1,8
56,136,7331,6,0,B|160:56,2,110,8|0|8
192,128,7857,2,0,B|88:208,1,110,0|8
328,256,8383,1,8
96,56,8911,5,8
272,88,9261,1,2
296,200,9437,2,0,B|248:232|192:224,3,110,0|8|8|2
80,200,10139,1,0
120,304,10314,1,8
352,264,10665,1,2
400,168,10840,1,0
336,80,11016,1,8
208,96,11191,2,0,B|184:160|248:240,1,110,8|2
240,312,11542,6,0,B|264:248|200:168,1,110,8|8
16,184,12068,2,0,B|16:112|112:80,2,110,2|0|8
16,184,12595,2,0,B|136:216,1,110,8|2
232,240,12946,1,0
336,272,13121,2,0,B|384:168|464:280|512:168,1,220,8|2
432,96,13647,5,0
328,56,13823,1,8
216,72,13998,2,0,B|184:120|120:136,1,110,0|2
56,216,14349,1,2
56,216,14437,1,2
56,216,14525,1,8
256,296,14875,5,2
256,88,15051,1,0
192,232,15226,1,8
320,152,15402,1,8
192,152,15577,1,2
320,232,15753,1,0
256,88,15928,1,8
256,200,16103,1,0
256,200,16279,5,2
312,296,16454,2,0,B|256:312|200:296,2,110,0|8|8
320,184,16981,2,0,B|264:168|208:184,1,110,2|0
200,296,17332,2,0,B|144:312|88:296,1,110,8|0
40,200,17682,1,2
88,104,17858,2,0,B|192:48|312:112,1,220
344,320,18560,1,0
344,192,18735,5,2
360,192,18823,1,2
376,192,18911,1,2
392,192,18998,1,2
408,192,19086,1,2
424,192,19174,1,2
440,192,19261,1,10
456,192,19349,1,2
472,192,19437,6,0,B|472:56|304:56,2,220,0|0|12
360,192,20314,1,0
360,192,20489,1,2
360,192,20665,1,0
472,192,20840,2,0,B|472:328|304:328,2,220,8|2|8
472,192,21718,1,0
472,192,21893,1,2
472,192,22068,1,0
472,192,22244,5,8
264,128,22595,2,0,B|192:232|272:352,2,220,2|8|2
56,72,23647,2,8,B|56:224,1,110,0|0
160,144,23998,1,2
272,152,24174,2,0,B|208:272,1,110,0|8
312,288,24525,2,0,B|368:176,1,110,0|2
192,56,25051,6,0,B|112:56|112:168,3,110,8|8|2|0
32,192,25753,1,8
256,192,26103,1,2
480,192,26454,2,0,B|480:80,2,110,8|8|2
384,144,26981,1,0
288,88,27156,2,0,B|184:88|184:144|64:144,2,220,8|2|8
288,88,28033,1,8
312,192,28209,5,2
336,304,28384,2,0,B|208:304,1,110,0|8
40,192,28911,1,2
240,280,29261,1,8
336,224,29437,1,8
240,168,29612,1,2
336,112,29788,1,0
240,56,29963,2,0,B|240:184,1,110
144,224,30314,2,0,B|144:352,1,110
232,264,30665,6,0,B|232:200,2,55,2|2|2
288,264,30928,2,0,B|327:224,3,55,2|2|2|2
256,192,31367,12,0,32770
424,304,36981,5,12
424,80,37332,1,2
256,192,37682,1,8
160,248,37858,2,8,B|128:296|64:304,1,110,8|2
64,80,38384,1,8
280,120,38735,2,0,B|160:120,2,110,2|0|8
256,192,39261,1,8
256,192,39437,6,0,B|144:304|272:384,1,220,2|8
320,288,39963,1,0
256,192,40139,1,2
256,192,40314,1,0
368,192,40489,2,8,B|248:192,1,110
144,192,40840,1,2
256,8,41191,5,8
256,120,41367,1,0
256,232,41542,1,2
256,344,41718,1,0
256,344,41805,1,0
256,344,41893,1,8
368,344,42068,1,8
376,232,42244,2,0,B|440:120|376:24,2,220,2|8|2
472,336,43121,5,0
472,336,43296,2,0,B|248:336,1,220,8|2
32,336,43998,2,0,B|32:88,1,220,8|2
96,24,44525,1,0
200,48,44700,2,0,B|200:288,1,220,8|2
312,240,45402,6,0,B|312:184|312:184|368:184|368:184|368:120,2,165,8|0|2
200,240,46805,2,0,B|200:184|200:184|144:184|144:184|144:120,2,165,0|0|2
256,288,48209,1,12
256,288,48560,6,0,B|152:288|152:200|32:200,2,220,2|8|2
352,240,49437,1,0
456,184,49612,1,8
456,168,49700,1,0
456,152,49788,1,0
456,40,49963,1,2
232,40,50314,1,8
120,40,50489,1,8
8,40,50665,1,2
48,256,51016,6,0,B|184:360|312:360|464:240,1,440,8|8
456,256,51893,5,8
400,160,52068,1,2
312,88,52244,1,0
224,24,52419,1,8
224,24,52507,1,0
224,24,52595,1,0
136,96,52770,6,0,B|48:184,2,110,2|0|8
64,304,53472,2,0,B|168:376|280:296,2,220,2|8|2
64,192,54349,2,0,B|200:192,2,110,0|8|8
64,80,54875,1,2
280,112,55226,1,2
152,296,55577,6,0,B|104:184|160:48,3,220,0|0|0|8
152,80,56718,1,0
152,80,56805,1,0
264,72,56981,1,2
336,160,57156,1,0
280,256,57332,1,8
280,256,57419,1,0
280,256,57507,2,0,B|168:288,1,110,8|2
72,248,57858,5,0
134,152,58033,1,8
134,152,58121,1,0
134,152,58209,1,0
240,112,58384,1,2
344,144,58560,1,0
360,256,58735,6,0,B|408:296,2,55,8|0|0
256,304,59086,1,2
248,192,59261,1,0
356,184,59437,1,12
356,184,59525,1,0
356,184,59612,1,0
420,96,59788,5,2
328,56,59963,2,0,B|272:32|176:64,2,110,0|8|8
240,128,60489,2,0,B|144:176,2,55,2|0|0
144,72,60840,6,0,B|88:176|152:296,1,220,8|2
366,283,61542,2,0,B|424:176|368:72,1,220,8|2
152,104,62244,1,8
448,192,62770,2,0,B|360:264|360:264|280:168|280:168|192:232,1,330,0|2
144,168,63472,1,0
72,88,63647,2,0,B|224:24|424:104,2,330,8|0|2
256,192,65051,12,2,66103
168,64,66454,6,0,B|246:166|158:262,1,220,8|2
112,160,66981,1,0
176,64,67156,1,2
160,72,67244,1,2
144,80,67332,1,2
128,88,67419,1,2
112,96,67507,1,2
96,104,67595,1,2
80,112,67682,1,2
64,120,67770,1,2
48,128,67858,5,10
48,352,68209,2,0,B|48:128,1,220,2|8
160,128,68735,1,8
272,128,68910,2,0,B|272:352,2,220,2|8|2
368,192,69788,1,0
464,240,69963,2,0,B|464:16,2,220,8|2|8
352,232,70840,5,8
240,232,71016,1,2
128,232,71191,2,0,B|72:192|112:104,1,110,0|8
144,32,71542,1,8
232,104,71718,6,0,B|272:48|360:88,1,110,2|0
448,88,72068,1,8
448,88,72156,1,0
448,88,72244,1,0
448,200,72419,2,0,B|360:280,1,110,2|0
264,304,72770,2,0,B|136:304,2,110,8|8|2
256,80,73472,1,12
464,32,73823,6,0,B|464:256,1,220,2|8
352,248,74349,1,8
240,248,74525,2,0,B|240:24,2,220,2|8|2
144,192,75402,1,0
48,144,75577,2,0,B|48:368,1,220,8|2
160,256,76279,6,0,B|160:200|160:200|104:200|104:200|104:136,2,165,8|0|2
256,200,77682,1,8
272,40,78209,1,0
408,216,78560,2,0,B|408:88,1,110,2|2
408,328,79086,1,8
192,344,79437,6,0,B|184:232|72:160,1,220,2|8
192,152,79963,1,8
136,56,80139,2,0,B|240:0|360:64,1,220,2|8
416,264,80840,2,0,B|304:304|184:256,1,220,2|8
120,184,81367,1,8
72,96,81542,1,2
64,312,81893,2,0,B|232:352|392:184,1,330,8|0
256,192,82595,12,0,83823
72,120,83998,6,8,B|176:40|288:128,1,220,8|2
480,32,84700,2,0,B|552:176|488:368,1,330,8|0
384,352,85402,1,8
272,352,85577,1,8
160,352,85753,2,0,B|96:256|96:256|160:160,1,220,2|2
368,64,86454,5,0
144,64,86805,1,0
144,288,87156,1,0
368,280,87507,1,8
368,280,87595,1,0
368,280,87682,1,0
256,280,87858,1,2
172,200,88033,5,0
228,104,88209,1,8
228,104,88296,1,0
228,104,88384,2,0,B|340:72,1,110,8|2
432,112,88735,5,0
376,208,88911,1,8
374,208,88998,1,0
374,208,89086,1,0
268,248,89261,1,2
156,224,89437,1,0
112,120,89612,6,0,B|64:80,2,55,8|0|0
216,72,89963,1,2
252,168,90139,1,0
144,176,90314,1,12
144,176,90402,1,0
144,176,90489,1,0
80,264,90665,5,2
180,304,90840,2,0,B|236:328|332:296,2,110,0|8|8
268,232,91367,2,0,B|364:184,2,55,2|0|0
376,208,91718,1,8
224,48,92068,2,0,B|96:16|16:112,1,220,2|8
152,280,92770,1,2
232,136,93121,6,0,B|384:64|384:64|216:16,1,330,8|0
104,328,94174,2,0,B|8:232|120:120,1,220,2|8
360,352,95051,2,0,B|360:192|232:192|232:56,1,330
128,256,95928,5,0
240,256,96103,1,0
352,248,96279,1,0
400,152,96454,2,0,B|400:80,1,55
232,72,96805,1,0
128,96,96981,1,0
72,192,97156,2,0,B|72:264,1,55
240,256,97507,5,0
336,208,97682,1,0
448,216,97858,2,0,B|448:152,1,55
280,144,98209,1,0
200,224,98384,1,0
120,304,98560,1,0
120,304,98735,2,0,B|120:248,6,55
128,192,99437,6,0,B|128:64|288:64,1,220
200,280,100139,1,8
312,280,100314,1,0
200,280,100489,1,2
256,184,100665,1,0
256,184,100753,1,0
256,184,100840,1,8
152,192,101016,6,0,B|64:160|168:72,1,110,8|2
200,32,101367,1,0
200,32,101542,1,8
312,48,101718,1,0
416,88,101893,1,2
451,190,102068,1,0
451,190,102156,1,0
451,190,102244,1,8
344,200,102419,2,0,B|400:250|346:292,2,110,8|2|0
248,256,102946,6,0,B|151:159,1,110,8|0
96,96,103296,1,2
88,208,103472,1,0
88,208,103560,1,0
88,208,103647,1,8
152,296,103823,2,0,B|216:312|216:312|232:232,1,110,8|2
336,256,104174,1,0
440,224,104349,6,0,B|480:168|416:80,1,110,8|0
336,88,104700,1,2
328,200,104875,1,0
328,200,104963,1,0
328,200,105051,1,8
216,192,105226,1,8
136,120,105402,2,0,B|88:72,4,55,2|2|2|2|8
344,56,106103,1,2
344,56,106279,2,0,B|432:56|384:160,2,110,0|8|8
392,128,106805,1,2
392,128,106893,1,0
392,128,106981,1,0
296,152,107156,5,8
299,261,107332,1,0
299,261,107419,1,0
299,261,107507,1,2
224,344,107682,1,0
120,296,107858,1,8
64,200,108033,1,8
112,104,108209,2,0,B|64:64,2,55,2|0|0
224,80,108560,5,8
336,64,108735,1,0
336,64,108823,1,0
336,64,108911,1,2
320,176,109086,1,0
432,168,109261,1,8
408,272,109437,2,0,B|456:312,2,55,8|0|2
304,312,109788,5,0
192,328,109963,1,8
192,328,110051,1,0
192,328,110139,1,0
208,216,110314,1,2
96,224,110489,1,8
136,120,110665,2,0,B|85:69,2,55,2|2|2
192,120,110928,2,0,B|192:64,2,55,2|2|2
248,120,111191,6,0,B|248:48|360:48,1,110,2|10
424,128,111542,1,0
320,152,111718,1,2
328,264,111893,2,0,B|400:264,4,55,0|0|0|0|8
224,296,112419,6,0,B|112:296,1,110,2|0
80,184,112770,2,0,B|80:64,1,110,8|0
80,72,113033,1,0
80,74,113121,1,2
192,64,113296,2,0,B|192:8,2,55,0|0|8
296,56,113647,1,8
328,160,113823,1,2
224,200,113998,1,0
152,288,114174,2,0,B|264:320,2,110,8|0|2
48,240,114700,5,0
48,240,114788,1,0
48,240,114875,1,8
104,144,115051,1,8
104,144,115226,1,2
160,240,115402,1,0
264,208,115577,2,0,B|312:240|408:200,2,110,8|0|2
264,208,116103,1,0
264,320,116279,1,8
264,320,116367,1,0
264,320,116454,1,8
368,288,116630,6,0,B|392:224,4,55,2|0|0|0|8
328,72,117332,1,2
328,72,117419,1,0
328,72,117507,1,0
240,176,117682,2,8,B|152:88,1,110,0|0
72,168,118033,2,0,B|168:264,1,110,2|0
240,304,118384,2,0,B|312:328|352:248,1,110,8|0
448,264,118735,5,2
392,168,118911,2,0,B|448:168,2,55,0|0|8
392,168,119261,1,8
304,96,119437,2,0,B|256:152|200:88,1,110,2|0
104,80,119788,2,0,B|40:184|120:328,3,220,10|10|10|10
208,312,121016,5,0
320,320,121191,1,10
432,320,121367,1,0
368,224,121542,1,10
312,128,121718,1,0
200,144,121893,1,10
240,40,122068,1,0
128,56,122244,5,2
120,64,122332,1,2
112,72,122419,1,2
104,80,122507,1,2
96,88,122595,5,10
64,304,122946,1,8
280,304,123296,1,2
152,128,123647,2,0,B|32:128,2,110,0|2|0
48,176,124174,1,2
48,176,124349,1,8
48,176,124525,1,0
48,176,124700,2,0,B|152:240|256:176,1,220,2|2
416,88,125402,5,14
448,304,125753,1,8
232,304,126103,1,2
360,128,126454,2,0,B|480:128,2,110,0|2|0
464,176,126981,1,2
464,176,127156,1,8
464,176,127332,1,0
464,176,127507,2,0,B|360:240|248:176,2,220,2|2|12
256,248,128560,5,2
304,152,128735,1,0
352,56,128911,2,8,B|416:168,1,110
456,248,129261,1,2
216,120,129612,5,8
488,128,129963,1,2
392,184,130139,2,0,B|392:264|288:264,1,110,0|8
216,272,130489,1,8
104,272,130665,1,2
64,64,131016,5,8
176,64,131191,1,0
288,64,131367,1,2
288,64,131542,1,0
400,64,131718,2,8,B|480:104|400:176,1,110
408,264,132068,1,2
176,256,132419,6,0,B|168:312,2,55,8|0|0
88,240,132770,1,2
88,128,132946,1,0
192,160,133121,1,8
296,136,133296,1,8
296,136,133472,2,0,B|352:240|288:368,1,220,2|8
80,328,134174,5,2
80,104,134525,1,8
192,104,134700,1,8
304,104,134875,2,0,B|304:240,1,110,2|0
304,328,135226,1,8
304,104,135577,1,2
192,104,135753,1,0
80,104,135928,2,8,B|80:214,1,110
80,328,136279,1,2
200,240,136630,6,0,B|200:184|200:184|144:184|144:184|144:131,2,165,8|0|2
312,240,138033,2,0,B|312:184|312:184|368:184|368:184|368:131,2,165,0|0|2
376,304,139437,1,12
376,304,139788,6,0,B|456:192|368:88,1,220,2|8
272,128,140314,1,8
224,32,140489,1,2
88,208,140840,2,0,B|88:344|256:344,1,220,8|2
256,232,141367,1,0
368,208,141542,2,0,B|368:344|200:344,1,220,8|2
160,136,142244,6,0,B|160:312|304:312|304:312|304:240,1,330,8|0
256,192,142946,12,0,144174
192,160,144349,5,8
296,128,144525,1,8
400,96,144700,2,0,B|456:200|400:328,1,220,2|8
184,320,145402,1,2
72,320,145577,2,0,B|72:256|128:232,1,110,0|8
200,144,145928,1,8
256,48,146103,1,2
256,264,146454,1,2
144,64,146805,5,0
368,64,147156,1,0
368,288,147507,1,0
144,288,147858,1,8
144,288,147946,1,0
144,288,148033,1,0
256,304,148209,1,2
328,216,148384,1,0
272,120,148560,1,8
272,120,148647,1,0
272,120,148735,2,0,B|160:88,1,110,8|2
64,128,149086,5,0
126,224,149261,1,8
126,224,149349,1,0
126,224,149437,1,0
232,264,149612,1,2
344,240,149788,1,0
344,128,149963,6,0,B|392:88,2,55,8|0|0
248,72,150314,1,2
240,184,150489,1,0
348,192,150665,1,12
348,192,150753,1,0
348,192,150840,1,0
412,280,151016,5,2
320,320,151191,2,0,B|264:344|168:312,2,110,0|8|8
232,248,151718,2,0,B|136:200,2,55,2|0|0
136,208,152068,1,8
352,200,152419,6,0,B|504:128|328:40,1,220,2|8
136,128,153121,2,0,B|208:280|296:104,1,220,2|8
24,320,153998,2,0,B|144:320,1,110,0|8
352,312,154525,1,2
408,104,154875,1,8
80,48,155402,2,0,B|80:168|80:168|208:168|208:304,1,330,8|2
256,192,156279,12,2,158384
256,192,158560,1,2
64,72,170314,5,8
168,96,170489,2,0,B|96:200,1,110,0|2
72,288,170840,1,0
184,304,171016,2,8,B|240:248|176:184,1,110
304,216,171367,1,2
304,104,171542,2,0,B|304:50|304:50|360:50,1,110,0|8
424,144,171893,6,0,B|432:200|400:248,1,110,0|2
304,304,172244,2,0,B|264:344|200:304,2,110,0|0|8
200,304,172770,2,0,B|151:276|136:216,1,110,2|0
240,160,173121,2,0,B|104:120,1,110,8|0
240,160,173472,6,0,B|304:112|272:24,2,110,2|0|8
144,216,173998,2,0,B|120:144|240:112,2,110,8|2|0
168,320,174525,2,0,B|72:232,2,110,8|0|2
280,304,175051,2,0,B|192:370,2,110,0|8|8
256,200,175577,1,2
464,280,175928,6,0,B|464:48,1,220,8|2
464,280,176454,2,0,B|224:280,1,220,0|8
464,280,176981,2,0,B|272:80,1,220,2|8
104,56,177682,6,0,B|8:152,1,110,2|0
24,248,178033,2,0,B|120:336,1,110,8|8
208,312,178384,2,0,B|296:224,1,110,2|0
296,128,178735,2,0,B|200:48,2,110,8|0|2
285,234,179261,2,0,B|208:312,1,110,0|8
105,322,179612,2,0,B|24:248,1,110,8|2
26,133,179963,2,0,B|104:56,2,110,0|8|0
128,168,180489,1,2
104,56,180665,2,0,B|224:56,1,110,0|8
312,104,181016,1,8
424,128,181191,5,2
424,144,181279,1,2
424,160,181367,1,2
424,176,181454,1,2
424,192,181542,1,2
256,336,181893,5,2
88,192,182244,1,2
256,56,182595,1,2
432,192,182946,1,2
256,56,183296,1,2
88,192,183647,1,2
256,328,183998,1,2
432,192,184349,5,2
256,56,184700,1,2
88,192,185051,1,2
256,328,185402,1,2
256,216,185577,1,2
256,200,185665,1,2
256,184,185753,1,2
56,40,186454,6,0,B|56:112|144:112,2,110,8|0|0
64,264,187858,6,0,B|144:344|144:344|224:264,1,220,8|0
264,48,189261,6,0,B|192:48|192:136,1,110,8|0
112,192,189963,1,0
112,304,190314,2,0,B|240:304,1,110,0|8
224,304,190840,1,0
256,192,191191,12,8,192068
368,216,192244,5,0
360,160,192419,1,0
320,120,192595,1,0
280,88,192770,6,0,B|232:40|160:104,2,110,0|0|8
280,88,193647,1,0
336,96,193823,1,0
392,96,193998,6,0,B|392:160,1,55
384,280,194525,2,0,B|328:320|264:272,1,110,0|8
280,288,195051,1,0
112,272,195577,6,0,B|112:152,1,110
200,88,196279,1,8
200,88,196454,1,0
96,128,196805,6,0,B|56:208|168:320|272:272,1,275,0|8
256,64,198033,5,0
312,280,198384,1,8
200,280,198560,1,0
312,280,198735,1,2
256,184,198911,1,0
256,184,198998,1,0
256,184,199086,1,8
360,192,199261,6,0,B|448:160|344:72,1,110,8|2
312,32,199612,1,0
312,32,199788,1,8
200,48,199963,1,0
96,88,200139,1,2
61,190,200314,1,0
61,190,200402,1,0
61,190,200489,1,8
168,200,200665,2,0,B|112:250|166:292,2,110,8|2|0
264,256,201191,6,0,B|361:159,1,110,8|0
416,96,201542,1,2
424,208,201718,1,0
424,208,201805,1,0
424,208,201893,1,8
360,296,202068,2,0,B|296:312|296:312|280:232,1,110,8|2
176,256,202419,1,0
72,224,202595,6,0,B|32:168|96:80,1,110,8|0
176,88,202946,1,2
184,200,203121,1,0
184,200,203209,1,0
184,200,203296,1,8
296,192,203472,1,8
376,120,203647,2,0,B|424:72,4,55,2|2|2|2|8
168,56,204349,1,2
168,56,204525,2,0,B|80:56|128:160,2,110,0|8|8
120,128,205051,1,2
120,128,205139,1,0
120,128,205226,1,0
216,152,205402,5,8
213,261,205577,1,0
213,261,205665,1,0
213,261,205753,1,2
288,344,205928,1,0
392,296,206103,1,8
448,200,206279,1,8
400,104,206454,2,0,B|448:64,2,55,2|0|0
288,80,206805,5,8
176,64,206981,1,0
176,64,207068,1,0
176,64,207156,1,2
192,176,207332,1,0
80,168,207507,1,8
104,272,207682,2,0,B|56:312,2,55,8|0|2
208,312,208033,5,0
320,328,208209,1,8
320,328,208296,1,0
320,328,208384,1,0
304,216,208560,1,2
416,224,208735,1,8
376,120,208911,2,0,B|426:69,2,55,2|2|2
320,120,209174,2,0,B|320:64,2,55,2|2|2
264,120,209437,6,0,B|264:48|152:48,1,110,2|10
88,128,209788,1,0
192,152,209963,1,2
184,264,210139,2,0,B|112:264,4,55,0|0|0|0|8
288,296,210665,6,0,B|400:296,1,110,2|0
432,184,211016,2,0,B|432:64,1,110,8|0
432,72,211279,1,0
432,74,211367,1,2
320,64,211542,2,0,B|320:8,2,55,0|0|8
216,56,211893,1,8
184,160,212068,1,2
288,200,212244,1,0
360,288,212419,2,0,B|248:320,2,110,8|0|2
464,240,212946,5,0
464,240,213033,1,0
464,240,213121,1,8
408,144,213296,1,8
408,144,213472,1,2
352,240,213647,1,0
248,208,213823,2,0,B|200:240|104:200,2,110,8|0|2
248,208,214349,1,0
248,320,214525,1,8
248,320,214612,1,0
248,320,214700,1,8
144,288,214875,6,0,B|120:224,4,55,2|0|0|0|8
184,72,215577,1,2
184,72,215665,1,0
184,72,215753,1,0
272,176,215928,2,8,B|360:88,1,110,0|0
440,168,216279,2,0,B|344:264,1,110,2|0
272,304,216630,2,0,B|200:328|160:248,1,110,8|0
64,264,216981,5,2
120,168,217156,2,0,B|64:168,2,55,0|0|8
120,168,217507,1,8
208,96,217682,2,0,B|256:152|312:88,1,110,2|0
408,80,218033,2,0,B|472:184|392:328,3,220,10|10|10|10
304,312,219261,5,0
192,320,219437,1,10
80,320,219612,1,0
144,224,219788,1,10
200,128,219963,1,0
312,144,220139,1,10
272,40,220314,1,0
384,56,220489,5,2
392,64,220577,1,2
400,72,220665,1,2
408,80,220753,1,2
416,88,220840,5,8
304,88,221016,1,0
200,88,221191,1,2
208,200,221367,2,0,B|320:248,3,110,0|8|8|2
432,200,222068,1,0
392,304,222244,1,8
280,304,222419,5,0
176,272,222595,2,0,B|120:224|168:144,1,110,2|0
192,80,222946,1,8
304,96,223121,2,0,B|328:160|264:240,1,110,8|2
272,312,223472,6,0,B|248:248|312:168,1,110,8|8
392,208,223823,1,0
496,184,223998,2,0,B|496:112|400:80,2,110,2|0|8
496,184,224525,2,0,B|376:216,1,110,8|2
280,240,224875,1,0
176,272,225051,2,0,B|128:168|48:280|0:168,1,220,8|2
80,96,225577,5,0
184,56,225753,1,8
288,88,225928,2,0,B|384:144,1,110,8|2
480,200,226279,1,2
480,200,226367,1,2
480,200,226454,1,10
296,328,226805,6,0,B|336:288|336:288|296:248,1,110,2|0
216,328,227156,2,8,B|176:288|176:288|216:248,1,110
296,176,227507,2,0,B|336:136|336:136|296:96,1,110,2|0
216,176,227858,6,0,B|176:136|176:136|216:96,2,110,8|0|2
298,250,228384,2,0,B|336:288|336:288|296:328,2,110,0|8|8
328,144,228911,2,0,B|328:88|328:88|392:88,1,110,2|0
376,208,229261,5,8
424,312,229437,1,0
472,208,229612,1,2
424,104,229788,2,0,B|320:48|200:112,2,220,0|8|0
424,104,230665,1,2
424,328,231016,1,2
200,336,231367,2,0,B|160:224|200:112,1,220,2|2
256,328,232244,5,2
184,248,232419,1,2
72,56,232770,2,0,B|192:56,1,110,2|2
296,56,233121,1,2
256,328,233472,1,2
200,232,233647,1,2
312,232,233823,1,2
256,136,233998,1,2
480,144,234349,2,0,B|496:200|480:256,1,110,2|2
256,328,235051,5,2
256,328,235226,1,2
80,200,235577,1,2
80,88,235753,1,2
176,144,235928,1,2
384,80,236279,1,2
472,152,236454,1,2
384,216,236630,1,2
272,264,236805,2,0,B|240:200|312:128|272:48,1,220,2|0
