osu file format v12

[General]
AudioFilename: Usotsuki - CooRie [TV size].MP3
AudioLeadIn: 1500
PreviewTime: 58822
Countdown: 0
SampleSet: Soft
StackLeniency: 0.7
Mode: 0
LetterboxInBreaks: 0

[Editor]
DistanceSpacing: 1
BeatDivisor: 4
GridSize: 4

[Metadata]
Title:Usotsuki (TV Size)
TitleUnicode:ウソツキ (TV Size)
Artist:CooRie
ArtistUnicode:CooRie
Creator:DakeDekaane
Version:Dekaane
Source:School Days
Tags:0verflow overflow TNK soundtrack ending
BeatmapID:216031
BeatmapSetID:51999

[Difficulty]
HPDrainRate:8
CircleSize:4
OverallDifficulty:7
ApproachRate:8
SliderMultiplier:3.09999990463257
SliderTickRate:2

[Events]
//Background and Video events
0,0,"SDBG.jpg",0,0
Video,-1140,"SchoolDaysED.avi"
//Break Periods
//Storyboard Layer 0 (Background)
//Storyboard Layer 1 (Fail)
//Storyboard Layer 2 (Pass)
//Storyboard Layer 3 (Foreground)
//Storyboard Sound Samples
//Background Colour Transformations
3,100,0,0,0

[TimingPoints]
2293,769.230769230769,4,2,1,45,1,0
5369,-100,4,2,1,30,0,0
5562,-100,4,2,1,45,0,0
18486,769.230769230769,4,2,1,45,1,0
20754,769.230769230769,4,2,1,45,1,0
33061,-100,4,2,1,30,0,0
33254,-100,4,2,1,50,0,0
45369,-100,4,2,1,30,0,0
45561,-100,4,2,1,50,0,0
48446,-100,4,2,1,30,0,0
48638,-100,4,2,1,50,0,0
51523,-100,4,2,1,30,0,0
51715,-100,4,2,1,50,0,0
53061,-100,4,2,1,30,0,0
53253,-100,4,2,1,50,0,0
54600,-100,4,2,1,30,0,0
56907,-100,4,2,1,50,0,0
57677,767.754318618042,4,2,1,50,1,0
57868,-100,4,2,1,60,0,0
60748,-100,4,2,1,80,0,1
77667,769.230769230769,4,2,1,45,1,0
80743,-100,4,2,1,60,0,0
83436,-100,4,2,1,50,0,0
84205,-100,4,2,1,40,0,0
84974,-100,4,2,1,30,0,0
85743,-100,4,2,1,20,0,0
86513,-100,4,2,1,10,0,0
86897,-100,4,2,1,5,0,0

[Colours]
Combo1 : 0,94,187
Combo2 : 157,79,0
Combo3 : 255,159,15

[HitObjects]
152,80,2293,2,0,L|224:48,1,77.4999976158143,2|0,0:0|0:0,0:0:0:0:
333,120,2677,2,0,L|256:120,1,77.4999976158143
314,199,3062,2,0,L|386:231,1,77.4999976158143,2|0,0:0|0:0,0:0:0:0:
453,313,3446,1,0,0:0:0:0:
480,224,3639,1,0,0:0:0:0:
364,296,3831,6,0,L|292:328,1,77.4999976158143,2|0,0:0|0:0,0:0:0:0:
182,256,4216,2,0,L|260:256,1,77.4999976158143
104,256,4600,1,2,0:0:0:0:
32,32,4985,1,0,0:0:0:0:
300,68,5369,1,4,0:0:0:0:
256,264,6331,5,0,0:0:0:0:
256,188,6523,1,0,0:0:0:0:
308,132,6716,1,0,0:0:0:0:
356,192,6908,2,0,P|256:292|156:192,1,309.999990463257,2|0,0:0|0:0,0:0:0:0:
64,52,8446,5,2,0:0:0:0:
140,72,8639,1,0,0:0:0:0:
216,92,8831,1,0,0:0:0:0:
297,91,9023,2,0,L|372:72,1,77.4999976158143,0|8,0:0|0:0,0:0:0:0:
184,196,9600,5,0,0:0:0:0:
256,224,9792,2,0,L|328:196,1,77.4999976158143,0|2,0:0|0:0,0:0:0:0:
476,292,10369,2,0,L|488:368,2,77.4999976158143,0|0|8,0:0|0:0|0:0,0:0:0:0:
400,60,11139,5,0,0:0:0:0:
324,48,11331,1,0,0:0:0:0:
248,68,11523,2,0,P|208:68|172:60,1,77.4999976158143,2|0,0:0|0:0,0:0:0:0:
100,28,11908,1,2,0:0:0:0:
116,196,12292,1,0,0:0:0:0:
256,296,12677,1,2,0:0:0:0:
52,324,13831,5,2,0:0:0:0:
68,248,14023,1,0,0:0:0:0:
132,204,14216,1,0,0:0:0:0:
208,200,14408,1,0,0:0:0:0:
284,196,14600,2,0,B|376:184|396:104,1,154.999995231629,2|0,0:0|0:0,0:0:0:0:
256,40,15369,1,8,0:0:0:0:
100,40,15754,5,0,0:0:0:0:
36,84,15946,1,0,0:0:0:0:
24,160,16139,2,0,P|44:236|104:276,1,154.999995231629,2|0,0:0|0:0,0:0:0:0:
336,276,16908,2,0,P|316:200|256:160,1,154.999995231629,8|0,0:0|0:0,0:0:0:0:
181,221,17485,1,0,0:0:0:0:
104,276,17677,2,0,P|44:236|24:160,1,154.999995231629,2|0,0:0|0:0,0:0:0:0:
40,44,18486,5,0,0:0:0:0:
144,156,18870,1,2,0:0:0:0:
436,84,20024,5,0,0:0:0:0:
368,160,20216,1,2,0:0:0:0:
168,344,20754,5,2,0:0:0:0:
21,229,21138,1,0,0:0:0:0:
80,52,21523,2,0,P|156:38|220:88,1,154.999995231629,8|0,0:0|0:0,0:0:0:0:
256,164,22100,1,0,0:0:0:0:
312,240,22292,6,0,P|371:282|447:268,1,154.999995231629,2|0,0:0|0:0,0:0:0:0:
488,184,22869,1,0,0:0:0:0:
396,168,23061,2,0,L|276:68,1,154.999995231629,8|0,0:0|0:0,0:0:0:0:
180,40,23638,5,0,0:0:0:0:
84,104,23830,1,2,0:0:0:0:
109,217,24023,1,0,0:0:0:0:
225,223,24215,1,0,0:0:0:0:
476,76,24984,1,2,0:0:0:0:
256,36,26138,5,2,0:0:0:0:
256,112,26330,1,0,0:0:0:0:
180,332,26907,2,0,B|256:308|332:332,1,154.999995231629
480,284,27677,1,8,0:0:0:0:
496,128,28061,5,0,0:0:0:0:
464,40,28253,1,0,0:0:0:0:
372,36,28446,2,0,B|324:104|240:108,1,154.999995231629,2|0,0:0|0:0,0:0:0:0:
16,64,29215,2,0,B|89:102|104:184,1,154.999995231629,8|0,0:0|0:0,0:0:0:0:
100,264,29792,1,0,0:0:0:0:
72,336,29984,5,2,0:0:0:0:
224,372,30369,1,0,0:0:0:0:
336,264,30753,1,0,0:0:0:0:
184,228,31138,1,2,0:0:0:0:
36,108,31907,5,0,0:0:0:0:
68,36,32100,1,0,0:0:0:0:
144,28,32292,1,8,0:0:0:0:
188,92,32484,1,0,0:0:0:0:
156,164,32677,1,0,0:0:0:0:
28,292,33061,5,4,0:0:0:0:
176,340,33446,1,0,0:0:0:0:
124,244,33638,1,2,0:0:0:0:
276,216,34023,1,0,0:0:0:0:
184,152,34215,2,0,B|247:91|326:119|326:119|405:147|469:85,1,309.999990463257,2|0,0:0|0:0,0:0:0:0:
469,85,35369,1,8,0:0:0:0:
460,304,35753,5,0,0:0:0:0:
384,284,35946,1,0,0:0:0:0:
308,299,36138,2,0,P|232:323|164:295,1,154.999995231629,2|0,0:0|0:0,0:0:0:0:
117,206,36715,2,0,P|127:133|185:80,1,154.999995231629,2|0,0:0|0:0,0:0:0:0:
288,80,37292,2,0,P|345:191|412:80,1,309.999990463257,2|0,0:0|0:0,0:0:0:0:
412,80,38446,1,8,0:0:0:0:
260,52,38830,5,0,0:0:0:0:
184,64,39023,1,0,0:0:0:0:
236,124,39215,2,0,P|248:200|204:260,1,154.999995231629,2|0,0:0|0:0,0:0:0:0:
56,304,39984,1,8,0:0:0:0:
36,152,40369,5,0,0:0:0:0:
76,84,40561,1,0,0:0:0:0:
112,152,40754,2,0,B|176:208|256:180,1,154.999995231629,2|0,0:0|0:0,0:0:0:0:
352,60,41523,2,0,B|288:4|208:32,2,154.999995231629,8|0|2,0:0|0:0|0:0,0:0:0:0:
92,320,43061,5,0,0:0:0:0:
28,180,43446,1,2,0:0:0:0:
116,48,43830,1,2,0:0:0:0:
272,56,44215,1,0,0:0:0:0:
336,196,44600,1,8,0:0:0:0:
252,328,44984,1,0,0:0:0:0:
184,188,45369,6,0,P|176:112|196:36,1,154.999995231629,4|0,0:0|0:0,0:0:0:0:
259,161,45946,2,0,P|290:91|345:35,1,154.999995231629,2|0,0:0|0:0,0:0:0:0:
339,175,46523,2,0,P|400:130|476:109,1,154.999995231629,2|0,0:0|0:0,0:0:0:0:
406,248,47292,1,0,0:0:0:0:
253,223,47677,1,8,0:0:0:0:
256,68,48061,5,0,0:0:0:0:
312,120,48254,1,0,0:0:0:0:
328,196,48446,2,0,P|336:272|316:348,1,154.999995231629,4|0,0:0|0:0,0:0:0:0:
253,223,49023,2,0,P|222:293|167:349,1,154.999995231629,2|0,0:0|0:0,0:0:0:0:
173,209,49600,2,0,P|112:254|36:275,1,154.999995231629,2|0,0:0|0:0,0:0:0:0:
106,136,50369,1,0,0:0:0:0:
259,161,50754,1,8,0:0:0:0:
356,40,51138,5,0,0:0:0:0:
456,48,51330,1,0,0:0:0:0:
396,129,51523,1,4,0:0:0:0:
80,36,52292,1,0,0:0:0:0:
159,170,52677,1,0,0:0:0:0:
4,180,53061,6,0,P|36:232|160:168,1,232.499992847443,4|2,0:0|0:0,0:0:0:0:
152,376,54215,1,2,0:0:0:0:
228,356,54407,1,0,0:0:0:0:
256,284,54600,2,0,B|292:216|360:200|412:156|428:96|400:32|356:4|304:4|280:56|256:72|256:72|232:56|208:4|156:4|112:32|84:96|100:156|152:200|208:208|216:232,1,774.999976158143,4|0,0:0|0:0,0:0:0:0:
348,284,56907,5,0,1:0:0:0:
300,344,57100,1,0,1:0:0:0:
376,360,57292,2,0,P|424:300|404:224,1,154.999995231629,0|4,0:0|0:0,0:0:0:0:
160,44,58444,1,0,1:0:0:0:
104,188,58828,1,0,1:0:0:0:
256,168,59212,5,0,1:0:0:0:
340,128,59404,1,2,0:0:0:0:
256,296,59788,5,2,0:0:0:0:
340,256,59980,1,0,1:0:0:0:
424,216,60172,1,0,0:0:0:0:
508,176,60364,1,0,0:0:0:0:
508,176,60748,6,0,B|484:128|424:108|376:136|376:136|328:164|268:144|244:96,1,309.999990463257,4|0,0:0|1:0,0:0:0:0:
96,28,61899,1,0,0:0:0:0:
169,86,62091,2,0,P|207:100|244:96,1,77.4999976158143,2|0,0:0|0:0,0:0:0:0:
96,28,62475,1,0,1:0:0:0:
12,64,62667,2,0,P|40:140|96:196,1,154.999995231629,0|0,0:0|1:0,0:0:0:0:
316,244,63435,5,0,0:0:0:0:
224,224,63627,1,0,0:0:0:0:
147,168,63819,2,0,P|88:208|60:284,1,154.999995231629,2|0,0:0|0:0,0:0:0:0:
128,348,64394,1,2,0:0:0:0:
148,256,64586,2,0,L|24:164,1,154.999995231629,0|0,1:0|0:0,0:0:0:0:
7,71,65162,5,0,0:0:0:0:
94,102,65354,2,0,L|170:115,2,77.4999976158143,0|0|0,0:0|1:0|0:0,0:0:0:0:
260,12,66122,1,0,1:0:0:0:
432,83,66506,1,0,0:0:0:0:
375,157,66698,1,0,0:0:0:0:
320,232,66890,2,0,P|289:303|228:354,2,154.999995231629,2|0|0,0:0|0:0|1:0,0:0:0:0:
264,56,68041,6,0,B|196:16|112:32,1,154.999995231629,0|2,0:0|0:0,0:0:0:0:
44,168,68809,2,0,B|72:240,1,77.4999976158143,0|0,0:0|0:0,0:0:0:0:
112,324,69193,1,0,1:0:0:0:
112,324,69577,6,0,B|187:274|252:337|252:337|316:400|392:350,1,309.999990463257,4|0,0:0|0:0,0:0:0:0:
464,288,70536,1,2,0:0:0:0:
504,204,70728,1,0,1:0:0:0:
348,96,71112,6,0,L|384:28,1,77.4999976158143,0|2,1:0|0:0,0:0:0:0:
312,164,71496,1,0,0:0:0:0:
164,96,71880,2,0,L|128:28,1,77.4999976158143,0|2,0:0|0:0,0:0:0:0:
200,164,72264,1,0,1:0:0:0:
256,84,72456,2,0,L|256:4,2,77.4999976158143,0|0|0,1:0|0:0|0:0,0:0:0:0:
256,192,73032,6,0,B|332:228|408:204,2,154.999995231629,4|0|0,0:0|0:0|1:0,0:0:0:0:
92,36,74183,1,0,0:0:0:0:
172,84,74375,1,0,0:0:0:0:
144,172,74567,2,0,P|68:152|20:96,1,154.999995231629,2|0,0:0|0:0,0:0:0:0:
116,292,75335,2,0,P|192:312|240:368,1,154.999995231629,0|0,1:0|0:0,0:0:0:0:
432,368,76103,5,2,0:0:0:0:
492,192,76486,1,0,1:0:0:0:
432,16,76870,1,0,1:0:0:0:
256,80,77254,1,4,0:0:0:0:
104,312,78051,5,0,0:0:0:0:
104,312,78436,1,0,1:0:0:0:
208,156,78820,1,0,1:0:0:0:
84,64,79013,2,0,L|120:132,1,77.4999976158143,0|4,0:0|0:0,0:0:0:0:
256,356,79590,5,0,0:0:0:0:
340,352,79782,1,0,0:0:0:0:
424,312,79974,1,0,1:0:0:0:
476,224,80166,1,0,0:0:0:0:
468,116,80359,1,0,0:0:0:0:
380,40,80551,1,0,0:0:0:0:
256,28,80743,1,4,0:0:0:0:
20,192,81513,1,0,0:0:0:0:
204,192,81897,6,0,B|124:192,1,77.4999976158143,2|0,0:0|0:0,0:0:0:0:
256,192,82282,12,0,86897,0:0:0:0:
