osu file format v5

[General]
AudioFilename: Narue_no_Sekai_-_Nagareboshi.mp3
AudioLeadIn: 0
PreviewTime: -1
Countdown: 1
SampleSet: Normal
StackLeniency: 0.7
Mode: 0
LetterboxInBreaks: 1
EditorBookmarks: 12763,48943,86556,109644,122656,168560

[Metadata]
Title:Nagareboshi
Artist:CooRie
Creator:JDude151
Version:Hard
Source:Narue no Sekai
Tags:

[Difficulty]
HPDrainRate:5
CircleSize:5
OverallDifficulty:5
SliderMultiplier:1.7
SliderTickRate:2

[Events]
//Background and Video events
0,0,"narue2.jpg"
//Break Periods
2,36123,48466
2,74097,86079
2,147836,167815
//Storyboard Layer 0 (Background)
//Storyboard Layer 1 (Failing)
//Storyboard Layer 2 (Passing)
//Storyboard Layer 3 (Foreground)
//Storyboard Sound Samples
//Background Colour Transformations
3,100,163,162,255

[TimingPoints]
13500,361.44578313253,4,1,0,49,1

[HitObjects]
64,48,13499,1,0
96,48,13680,1,0
128,48,13861,1,0
160,48,14042,1,0
224,48,14403,2,0,B|240:128|304:128|352:16,1,170
368,64,14945,1,0
400,96,15126,1,0
416,128,15307,1,0
432,160,15487,1,0
448,224,16030,5,8
432,288,16391,2,0,B|352:352,1,85
320,336,16753,2,0,B|256:256,1,85
240,288,17114,2,0,B|176:368,1,85
144,352,17475,2,0,B|48:320,1,85
64,288,17837,1,0
64,240,18018,1,0
64,192,18198,1,0
64,144,18379,1,0
112,96,18740,2,8,B|208:48,1,85
256,48,19283,5,0
288,48,19463,1,0
320,48,19644,1,0
352,48,19825,1,0
448,112,20367,1,0
416,112,20548,1,0
384,112,20728,1,0
352,112,20909,1,0
304,160,21451,1,0
272,192,21632,1,0
240,208,21813,1,0
176,224,22174,6,0,B|64:160|176:48,1,170
192,64,22716,2,0,B|320:48|384:128,1,170
353,98,23259,1,0
448,176,23801,2,2,B|448:288|400:352|288:352|176:352|96:320|96:320,1,425
64,272,25066,5,0
64,224,25246,1,0
64,176,25427,1,0
64,128,25608,1,0
64,64,25969,2,0,B|128:16|128:16|208:80,1,170
208,112,26512,1,0
208,160,26692,1,0
208,208,26873,1,0
208,256,27054,1,0
208,320,27415,2,8,B|336:368,1,85
368,352,27957,6,0,B|464:288,1,85
464,240,28319,2,0,B|464:112,1,85
432,80,28680,2,0,B|336:32,1,85
304,80,29042,2,0,B|368:192,1,85
352,224,29403,2,0,B|272:304|176:304|112:208|128:112|240:96|272:176,1,340
240,48,30668,5,0
192,48,30849,1,0
144,48,31030,1,0
96,48,31210,2,0,B|48:128,1,85
64,256,31933,1,0
96,288,32114,1,0
128,320,32295,1,0
176,336,32475,2,0,B|288:336,5,85
256,192,33921,12,4,35909
256,48,49644,5,0
160,48,50006,1,0
80,96,50367,1,0
64,176,50728,1,0
112,240,51090,2,0,B|192:320,1,85
224,256,51451,2,8,B|160:192,1,85
208,144,51813,2,0,B|272:208,1,85
320,160,52174,2,8,B|240:80,1,85
320,48,52536,1,0
416,48,52897,1,0
464,112,53259,1,0
464,192,53620,1,0
448,272,53981,2,2,B|288:304|128:208|128:192,1,340
112,128,55066,5,0
112,64,55246,1,0
176,64,55427,1,0
240,64,55608,1,0
304,64,55789,1,8
304,128,55969,1,0
304,192,56150,1,0
304,256,56331,2,8,B|480:256,1,170
464,192,56873,1,0
464,128,57054,1,0
464,64,57234,2,2,B|368:144,1,85
368,192,57957,5,0
304,192,58138,1,0
240,192,58319,1,0
176,192,58499,1,0
112,192,58680,1,8
48,192,58861,1,0
48,128,59042,1,0
112,128,59222,1,0
176,128,59403,1,8
240,128,59584,1,0
240,192,59765,1,0
240,256,60126,2,4,B|352:256,1,85
400,256,60668,1,4
480,192,61210,5,0
480,112,61572,1,0
416,48,61933,1,0
320,48,62295,1,0
240,48,62656,2,0,B|128:48,1,85
144,112,63018,2,8,B|240:112,1,85
224,176,63379,2,0,B|128:176,1,85
128,240,63740,2,8,B|224:240,1,85
208,304,64102,1,0
288,336,64463,1,0
368,336,64825,1,0
448,288,65186,1,0
384,256,65548,2,0,B|272:208,1,85
256,192,65909,1,8
256,192,66090,1,8
192,144,66451,5,0
144,96,66632,1,0
96,48,66813,1,4
192,48,67174,5,0
256,48,67355,1,0
320,48,67536,1,4
416,48,67897,5,0
384,96,68078,1,0
352,144,68259,1,4
304,192,68620,5,0
256,240,68801,1,0
208,192,68981,1,4
256,192,69885,12,0,72054
254,135,72777,6,0,B|174:135|174:279|302:247,1,170
257,249,73319,2,0,B|337:249|337:105|209:137,1,170
256,192,73861,1,0
48,48,87234,5,0
48,112,87415,1,0
48,176,87596,1,0
48,240,87777,1,0
48,304,88138,2,0,B|48:368|176:368|176:304,1,170
240,304,88680,1,0
304,304,88861,1,0
368,304,89042,1,0
432,304,89222,2,0,B|432:176,3,85
432,144,90126,6,0,B|432:64|320:32,1,85
352,48,90487,2,0,B|304:32|224:32,1,85
208,32,90849,2,0,B|144:32|96:80,1,85
80,96,91210,2,0,B|48:144|64:208,1,85
128,192,91572,1,0
192,224,91753,1,0
192,160,91933,1,0
256,192,92114,1,0
256,256,92475,1,8
256,320,92656,1,8
320,320,92837,5,0
384,320,93018,1,0
448,320,93198,1,0
448,256,93379,1,0
384,256,93560,2,0,B|288:256,2,85
384,192,94102,1,0
448,192,94283,1,0
448,128,94463,1,0
448,64,94644,1,0
368,64,95006,2,2,B|144:64|48:80|32:192,1,340
48,208,95909,6,0,B|112:288,1,85
160,272,96271,1,0
160,272,96451,2,0,B|256:192,1,85
256,272,96813,1,0
256,272,96993,2,4,B|400:272|400:48|240:64,2,340
256,352,98801,5,0
192,352,98981,1,0
128,352,99162,1,0
64,352,99343,1,0
64,288,99524,1,0
128,288,99704,1,0
192,288,99885,1,0
256,288,100066,1,0
256,224,100246,1,0
256,160,100427,1,0
256,96,100608,1,0
256,32,100789,1,0
400,32,101331,5,8
400,96,101692,2,0,B|288:96,1,85
256,144,102054,2,0,B|256:256,1,85
256,288,102415,2,0,B|128:288,1,85
112,256,102777,2,0,B|16:176,1,85
48,128,103138,2,0,B|128:48|224:48|272:176,1,255
224,192,104042,1,8
288,192,104222,1,8
256,256,104403,5,0
288,320,104584,1,0
352,320,104765,1,0
416,320,104945,2,0,B|496:240,3,85
480,192,105668,1,0
416,192,105849,1,0
352,192,106030,2,0,B|288:64|192:32,1,170
176,48,106753,2,0,B|48:64|96:224,1,170
256,192,107475,12,0,109644
112,128,110367,6,0,B|176:64|272:64,1,170
304,64,110909,2,2,B|400:64|448:192,1,170
432,224,111451,2,0,B|336:224,1,85
336,272,111813,2,0,B|288:352|160:352,1,170
144,336,112355,2,2,B|96:288|32:160,1,170
128,192,112897,2,0,B|224:192,1,85
256,192,113259,5,0
256,160,113439,1,0
256,128,113620,1,0
256,96,113801,1,0
336,96,114162,1,0
368,128,114343,1,0
384,160,114524,1,0
400,240,115066,5,8
304,288,115427,1,8
192,288,115789,1,8
112,272,116150,2,0,B|32:192|96:32|160:32,1,255
192,48,117054,1,0
240,112,117415,1,0
272,144,117596,1,4
288,176,117777,1,0
240,224,118138,1,0
240,256,118319,1,4
256,192,119042,12,0,122656
256,48,123379,5,0
176,48,123740,1,0
96,48,124102,1,0
32,96,124463,1,0
32,176,124825,2,0,B|32:272,1,85
96,272,125186,2,8,B|96:160,1,85
160,192,125548,2,0,B|160:304,1,85
224,288,125909,2,8,B|224:192,1,85
288,208,126271,5,0
368,208,126632,1,0
448,208,126993,1,0
448,128,127355,1,0
400,64,127716,2,2,B|272:32|144:64,1,255
80,48,128801,5,0
80,112,128981,1,0
80,176,129162,1,0
80,240,129343,1,0
80,304,129524,1,8
144,304,129704,1,0
208,304,129885,1,0
272,304,130066,1,0
336,304,130246,1,8
400,304,130427,1,0
464,304,130608,1,0
464,240,130789,1,0
464,176,130969,1,8
464,112,131150,1,8
400,112,131692,5,0
336,112,131873,1,0
272,112,132054,1,0
208,112,132234,1,0
144,112,132415,1,8
144,176,132596,1,0
208,176,132777,1,0
272,176,132957,1,0
336,176,133138,1,8
400,176,133319,1,0
400,240,133499,2,0,B|288:240,1,85
256,240,133861,1,4
192,240,134042,1,4
224,304,134403,1,4
304,336,134945,5,0
400,336,135307,1,0
464,272,135668,1,0
464,192,136030,1,0
432,128,136391,2,0,B|320:128,1,85
336,64,136753,2,8,B|240:64,1,85
240,128,137114,2,0,B|144:128,1,85
144,192,137475,2,8,B|48:192,1,85
48,256,137837,1,0
112,320,138198,1,0
192,320,138560,1,0
272,320,138921,1,0
352,320,139283,2,8,B|464:304|464:160|304:160,1,255
256,96,140186,5,0
208,144,140367,1,0
160,192,140548,1,4
160,192,140909,5,0
208,240,141090,1,0
256,288,141271,1,4
256,288,141632,5,0
304,240,141813,1,0
352,192,141993,1,4
352,192,142355,5,0
304,144,142536,1,0
256,96,142716,1,4
256,192,143620,12,0,145789
258,249,146512,6,0,B|338:249|338:105|210:137,1,170
255,135,147054,2,0,B|175:135|175:279|303:247,1,170
256,192,147596,1,0
48,336,168921,5,0
48,256,169283,1,0
48,176,169644,1,0
48,96,170006,1,0
128,80,170367,2,0,B|176:64|240:64,1,85
240,64,170728,2,8,B|288:64|352:80,1,85
352,96,171090,2,0,B|400:112|448:160,1,85
448,160,171451,2,8,B|496:208|512:272,1,85
496,304,171813,5,0
416,320,172174,1,0
336,320,172536,1,0
256,320,172897,1,0
192,320,173259,2,0,B|128:304|128:272,1,85
128,208,173620,1,8
128,208,173801,1,8
128,128,174343,5,0
128,64,174524,1,0
192,64,174704,1,0
256,64,174885,1,0
320,64,175066,1,8
384,64,175246,1,0
448,64,175427,1,0
448,128,175608,2,8,B|448:240,2,85
384,128,176150,1,0
320,128,176331,1,0
256,128,176512,1,0
192,128,176692,1,4
16,192,177234,5,0
80,192,177415,1,0
144,192,177596,1,0
208,192,177777,1,0
272,192,177957,1,8
336,192,178138,1,0
400,192,178319,1,0
464,192,178499,1,0
464,256,178680,1,8
400,256,178861,1,0
336,256,179042,2,0,B|224:256,1,85
192,256,179403,1,4
192,192,179584,1,4
192,96,179945,1,4
256,48,180487,5,0
320,48,180849,1,0
384,48,181210,1,0
448,48,181572,1,0
448,112,181933,2,0,B|336:112,1,85
352,176,182295,2,8,B|464:176,1,85
432,240,182656,2,0,B|320:240,1,85
336,304,183018,2,8,B|224:304,1,85
224,304,183379,1,0
144,304,183740,1,0
80,240,184102,1,0
112,176,184463,1,0
208,192,184825,2,2,B|304:192,3,85
256,192,185728,5,0
256,128,185909,1,0
256,64,186090,1,4
256,192,186451,1,0
320,192,186632,1,0
384,192,186813,1,4
256,192,187174,1,0
256,256,187355,1,0
256,320,187536,1,4
256,192,187897,1,0
192,192,188078,1,0
128,192,188259,1,4
256,192,189162,12,0,191331
256,240,192054,5,4
208,192,192234,1,0
176,128,192415,1,4
256,128,192596,1,0
336,128,192777,1,0
304,192,192957,1,0
256,240,193138,1,4
