osu file format v12

[General]
AudioFilename: 01 - Hoshizuku no Surround.mp3
AudioLeadIn: 0
PreviewTime: -1
Countdown: 1
SampleSet: Soft
StackLeniency: 0.7
Mode: 0
LetterboxInBreaks: 1
WidescreenStoryboard: 0

[Editor]
DistanceSpacing: 0.5
BeatDivisor: 1
GridSize: 8
TimelineZoom: 1

[Metadata]
Title:Hoshizuku no Surround
TitleUnicode:Hoshizuku no Surround
Artist:CooRie
ArtistUnicode:CooRie
Creator:Jerom
Version:Easy
Source:Sora no manimani
Tags:
BeatmapID:83163
BeatmapSetID:24459

[Difficulty]
HPDrainRate:4
CircleSize:3
OverallDifficulty:2
ApproachRate:2
SliderMultiplier:1.00000000596046
SliderTickRate:1

[Events]
//Background and Video events
0,0,"Sora no Manimani - OP - Large 05.jpg",0,0
Video,4199,"Sora_no_Manimani_ED_1_Hoshikuzu_no_Surround.avi"
//Break Periods
//Storyboard Layer 0 (Background)
//Storyboard Layer 1 (Fail)
//Storyboard Layer 2 (Pass)
//Storyboard Layer 3 (Foreground)
//Storyboard Sound Samples
//Background Colour Transformations
3,100,0,0,0

[TimingPoints]
7130,565.690849950502,4,2,0,100,1,0
52385,-100,4,2,0,100,0,1
69355,-100,4,2,0,100,0,0
70487,-100,4,2,0,100,0,1
78407,-100,4,2,0,100,0,0
89013,-100,4,2,0,100,0,1
89155,-100,4,2,0,100,0,0

[Colours]
Combo1 : 132,200,255
Combo2 : 196,200,255
Combo3 : 47,224,255
Combo4 : 169,254,211

[HitObjects]
256,192,7128,6,0,L|256:88,4,100.000000596046
456,160,10524,1,0,0:0:0:0:
456,160,11655,1,0,0:0:0:0:
304,128,13352,5,0,0:0:0:0:
240,136,13918,1,0,0:0:0:0:
136,248,15615,1,0,0:0:0:0:
80,240,16181,1,0,0:0:0:0:
168,192,17312,1,0,0:0:0:0:
256,144,18443,1,0,0:0:0:0:
312,152,19009,1,0,0:0:0:0:
352,184,19575,1,0,0:0:0:0:
192,176,21272,6,0,L|296:112,3,100.000000596046
280,176,23535,2,0,B|464:40|64:168|264:16,1,300.000001788138
256,192,26363,12,0,29757,0:0:0:0:
352,240,30323,5,0,0:0:0:0:
304,152,31454,1,0,0:0:0:0:
192,136,32586,1,0,0:0:0:0:
88,120,33717,1,0,0:0:0:0:
96,224,34848,6,0,P|384:80|384:56,1,400.000002384184
248,104,38808,2,0,P|190:170|96:280,1,200.000001192092
216,256,41071,2,0,L|360:88,1,200.000001192092
248,168,43334,5,0,0:0:0:0:
248,168,43899,1,0,0:0:0:0:
256,192,44465,12,0,45596,0:0:0:0:
224,192,46728,5,0,0:0:0:0:
320,192,47859,1,0,0:0:0:0:
264,120,48991,1,0,0:0:0:0:
176,160,50122,1,0,0:0:0:0:
376,160,52385,5,0,0:0:0:0:
328,160,52950,1,0,0:0:0:0:
280,160,53516,1,0,0:0:0:0:
232,160,54082,1,0,0:0:0:0:
184,160,54648,1,0,0:0:0:0:
328,160,56345,5,0,0:0:0:0:
280,160,56910,1,0,0:0:0:0:
192,160,58042,1,0,0:0:0:0:
144,160,58607,1,0,0:0:0:0:
96,160,59173,1,0,0:0:0:0:
144,160,59739,2,0,L|280:160,1,100.000000596046
208,256,61436,6,0,B|360:296|360:120|360:120|360:120,2,200.000001192092
88,96,65961,2,0,L|80:280,4,100.000000596046
192,96,69355,2,0,L|432:224,1,200.000001192092
304,216,71053,2,0,L|16:80,1,300.000001788138
176,72,74447,6,0,L|392:248,1,200.000001192092
424,160,76709,2,0,L|96:192,1,300.000001788138
200,248,79538,2,0,L|448:112,3,200.000001192092
176,168,85195,5,0,0:0:0:0:
224,168,85761,1,0,0:0:0:0:
312,216,86892,1,0,0:0:0:0:
384,144,88023,1,0,0:0:0:0:
256,192,88589,12,0,89720,0:0:0:0:
