osu file format v14

[General]
AudioFilename: Conchita Wurst - Rise Like A Phoenix.mp3
AudioLeadIn: 0
PreviewTime: 29268
Countdown: 0
SampleSet: None
StackLeniency: 0.7
Mode: 0
LetterboxInBreaks: 0
EpilepsyWarning: 1
WidescreenStoryboard: 1

[Editor]
DistanceSpacing: 1.1
BeatDivisor: 4
GridSize: 4
TimelineZoom: 1.5

[Metadata]
Title:Rise Like A Phoenix
TitleUnicode:Rise Like A Phoenix
Artist:Conchita Wurst
ArtistUnicode:Conchita Wurst
Creator:-Bakari-
Version:Twin Normal
Source:
Tags:Gero Irreversible Collab Collaboration Desperate-kun Mao Sey nwolf stefan tng thenutritiousguy eurovision song contest 2014 winner Thomas Tom Neuwirth
BeatmapID:435165
BeatmapSetID:174240

[Difficulty]
HPDrainRate:4
CircleSize:4
OverallDifficulty:3
ApproachRate:5
SliderMultiplier:1.5
SliderTickRate:2

[Events]
//Background and Video events
0,0,"_Conchita_Wurst_singer_singer_from_Austria_at_Eurovision_2014_079545_.jpg",0,0
//Break Periods
2,58736,60263
//Storyboard Layer 0 (Background)
//Storyboard Layer 1 (Fail)
//Storyboard Layer 2 (Pass)
//Storyboard Layer 3 (Foreground)
Sprite,Foreground,Centre,"SB\black.jpg",320,240 F,0,31831,32197,0,1 M,0,32197,,316,240 F,0,49759,49760,1 F,0,49760,51204,1,0
Sprite,Foreground,Centre,"SB\phoenix.png",320,240 F,0,32197,32928,0,0.950103 M,0,32928,,297,186 F,0,48295,49760,0.950103,0
Animation,Foreground,Centre,"SB\FinalFire-1-.png",320,240,10,125,LoopForever M,0,32197,,56,329 F,0,32197,32928,0,1 F,0,49760,50482,1,0
Animation,Foreground,Centre,"SB\FinalFire-1-.png",320,240,10,125,LoopForever M,0,32197,,474,329 F,0,32197,32928,0,1 F,0,49760,50482,1,0
Animation,Foreground,Centre,"SB\FinalFire-1-.png",320,240,10,125,LoopForever F,0,32197,32928,0,1 M,0,32928,,893,328 F,0,49759,50482,1,0
Sprite,Foreground,Centre,"SB\black.jpg",320,240 F,0,67624,67990,0,1 M,0,67990,,316,240 F,0,85553,,1 F,0,91286,92075,1,0
Sprite,Foreground,Centre,"SB\phoenix.png",320,240 F,0,67990,68721,0,0.950103 M,0,68721,,297,186 F,0,91286,92075,0.1614851,0
Animation,Foreground,Centre,"SB\FinalFire-1-.png",320,240,10,125,LoopForever M,0,67990,,56,329 F,0,67990,68721,0,1 F,0,85553,,1 F,0,91286,,1 F,0,91286,91483,1,0
Animation,Foreground,Centre,"SB\FinalFire-1-.png",320,240,10,125,LoopForever M,0,67990,,474,329 F,0,67990,68721,0,1 F,0,85553,,1 F,0,91286,,1 F,0,91286,91483,1,0
Animation,Foreground,Centre,"SB\FinalFire-1-.png",320,240,10,125,LoopForever F,0,67990,68721,0,1 M,0,68721,,893,328 F,0,85553,,1 F,0,91286,,1 F,0,91286,91483,1,0
//Storyboard Sound Samples

[TimingPoints]
2927,731.707317073171,4,3,1,45,1,0
32195,-100,4,3,1,55,0,1
49756,-100,4,3,1,45,0,0
62561,789.473684210526,4,3,1,45,1,0
62955,731.707317073171,4,3,1,45,1,0
63320,705.882352941176,4,3,1,45,1,0
63672,764.331210191083,4,3,1,45,1,0
64054,810.810810810811,4,3,1,45,1,0
64459,821.917808219178,4,3,1,45,1,0
64869,794.701986754967,4,3,1,45,1,0
65266,821.917808219178,4,3,1,45,1,0
65676,833.333333333333,4,3,1,45,1,0
66092,869.565217391304,4,3,1,45,1,0
66526,952.380952380952,4,3,1,45,1,0
67002,1200,4,3,1,45,1,0
67602,895.522388059701,4,3,1,45,1,0
68049,731.707317073171,4,3,1,45,1,1
91463,810.810810810811,4,3,1,45,1,0
92679,1000,4,3,1,45,1,0
93179,1034.48275862069,4,3,1,45,1,0
94213,1276.59574468085,4,3,1,45,1,0
95488,731.707317073171,4,3,1,45,1,0
99146,872.727272727273,4,3,1,45,1,0
99582,1034.48275862069,4,3,1,45,1,0
100099,1090.90909090909,4,3,1,45,1,0
100644,1304.34782608696,4,3,1,45,1,0
101296,1256.5445026178,4,3,1,45,1,0
103809,1304.34782608696,4,3,1,45,1,0

[Colours]
Combo1 : 214,156,69
Combo2 : 177,175,156
Combo3 : 184,159,213
Combo4 : 209,211,188
Combo5 : 191,164,190
Combo6 : 243,95,99

[HitObjects]
154,66,2927,6,0,L|306:72,1,150,4|2,0:2|0:0,0:0:0:0:
416,192,4390,1,0,0:0:0:0:
333,188,4756,2,0,L|183:182,1,150,2|0,0:0|0:0,0:0:0:0:
102,200,5853,6,0,P|91:264|139:342,1,150,8|2,0:0|0:0,0:0:0:0:
294,359,7317,1,2,0:0:0:0:
348,297,7683,1,8,0:0:0:0:
394,227,8048,2,0,P|398:185|389:144,1,75,2|0,0:0|0:0,0:0:0:0:
374,115,8597,1,0,0:0:0:0:
346,84,8780,6,0,P|274:73|171:97,1,150,8|2,0:0|0:0,0:0:0:0:
98,217,10244,1,0,0:0:0:0:
168,259,10609,2,0,P|240:270|343:246,1,150,2|0,0:0|0:0,0:0:0:0:
349,233,11524,1,0,0:0:0:0:
386,214,11707,6,0,L|416:44,2,150,8|2|0,0:0|0:0|0:0,0:0:0:0:
401,294,13536,2,0,P|372:327|266:339,1,150,2|8,0:0|0:0,0:0:0:0:
202,296,14634,6,0,B|122:280|139:332|56:315,1,150,4|2,0:0|0:0,0:0:0:0:
20,241,15731,1,0,0:0:0:0:
25,158,16097,1,8,0:0:0:0:
91,105,16463,2,0,P|134:86|171:83,1,75,2|0,0:0|0:0,0:0:0:0:
234,121,17195,1,2,0:0:0:0:
262,151,17378,1,0,0:0:0:0:
294,176,17561,6,0,P|348:197|447:180,1,150,4|2,0:3|0:0,0:0:0:0:
376,33,19024,1,0,0:0:0:0:
301,67,19390,2,0,P|261:76|220:76,2,75,2|8|2,0:0|0:0|0:0,0:0:0:0:
337,47,20305,1,0,0:0:0:0:
376,33,20487,6,0,P|381:88|306:149,1,150,4|2,0:2|0:0,0:0:0:0:
234,133,21585,1,0,0:0:0:0:
151,132,21951,2,0,P|92:174|90:246,1,150,4|2,0:0|0:0,0:0:0:0:
140,313,23048,1,8,0:0:0:0:
222,320,23414,6,0,L|382:329,1,150,4|2,0:0|0:0,0:0:0:0:
469,195,24878,2,0,L|319:186,1,150,4|2,0:0|0:0,0:0:0:0:
256,192,26341,12,8,28536,0:0:0:0:
256,192,29268,12,2,30731,0:0:0:0:
144,108,32195,6,0,P|256:192|367:108,1,300,4|2,0:2|0:0,0:0:0:0:
395,270,34390,2,0,P|364:291|320:304,1,75,2|8,0:0|0:0,0:0:0:0:
249,277,35122,6,0,P|191:253|98:275,1,150,4|2,0:0|0:0,0:0:0:0:
237,370,36585,2,0,P|302:354|340:280,1,150,0|2,0:0|0:0,0:0:0:0:
325,203,37683,1,8,0:0:0:0:
321,120,38048,6,0,P|448:113|403:232,1,300,4|2,0:0|0:0,0:0:0:0:
251,165,40244,2,0,L|169:171,1,75,2|8,0:0|0:0,0:0:0:0:
94,156,40975,6,0,P|146:182|184:263,1,150,4|2,0:0|0:0,0:0:0:0:
25,217,42439,2,0,P|6:172|46:78,1,150,0|2,0:0|0:0,0:0:0:0:
116,49,43536,1,8,0:0:0:0:
156,58,43719,1,0,0:0:0:0:
192,78,43902,6,0,B|273:85|250:35|335:43,1,150,4|2,0:2|0:0,0:0:0:0:
395,99,45000,1,0,0:0:0:0:
414,135,45183,1,0,0:0:0:0:
432,172,45366,2,0,L|447:283,2,112.5,0|2|8,0:0|0:0|0:0,0:0:0:0:
376,114,46829,6,0,B|294:106|317:156|232:148,1,150,4|2,0:0|0:0,0:0:0:0:
164,103,47927,1,0,0:0:0:0:
132,76,48109,1,0,0:0:0:0:
92,62,48292,2,0,P|82:113|116:171,2,112.5,8|0|0,0:0|0:0|0:0,0:0:0:0:
256,192,49756,12,2,52683,0:0:0:0:
324,220,54146,6,0,P|256:248|188:220,1,150,2|2,0:0|0:0,0:0:0:0:
120,176,55244,1,8,0:0:0:0:
136,96,55609,6,0,B|184:84|236:104|256:160|256:160|276:104|328:84|376:96,1,300,4|2,0:0|0:0,0:0:0:0:
452,128,57439,2,0,P|460:166|454:209,1,75,8|2,0:0|0:0,0:0:0:0:
412,272,58170,1,8,0:0:0:0:
336,240,58536,5,4,0:2:0:0:
256,192,61463,12,2,67002,0:0:0:0:
80,91,68049,6,0,P|126:75|226:91,1,150,4|2,0:2|0:0,0:0:0:0:
272,157,69146,2,0,P|337:192|411:193,1,150,0|8,0:0|0:0,0:0:0:0:
487,161,70244,1,2,0:0:0:0:
481,244,70609,1,8,0:0:0:0:
433,313,70975,1,4,0:0:0:0:
268,289,71707,6,0,P|199:286|131:311,2,112.5,2|0|8,0:0|0:0|0:0,0:0:0:0:
324,228,73170,2,0,P|335:182|303:86,1,150,2|4,0:0|0:0,0:0:0:0:
139,72,74634,6,0,P|129:145|159:213,1,150,2|0,0:0|0:0,0:0:0:0:
236,244,75731,1,8,0:0:0:0:
308,204,76097,1,2,0:0:0:0:
476,164,76829,6,0,P|490:220|465:316,1,150,4|2,0:0|0:0,0:0:0:0:
390,336,77927,1,0,0:0:0:0:
306,336,78292,2,0,B|222:320|241:374|156:355,1,150,0|2,0:0|0:0,0:0:0:0:
124,338,79207,1,0,0:0:0:0:
91,312,79390,1,8,0:0:0:0:
117,233,79756,6,0,B|196:250|177:196|261:212,1,150,4|2,0:2|0:0,0:0:0:0:
320,271,80853,1,0,0:0:0:0:
399,300,81219,2,0,P|425:238|410:151,1,150,0|2,0:0|0:0,0:0:0:0:
281,57,82683,6,0,B|218:53|218:53|176:73|125:56,1,150,4|2,0:3|0:0,0:0:0:0:
37,193,84146,2,0,B|100:197|100:197|142:177|193:194,1,150,0|2,0:0|0:0,0:0:0:0:
307,301,85610,6,0,P|384:318|458:295,1,150,4|2,0:2|0:0,0:0:0:0:
469,135,87073,2,0,P|461:97|466:44,1,75,0|8,0:0|0:0,0:0:0:0:
379,63,87805,2,0,P|348:90|326:129,1,75,2|8,0:0|0:0,0:0:0:0:
320,201,88536,6,0,P|261:243|171:225,1,150,4|2,0:0|0:0,0:0:0:0:
68,120,90000,2,0,B|48:188|104:193|48:200|64:276,1,150,0|2,0:0|0:0,0:0:0:0:
128,316,91097,1,8,0:0:0:0:
188,264,91463,6,0,P|242:241|415:266,1,225,4|0,0:2|0:0,0:0:0:0:
428,336,93179,6,0,P|463:314|471:213,1,150,0|2,0:0|0:0,0:0:0:0:
212,88,95488,6,0,P|177:82|130:85,1,75,4|8,0:2|0:0,0:0:0:0:
100,156,96219,2,0,P|173:176|258:159,1,150,2|4,0:0|0:0,0:0:0:0:
312,116,97317,1,8,0:0:0:0:
364,52,97683,2,0,P|437:40|509:60,1,150,2|4,0:0|0:0,0:0:0:0:
512,144,98780,1,8,0:0:0:0:
457,206,99146,6,0,P|411:214|366:204,1,75,2|0,0:0|0:0,0:0:0:0:
256,192,100099,12,4,103809,0:2:0:0:
