osu file format v14

[General]
AudioFilename: Conchita Wurst - Rise Like A Phoenix.mp3
AudioLeadIn: 0
PreviewTime: 29268
Countdown: 0
SampleSet: None
StackLeniency: 0.7
Mode: 0
LetterboxInBreaks: 0
EpilepsyWarning: 1
WidescreenStoryboard: 1

[Editor]
DistanceSpacing: 1.3
BeatDivisor: 3
GridSize: 4
TimelineZoom: 2.2

[Metadata]
Title:Rise Like A Phoenix
TitleUnicode:Rise Like A Phoenix
Artist:Conchita Wurst
ArtistUnicode:Conchita Wurst
Creator:-Bakari-
Version:Hard
Source:
Tags:Gero Irreversible Collab Collaboration Desperate-kun Mao Sey nwolf stefan tng thenutritiousguy eurovision song contest 2014 winner Thomas Tom Neuwirth
BeatmapID:420807
BeatmapSetID:174240

[Difficulty]
HPDrainRate:6
CircleSize:4
OverallDifficulty:5
ApproachRate:7
SliderMultiplier:2.2
SliderTickRate:2

[Events]
//Background and Video events
0,0,"_Conchita_Wurst_singer_singer_from_Austria_at_Eurovision_2014_079545_.jpg",0,0
//Break Periods
2,58736,61112
2,91662,94589
//Storyboard Layer 0 (Background)
//Storyboard Layer 1 (Fail)
//Storyboard Layer 2 (Pass)
//Storyboard Layer 3 (Foreground)
Sprite,Foreground,Centre,"SB\black.jpg",320,240 F,0,31823,32189,0,1 M,0,32189,,316,240 F,0,49751,49752,1 F,0,49752,51196,1,0
Sprite,Foreground,Centre,"SB\phoenix.png",320,240 F,0,32189,32920,0,0.950103 M,0,32920,,297,186 F,0,48287,49752,0.950103,0
Animation,Foreground,Centre,"SB\FinalFire-1-.png",320,240,10,125,LoopForever M,0,32189,,56,329 F,0,32189,32920,0,1 F,0,49752,50474,1,0
Animation,Foreground,Centre,"SB\FinalFire-1-.png",320,240,10,125,LoopForever M,0,32189,,474,329 F,0,32189,32920,0,1 F,0,49752,50474,1,0
Animation,Foreground,Centre,"SB\FinalFire-1-.png",320,240,10,125,LoopForever F,0,32189,32920,0,1 M,0,32920,,893,328 F,0,49751,50474,1,0
Sprite,Foreground,Centre,"SB\black.jpg",320,240 F,0,67616,67982,0,1 M,0,67982,,316,240 F,0,85545,,1 F,0,91278,92067,1,0
Sprite,Foreground,Centre,"SB\phoenix.png",320,240 F,0,67982,68713,0,0.950103 M,0,68713,,297,186 F,0,91278,92067,0.1614851,0
Animation,Foreground,Centre,"SB\FinalFire-1-.png",320,240,10,125,LoopForever M,0,67982,,56,329 F,0,67982,68713,0,1 F,0,85545,,1 F,0,91278,,1 F,0,91278,91475,1,0
Animation,Foreground,Centre,"SB\FinalFire-1-.png",320,240,10,125,LoopForever M,0,67982,,474,329 F,0,67982,68713,0,1 F,0,85545,,1 F,0,91278,,1 F,0,91278,91475,1,0
Animation,Foreground,Centre,"SB\FinalFire-1-.png",320,240,10,125,LoopForever F,0,67982,68713,0,1 M,0,68713,,893,328 F,0,85545,,1 F,0,91278,,1 F,0,91278,91475,1,0
//Storyboard Sound Samples

[TimingPoints]
2927,731.707317073171,4,3,1,45,1,0
32195,-100,4,3,1,55,0,1
49756,-100,4,3,1,45,0,0
62561,789.473684210526,4,3,1,45,1,0
62955,731.707317073171,4,3,1,45,1,0
63320,705.882352941176,4,3,1,45,1,0
63672,764.331210191083,4,3,1,45,1,0
64054,810.810810810811,4,3,1,45,1,0
64459,821.917808219178,4,3,1,45,1,0
64869,794.701986754967,4,3,1,45,1,0
65266,821.917808219178,4,3,1,45,1,0
65676,833.333333333333,4,3,1,45,1,0
66092,869.565217391304,4,3,1,45,1,0
66526,952.380952380952,4,3,1,45,1,0
67002,1200,4,3,1,45,1,0
67602,895.522388059701,4,3,1,45,1,0
68049,731.707317073171,4,3,1,45,1,1
91463,810.810810810811,4,3,1,45,1,0
92679,1000,4,3,1,45,1,0
93179,1034.48275862069,4,3,1,45,1,0
94213,1276.59574468085,4,3,1,45,1,0
95488,731.707317073171,4,3,1,45,1,0
99146,872.727272727273,4,3,1,45,1,0
99582,1034.48275862069,4,3,1,45,1,0
100099,1090.90909090909,4,3,1,45,1,0
100644,1304.34782608696,4,3,1,45,1,0
101296,1256.5445026178,4,3,1,45,1,0
103809,1304.34782608696,4,3,1,45,1,0

[Colours]
Combo1 : 214,156,69
Combo2 : 177,175,156
Combo3 : 184,159,213
Combo4 : 209,211,188
Combo5 : 191,164,190
Combo6 : 243,95,99

[HitObjects]
432,60,2927,6,0,P|440:108|396:164,1,110,4|0,0:2|0:0,0:0:0:0:
264,152,3658,2,0,P|264:184|272:220,1,55,2|0,0:0|0:0,0:0:0:0:
220,260,4024,2,0,P|184:252|152:256,1,55
104,289,4390,1,0,0:0:0:0:
60,164,4756,2,0,L|68:108,1,55,2|0,0:0|0:0,0:0:0:0:
116,56,5122,2,0,P|152:40|224:52,1,110,0|0,0:0|0:0,0:0:0:0:
352,104,5853,6,0,P|400:112|456:72,2,110,8|0|2,0:0|0:0|0:0,0:0:0:0:
316,40,6768,1,0,0:0:0:0:
388,36,6951,1,0,0:0:0:0:
324,164,7317,2,0,L|328:232,1,55,2|0,0:0|0:0,0:0:0:0:
296,284,7683,2,0,P|248:312|184:304,2,110,8|2|0,0:0|0:0|0:0,0:0:0:0:
304,136,8780,5,8,0:0:0:0:
196,40,9146,2,0,P|192:68|168:100,1,55,0|0,0:0|0:0,0:0:0:0:
124,136,9512,2,0,P|96:172|100:248,1,110,2|0,0:0|0:0,0:0:0:0:
140,288,10061,1,0,0:0:0:0:
208,312,10244,1,0,0:0:0:0:
268,272,10427,1,0,0:0:0:0:
324,316,10609,2,0,B|376:344|380:288|444:328,2,110,2|0|0,0:0|0:0|0:0,0:0:0:0:
264,188,11707,6,0,P|267:147|327:97,1,110,8|0,0:0|0:0,0:0:0:0:
384,80,12256,1,0,0:0:0:0:
436,128,12439,1,2,0:0:0:0:
380,264,12805,2,0,P|360:280|324:288,1,55,0|0,0:0|0:0,0:0:0:0:
260,276,13170,2,0,P|216:264|152:280,1,110,0|2,0:0|0:0,0:0:0:0:
28,360,13902,2,0,P|32:332|28:304,1,55,0|0,0:0|0:0,0:0:0:0:
4,236,14268,1,8,0:0:0:0:
40,92,14634,38,0,P|76:60|136:48,1,110,4|0,0:0|0:0,0:0:0:0:
244,144,15366,2,0,L|236:204,1,55,2|0,0:0|0:0,0:0:0:0:
268,264,15731,1,0,0:0:0:0:
412,256,16097,2,0,P|448:232|468:168,1,110,8|2,0:0|0:0,0:0:0:0:
296,40,16829,2,0,L|184:56,1,110,0|2,0:0|0:0,0:0:0:0:
136,108,17378,1,0,0:0:0:0:
76,68,17561,6,0,P|64:104|196:152,1,220,4|2,0:3|0:0,0:0:0:0:
300,64,18658,2,0,L|324:144,1,55,0|0,0:0|0:0,0:0:0:0:
380,152,19024,1,0,0:0:0:0:
324,284,19390,1,2,0:0:0:0:
224,180,19756,2,0,P|180:168|120:192,1,110,8|2,0:0|0:0,0:0:0:0:
108,264,20305,1,0,0:0:0:0:
180,244,20487,6,0,B|159:115|159:115|196:24,1,220,4|2,0:2|0:0,0:0:0:0:
332,4,21585,1,0,0:0:0:0:
444,92,21951,2,0,P|456:128|424:200,1,110,4|0,0:0|0:0,0:0:0:0:
248,240,22683,2,0,P|236:204|268:132,1,110,2|8,0:0|0:0,0:0:0:0:
360,244,23414,6,0,P|336:308|180:320,1,220,4|2,0:0|0:0,0:0:0:0:
77,260,24512,2,0,P|48:252|8:264,1,55,0|0,0:0|0:0,0:0:0:0:
44,328,24878,2,0,P|136:306|116:196,1,220,4|2,0:0|0:0,0:0:0:0:
0,124,25975,1,0,0:0:0:0:
272,228,26341,38,0,P|320:192|320:24,1,220,0|2,0:0|0:0,0:0:0:0:
200,100,27439,1,0,0:0:0:0:
164,240,27805,2,0,L|176:304,1,55,0|0,0:0|0:0,0:0:0:0:
224,344,28170,1,0,0:0:0:0:
368,336,28536,2,0,L|432:340,2,55,8|0|0,0:0|0:0|0:0,0:0:0:0:
328,276,29085,1,0,0:0:0:0:
316,204,29268,6,0,P|325:169|389:122,1,110,0|0,0:0|0:0,0:0:0:0:
432,256,30000,2,0,P|422:290|358:337,1,110,0|0,0:0|0:0,0:0:0:0:
248,256,30731,1,2,0:0:0:0:
120,324,31097,1,0,0:0:0:0:
128,104,31463,2,0,P|108:92|68:88,1,55,8|0,0:0|0:0,0:0:0:0:
16,128,31829,1,0,0:0:0:0:
80,159,32012,1,0,0:0:0:0:
156,176,32195,38,0,P|196:148|140:20,1,220,4|0,0:2|0:0,0:0:0:0:
80,160,33292,2,0,P|81:197|92:228,1,55,0|0,0:0|0:0,0:0:0:0:
148,252,33658,1,2,0:0:0:0:
260,156,34024,1,0,0:0:0:0:
316,16,34390,1,2,0:0:0:0:
352,80,34573,2,0,P|368:128|352:184,1,110,0|0,0:0|0:0,0:0:0:0:
312,248,35122,6,0,P|296:300|328:360,1,110,4|0,0:0|0:0,0:0:0:0:
460,380,35853,1,2,0:0:0:0:
504,244,36219,1,0,0:0:0:0:
460,188,36402,2,0,L|472:128,1,55,0|0,0:0|0:0,0:0:0:0:
380,24,36951,1,0,0:0:0:0:
200,132,37317,2,0,P|168:140|128:132,1,55,2|0,0:0|0:0,0:0:0:0:
92,92,37683,1,8,0:0:0:0:
0,192,38048,70,0,P|-12:256|128:288,1,220,4|0,0:0|0:0,0:0:0:0:
248,244,39146,2,0,L|240:304,1,55,0|0,0:0|0:0,0:0:0:0:
276,360,39512,2,0,P|348:364|388:344,1,110,2|0,0:0|0:0,0:0:0:0:
352,208,40244,1,2,0:0:0:0:
456,112,40609,2,0,P|468:92|468:52,1,55,8|0,0:0|0:0,0:0:0:0:
420,8,40975,6,0,P|376:44|396:148,1,165,4|0,0:0|0:0,0:0:0:0:
444,188,41707,2,0,P|472:228|472:296,1,110,2|0,0:0|0:0,0:0:0:0:
360,372,42439,1,0,0:0:0:0:
256,272,42805,1,0,0:0:0:0:
116,296,43170,2,0,P|68:260|56:212,1,110,2|8,0:0|0:0,0:0:0:0:
96,72,43902,70,0,P|188:28|296:84,1,220,4|2,0:2|0:0,0:0:0:0:
284,224,45000,2,0,L|280:292,1,55,0|0,0:0|0:0,0:0:0:0:
324,340,45366,2,0,P|360:356|428:336,1,110,0|0,0:0|0:0,0:0:0:0:
460,272,45914,1,2,0:0:0:0:
460,196,46097,1,0,0:0:0:0:
340,120,46463,1,8,0:0:0:0:
224,200,46829,6,0,P|180:208|112:76,1,220,4|2,0:0|0:0,0:0:0:0:
172,40,47744,1,0,0:0:0:0:
244,52,47927,1,0,0:0:0:0:
304,184,48292,2,0,P|292:244|244:280,1,110,8|0,0:0|0:0,0:0:0:0:
112,268,49024,2,0,L|48:260,1,55,2|0,0:0|0:0,0:0:0:0:
4,144,49390,2,0,L|60:152,1,55,0|0,0:0|0:0,0:0:0:0:
132,152,49756,6,0,P|168:132|180:52,1,110,4|0,2:0|0:0,0:0:0:0:
220,208,50487,2,0,P|272:200|352:40,1,220,0|0,0:0|0:0,0:0:0:0:
216,76,51585,1,0,0:0:0:0:
148,204,51951,2,0,P|163:253|232:276,1,110,0|0,0:0|0:0,0:0:0:0:
356,256,52683,6,0,P|384:252|448:304,1,110,2|0,0:0|0:0,0:0:0:0:
380,324,53231,1,0,0:0:0:0:
308,312,53414,2,0,L|240:304,1,55,0|0,0:0|0:0,0:0:0:0:
192,340,53780,1,0,0:0:0:0:
9,283,54146,2,0,L|1:163,1,110,2|0,0:0|0:0,0:0:0:0:
136,204,54878,2,0,L|160:88,1,110,2|8,0:0|0:0,0:0:0:0:
280,24,55609,6,0,P|352:8|504:64,2,220,4|0|2,0:0|0:0|0:0,0:0:0:0:
220,152,57439,1,8,0:0:0:0:
336,236,57805,2,0,L|328:296,1,55,2|0,0:0|0:0,0:0:0:0:
276,340,58170,1,8,0:0:0:0:
220,296,58353,1,0,0:0:0:0:
152,324,58536,5,4,0:0:0:0:
256,192,62012,12,2,67002,0:0:0:0:
368,320,68049,6,0,B|308:216|424:216|368:96,1,220,4|2,0:2|0:0,0:0:0:0:
252,36,69146,1,0,0:0:0:0:
116,184,69512,2,0,P|76:208|0:176,1,110,0|8,0:0|0:0,0:0:0:0:
120,96,70244,2,0,P|164:108|204:172,1,110,2|8,0:0|0:0,0:0:0:0:
179,228,70792,1,0,0:0:0:0:
264,316,70975,6,0,P|304:317|368:280,1,110,4|0,0:0|0:0,0:0:0:0:
416,144,71707,2,0,L|408:80,1,55,2|0,0:0|0:0,0:0:0:0:
316,96,72073,2,0,L|304:156,1,55,0|0,0:0|0:0,0:0:0:0:
280,216,72439,2,0,P|240:236|164:220,1,110,0|8,0:0|0:0,0:0:0:0:
104,104,73170,1,2,0:0:0:0:
40,228,73536,2,0,L|48:296,1,55,0|0,0:0|0:0,0:0:0:0:
112,316,73902,70,0,L|132:196,2,110,4|0|2,0:0|0:0|0:0,0:0:0:0:
240,368,75000,2,0,P|272:360|300:340,1,55,0|0,0:0|0:0,0:0:0:0:
332,288,75366,1,0,0:0:0:0:
380,148,75731,2,0,L|392:92,1,55,8|0,0:0|0:0,0:0:0:0:
356,28,76097,2,0,P|308:16|228:32,1,110,2|0,0:0|0:0,0:0:0:0:
184,60,76646,1,0,0:0:0:0:
104,184,76829,6,0,L|112:296,1,110,4|0,0:0|0:0,0:0:0:0:
240,356,77561,2,0,P|280:360|344:316,1,110,2|0,0:0|0:0,0:0:0:0:
378,262,78109,1,0,0:0:0:0:
372,192,78292,1,0,0:0:0:0:
280,92,78658,1,0,0:0:0:0:
184,200,79024,2,0,P|160:204|116:196,1,55,2|0,0:0|0:0,0:0:0:0:
80,148,79390,1,8,0:0:0:0:
140,276,79756,70,0,P|184:288|256:152,1,220,4|2,0:2|0:0,0:0:0:0:
180,48,80853,1,0,0:0:0:0:
176,192,81219,2,0,L|24:184,2,146.666666666667,0|0|0,0:0|0:0|0:0,0:0:0:0:
368,180,82683,6,0,P|360:136|212:80,1,220,4|2,0:3|0:0,0:0:0:0:
168,216,83780,1,0,0:0:0:0:
148,356,84146,2,0,L|-12:340,2,146.666666666667,0|0|0,0:0|0:0|0:0,0:0:0:0:
392,244,85609,70,0,P|344:300|144:188,1,330,4|0,0:2|0:0,0:0:0:0:
240,36,87073,1,0,0:0:0:0:
144,144,87439,1,8,0:0:0:0:
52,260,87805,2,0,P|64:312|108:348,1,110,2|8,0:0|0:0,0:0:0:0:
296,288,88536,70,0,L|316:64,1,220,4|2,0:0|0:0,0:0:0:0:
456,68,89634,2,0,L|448:188,1,110,0|0,0:0|0:0,0:0:0:0:
432,320,90366,1,0,0:0:0:0:
304,376,90731,6,0,P|248:368|180:228,1,220,2|4,0:0|0:2,0:0:0:0:
104,96,95489,6,0,P|144:80|208:92,1,110,4|8,0:2|0:0,0:0:0:0:
328,168,96219,1,2,0:0:0:0:
460,112,96585,2,0,P|476:92|480:56,1,55,0|0,0:0|0:0,0:0:0:0:
408,64,96951,2,0,P|388:116|424:172,1,110,4|8,0:0|0:0,0:0:0:0:
512,256,97683,1,2,0:0:0:0:
400,344,98048,1,0,0:0:0:0:
300,248,98414,6,0,L|304:176,1,55,4|0,0:0|0:0,0:0:0:0:
268,132,98780,1,8,0:0:0:0:
156,188,99146,5,2,0:0:0:0:
36,168,99582,5,0,0:0:0:0:
20,44,100099,5,4,2:0:0:0:
128,16,100644,5,4,2:0:0:0:
256,192,101296,12,4,103809,2:0:0:0:
