osu file format v14

[General]
AudioFilename: Conchita Wurst - Heroes (1).mp3
AudioLeadIn: 0
PreviewTime: 119719
Countdown: 0
SampleSet: Soft
StackLeniency: 0.7
Mode: 0
LetterboxInBreaks: 0
WidescreenStoryboard: 0

[Editor]
DistanceSpacing: 1
BeatDivisor: 4
GridSize: 4
TimelineZoom: 1

[Metadata]
Title:Heroes
TitleUnicode:Heroes
Artist:Conchita Wurst
ArtistUnicode:Conchita Wurst
Creator:Pappy
Version:#unstoppables
Source:
Tags:thomas neuwirth Austria drag queen lgbt pjecoo -bakari-
BeatmapID:707160
BeatmapSetID:317437

[Difficulty]
HPDrainRate:5
CircleSize:4
OverallDifficulty:6.5
ApproachRate:7.2
SliderMultiplier:3.25
SliderTickRate:1

[Events]
//Background and Video events
0,0,"BG.jpg",0,0
Video,0,"Conchita Wurst - Heroes.avi"
//Break Periods
2,77192,90667
2,149919,156122
//Storyboard Layer 0 (Background)
//Storyboard Layer 1 (Fail)
//Storyboard Layer 2 (Pass)
//Storyboard Layer 3 (Foreground)
//Storyboard Sound Samples

[TimingPoints]
4265,909.090909090909,4,2,1,60,1,0
4265,-200,4,2,1,60,0,0
47901,-100,4,2,1,75,0,1
73355,-133.333333333333,4,2,1,60,0,0
106083,-200,4,2,1,60,0,0
120174,-133.333333333333,4,2,1,60,0,0
120628,-100,4,2,1,75,0,1
149719,-133.333333333333,4,2,1,60,0,0
164264,-100,4,2,1,60,0,0
178810,-80,4,2,1,75,0,1
193242,-80,4,2,1,75,0,0
193355,-80,4,2,1,75,0,1
207901,-80,4,2,1,25,0,0
214264,-80,4,2,1,5,0,0

[Colours]
Combo1 : 110,110,110
Combo2 : 234,234,234

[HitObjects]
56,112,4265,6,0,L|220:100,1,162.5,2|0,0:0|0:0,0:0:0:0:
292,136,5628,1,0,0:0:0:0:
224,180,6083,2,0,P|193:246|246:320,1,162.5,2|0,0:0|0:0,0:0:0:0:
276,244,7446,1,0,0:0:0:0:
304,168,7901,6,0,B|322:131|322:131|310:52|310:52|280:21,1,162.5,2|0,0:0|0:0,0:0:0:0:
200,32,9265,1,0,0:0:0:0:
192,112,9719,2,0,L|144:184,1,81.25,2|0,0:0|0:0,0:0:0:0:
172,256,10628,2,0,L|124:328,1,81.25,2|0,0:0|0:0,0:0:0:0:
200,356,11537,6,0,B|228:312|228:312|340:328,1,162.5,2|0,0:0|0:0,0:0:0:0:
412,300,12901,1,0,0:0:0:0:
408,220,13355,2,0,B|392:172|392:172|424:140|424:140|400:76,1,162.5,2|0,0:0|0:0,0:0:0:0:
332,120,14719,1,0,0:0:0:0:
252,136,15174,6,0,B|220:112|180:120|180:120|184:72|128:52|100:88|100:88|60:96|52:140|64:176|120:176,1,325,2|2,0:0|0:0,0:0:0:0:
176,324,17901,1,0,0:0:0:0:
270,190,18810,6,0,L|432:204,1,162.5,2|0,0:0|0:0,0:0:0:0:
480,140,20174,1,0,0:0:0:0:
440,68,20628,2,0,B|410:39|410:39|333:18|333:18|293:28,1,162.5,2|0,0:0|0:0,0:0:0:0:
216,56,21992,1,0,0:0:0:0:
140,88,22446,6,0,B|144:128|144:128|132:168|132:168|156:216|120:260|88:264|44:264|16:224|20:176|56:160,1,325,2|2,0:0|0:0,0:0:0:0:
220,168,25174,2,0,L|312:156,1,81.25
364,108,26083,6,0,P|374:192|316:236,1,162.5,2|0,0:0|0:0,0:0:0:0:
240,260,27446,1,0,0:0:0:0:
164,232,27901,2,0,B|107:128|107:128|151:144,1,162.5
228,152,29265,5,0,0:0:0:0:
196,80,29719,2,0,L|116:51,1,81.25
48,88,30628,2,0,B|56:112|52:140|52:140|40:168|40:168|60:188|64:220|64:220|84:240,1,162.5
196,348,32446,1,0,0:0:0:0:
256,192,33355,6,0,P|316:172|384:244,2,162.5
256,192,36992,2,0,P|243:253|146:276,2,162.5
256,192,40628,6,0,P|208:150|237:55,2,162.5
256,192,44265,5,0,0:0:0:0:
154,219,47901,6,0,P|112:216|72:240,1,81.25,6|0,0:0|0:0,0:0:0:0:
128,296,48355,2,0,L|17:159,1,162.5,0|10,0:0|0:0,0:0:0:0:
40,88,49037,1,0,0:0:0:0:
116,56,49265,2,0,P|156:48|196:56,1,81.25,2|0,0:0|0:0,0:0:0:0:
295,131,49719,6,0,P|255:139|216:132,1,81.25,2|0,0:0|0:0,0:0:0:0:
316,55,50174,2,0,P|356:48|396:56,1,81.25,2|0,0:0|0:0,0:0:0:0:
472,88,50628,2,0,L|448:248,1,162.5,10|0,0:0|0:0,0:0:0:0:
456,328,51310,1,0,0:0:0:0:
380,296,51537,6,0,L|300:284,1,81.25,2|0,0:0|0:0,0:0:0:0:
236,232,51992,2,0,P|217:284|276:363,1,162.5,0|10,0:0|0:0,0:0:0:0:
299,283,52674,1,0,0:0:0:0:
312,204,52901,2,0,L|282:122,1,81.25,2|0,0:0|0:0,0:0:0:0:
256,52,53355,6,0,P|294:121|360:96,1,162.5,2|0,0:0|0:0,0:0:0:0:
432,60,54037,1,0,0:0:0:0:
432,140,54265,1,10,0:0:0:0:
490,259,54492,1,0,0:0:0:0:
373,197,54719,1,0,0:0:0:0:
504,178,54946,1,0,0:0:0:0:
409,270,55174,6,0,P|326:263|292:192,1,162.5,2|0,0:0|0:0,0:0:0:0:
332,128,55855,1,0,0:0:0:0:
252,132,56083,1,8,0:0:0:0:
218,58,56311,1,0,0:0:0:0:
119,146,56537,1,0,0:0:0:0:
189,187,56764,1,0,0:0:0:0:
136,66,56992,6,0,P|95:68|52:96,1,81.25,2|0,0:0|0:0,0:0:0:0:
40,168,57446,2,0,B|64:280|64:280|40:324,1,162.5,0|8,0:0|0:0,0:0:0:0:
204,328,58355,2,0,L|243:254,1,81.25
312,300,58810,5,2,0:0:0:0:
388,276,59037,1,0,0:0:0:0:
416,200,59264,2,0,B|392:96|392:96|420:44,2,162.5,0|8|0,0:0|0:0|0:0,0:0:0:0:
388,276,60401,1,0,0:0:0:0:
312,300,60628,6,0,P|268:302|232:288,1,81.25,2|0,0:0|0:0,0:0:0:0:
192,220,61083,2,0,P|152:298|190:355,2,162.5,0|8|0,0:0|0:0|0:0,0:0:0:0:
272,128,62219,1,0,0:0:0:0:
388,257,62446,6,0,B|268:265|268:265|232:289,1,162.5,2|0,0:0|0:0,0:0:0:0:
152,280,63128,1,0,0:0:0:0:
84,232,63355,2,0,P|71:300|133:362,1,162.5,8|0,0:0|0:0,0:0:0:0:
152,280,64037,1,0,0:0:0:0:
156,200,64264,6,0,L|232:148,1,81.25,2|0,0:0|0:0,0:0:0:0:
303,26,64719,2,0,L|236:72,1,81.25
300,124,65174,2,0,B|336:143|336:143|410:112|410:112|421:72,1,162.5,8|0,0:0|0:0,0:0:0:0:
480,16,65855,1,0,0:0:0:0:
484,144,66083,6,0,L|459:240,1,81.25,2|0,0:0|0:0,0:0:0:0:
410,345,66537,2,0,P|394:308|396:268,1,81.25
392,188,66992,2,0,L|228:204,1,162.5,8|0,0:0|0:0,0:0:0:0:
148,200,67674,1,0,0:0:0:0:
68,220,67901,6,0,P|72:164|88:140,1,81.25,2|0,0:0|0:0,0:0:0:0:
126,280,68355,2,0,P|122:336|106:360,1,81.25
46,300,68810,1,8,0:0:0:0:
148,200,69037,1,0,0:0:0:0:
183,338,69265,1,0,0:0:0:0:
68,220,69492,1,0,0:0:0:0:
227,179,69719,6,0,B|340:152|340:152|384:168,1,162.5,2|0,0:0|0:0,0:0:0:0:
335,233,70401,1,0,0:0:0:0:
415,242,70628,1,8,0:0:0:0:
351,92,70855,1,0,0:0:0:0:
254,223,71083,1,0,0:0:0:0:
426,152,71310,1,0,0:0:0:0:
264,132,71537,6,0,L|168:112,1,81.25,2|0,0:0|0:0,0:0:0:0:
112,152,71992,2,0,L|16:132,1,81.25
36,216,72446,2,0,B|75:225|75:225|123:340,1,162.5,8|0,0:0|0:0,0:0:0:0:
288,352,73128,1,0,0:0:0:0:
217,201,73355,5,2,0:0:0:0:
256,192,73469,12,0,76992,0:0:0:0:
48,100,91537,5,2,0:0:0:0:
128,76,91765,1,0,0:0:0:0:
108,160,91992,2,0,L|120:220,1,60.9375023245812
188,308,92446,2,0,L|200:248,1,60.9375023245812,8|0,0:0|0:0,0:0:0:0:
268,128,92901,1,0,0:0:0:0:
192,164,93128,1,0,0:0:0:0:
336,180,93355,6,0,P|352:132|320:58,1,121.875004649162,2|0,0:0|0:0,0:0:0:0:
268,128,94037,1,0,0:0:0:0:
176,68,94264,2,0,L|52:84,1,121.875004649162,8|0,0:0|0:0,0:0:0:0:
12,160,94946,1,0,0:0:0:0:
12,160,95060,1,0,0:0:0:0:
12,160,95174,6,0,B|4:208|40:244|40:244|64:268,1,121.875004649162,2|0,0:0|0:0,0:0:0:0:
140,236,95855,1,0,0:0:0:0:
236,316,96083,2,0,P|288:280|344:284,1,121.875004649162,8|0,0:0|0:0,0:0:0:0:
308,360,96764,1,0,0:0:0:0:
428,268,96992,6,0,L|420:204,1,60.9375023245812,2|0,0:0|0:0,0:0:0:0:
464,79,97446,2,0,L|472:140,1,60.9375023245812,2|0,0:0|0:0,0:0:0:0:
388,136,97901,1,10,0:0:0:0:
251,144,98128,1,0,0:0:0:0:
359,57,98355,1,2,0:0:0:0:
324,192,98583,1,0,0:0:0:0:
273,62,98810,6,0,P|207:71|170:118,1,121.875004649162,2|0,0:0|0:0,0:0:0:0:
180,196,99492,1,0,0:0:0:0:
184,280,99719,2,0,P|184:316|172:340,1,60.9375023245812,8|0,0:0|0:0,0:0:0:0:
24,304,100174,2,0,P|24:268|36:244,1,60.9375023245812
137,133,100628,6,0,P|144:48|120:20,1,121.875004649162,2|0,0:0|0:0,0:0:0:0:
68,88,101310,1,0,0:0:0:0:
63,171,101537,1,8,0:0:0:0:
132,220,101764,1,0,0:0:0:0:
208,184,101992,2,0,L|284:172,1,60.9375023245812
324,108,102446,6,0,P|355:178|336:224,1,121.875004649162,2|0,0:0|0:0,0:0:0:0:
268,260,103128,1,0,0:0:0:0:
340,304,103355,2,0,P|332:342|344:376,1,60.9375023245812,8|0,0:0|0:0,0:0:0:0:
420,336,103810,2,0,P|456:323|480:296,1,60.9375023245812
412,248,104264,6,0,L|416:180,1,60.9375023245812,2|0,0:0|0:0,0:0:0:0:
360,124,104719,2,0,B|268:108|268:108|292:84,1,121.875004649162,0|8,0:0|0:0,0:0:0:0:
364,48,105401,1,0,0:0:0:0:
364,48,105514,1,0,0:0:0:0:
364,48,105628,1,2,0:0:0:0:
423,165,105855,1,0,0:0:0:0:
292,157,106083,6,0,B|168:140|168:140|192:176,2,162.5
268,240,109719,2,0,B|345:141|345:141|301:144,2,162.5
207,178,113355,6,0,B|254:294|254:294|274:255,2,162.5
256,192,116992,1,0,0:0:0:0:
404,80,119719,6,0,L|400:120,1,40.625,0|0,1:0|0:0,0:0:0:0:
308,200,120174,2,0,L|300:136,1,60.9375023245812,0|0,1:0|0:0,0:0:0:0:
184,80,120628,6,0,L|160:244,1,162.5,6|2,1:2|0:0,0:0:0:0:
80,240,121310,1,0,0:0:0:0:
120,312,121537,2,0,P|152:324|204:308,1,81.25,8|0,0:0|0:0,0:0:0:0:
391,312,121992,2,0,P|353:324|315:313,1,81.25,2|0,0:0|0:0,0:0:0:0:
216,236,122446,6,0,P|254:224|293:235,1,81.25,2|0,0:0|0:0,0:0:0:0:
256,308,122901,2,0,L|336:152,2,162.5,2|8|2,0:0|0:0|0:0,0:0:0:0:
176,308,124037,1,0,0:0:0:0:
88,364,124264,6,0,B|70:327|70:327|87:248|87:248|118:222,1,162.5,2|2,0:2|0:0,0:0:0:0:
228,184,124946,1,0,0:0:0:0:
305,277,125174,2,0,B|336:251|336:251|353:172|353:172|335:135,1,162.5,8|2,0:0|0:0,0:0:0:0:
228,184,125855,1,0,0:0:0:0:
186,298,126083,2,0,P|201:343|225:369,1,81.25,2|0,0:0|0:0,0:0:0:0:
304,356,126537,2,0,B|420:328|420:328|460:344,1,162.5,2|8,0:0|0:0,0:0:0:0:
456,204,127219,1,0,0:0:0:0:
316,252,127446,1,2,0:0:0:0:
500,272,127674,1,0,0:0:0:0:
376,196,127901,6,0,P|297:172|238:222,1,162.5,2|0,0:0|0:0,0:0:0:0:
316,252,128583,1,0,0:0:0:0:
188,344,128810,2,0,L|108:332,1,81.25,8|0,0:0|0:0,0:0:0:0:
24,184,129264,2,0,L|104:196,1,81.25,2|0,0:0|0:0,0:0:0:0:
272,172,129719,5,2,0:0:0:0:
216,232,129946,1,0,0:0:0:0:
248,93,130174,1,2,0:0:0:0:
352,190,130628,2,0,P|448:172|468:116,1,162.5,8|0,0:0|0:0,0:0:0:0:
388,116,131310,1,0,0:0:0:0:
464,264,131537,6,0,L|444:344,1,81.25,2|0,0:0|0:0,0:0:0:0:
364,324,131992,2,0,L|293:366,1,81.25,2|0,0:0|0:0,0:0:0:0:
171,275,132446,2,0,L|250:295,1,81.25,8|0,0:0|0:0,0:0:0:0:
189,193,132901,2,0,L|148:124,1,81.25,2|0,0:0|0:0,0:0:0:0:
104,56,133355,6,0,P|66:120|101:194,2,162.5,2|2|8,0:0|0:0|0:0,0:0:0:0:
148,123,134492,1,0,0:0:0:0:
324,104,134719,1,2,0:0:0:0:
232,56,134946,1,0,0:0:0:0:
240,171,135174,6,0,P|311:212|385:193,1,162.5,2|2,0:0|0:0,0:0:0:0:
404,116,135855,1,0,0:0:0:0:
456,232,136083,2,0,L|440:312,1,81.25,8|0,0:0|0:0,0:0:0:0:
344,372,136537,2,0,L|360:292,1,81.25,2|0,0:0|0:0,0:0:0:0:
376,212,136992,5,2,0:0:0:0:
281,318,137219,1,0,0:0:0:0:
421,348,137446,1,0,0:0:0:0:
438,267,137674,1,0,0:0:0:0:
298,237,137901,2,0,P|221:262|201:335,1,162.5,8|0,0:0|0:0,0:0:0:0:
281,318,138583,1,0,0:0:0:0:
388,224,138810,6,0,B|382:183|382:183|314:140|314:140|276:154,1,162.5,2|2,0:0|0:0,0:0:0:0:
200,184,139492,1,0,0:0:0:0:
136,132,139719,2,0,P|117:168|120:208,1,81.25,8|0,0:0|0:0,0:0:0:0:
163,339,140174,2,0,P|182:304|180:264,1,81.25
200,184,140628,5,2,0:0:0:0:
61,149,140856,1,0,2:0:0:0:
99,287,141083,2,0,L|261:318,1,162.5,2|0,0:0|0:0,0:0:0:0:
368,243,141764,1,0,0:0:0:0:
322,367,141992,1,0,0:0:0:0:
287,240,142220,1,0,0:0:0:0:
391,322,142446,6,0,P|448:236|424:186,1,162.5,2|2,0:0|0:0,0:0:0:0:
352,164,143128,1,0,0:0:0:0:
332,84,143355,2,0,P|360:56|404:48,1,81.25,8|0,0:0|0:0,0:0:0:0:
452,112,143810,1,0,0:0:0:0:
272,141,144037,6,0,P|233:130|204:96,1,81.25,0|2,0:0|0:0,0:0:0:0:
260,40,144492,1,2,0:0:0:0:
336,192,144719,2,0,L|328:280,1,81.25,2|0,0:0|0:0,0:0:0:0:
392,324,145174,2,0,P|324:280|252:312,1,162.5,8|0,0:0|0:0,0:0:0:0:
320,360,145855,1,0,0:0:0:0:
452,264,146083,6,0,B|400:168|472:84|472:84|420:136|348:176|248:176|176:120|164:40|220:0|272:-8|328:0|344:84|296:136|236:156|236:156|224:220|152:240|152:240|92:256|88:316,1,975,2|8,0:0|0:0,0:0:0:0:
169,318,149037,2,0,P|201:322|217:318,2,40.625
264,75,149719,5,4,0:0:0:0:
180,164,156992,6,0,B|232:96|184:8|84:12|12:72|40:184|132:188|132:188|184:296|184:296|136:324|136:324|212:360|212:360|240:272,1,731.250027894975,2|0,0:0|0:0,0:0:0:0:
368,372,160174,1,0,0:0:0:0:
404,288,160628,6,0,B|414:248|385:214|385:214|420:160|375:117|375:117|425:97|413:40|413:40|415:4|456:2|499:13|488:53|488:53|457:99|494:137|494:137|444:170|464:228|464:228|424:267|436:323|436:323|460:303,1,731.250027894975,2|0,0:0|0:0,0:0:0:0:
304,276,163810,1,0,0:0:0:0:
151,246,164264,6,0,B|68:260|68:260|40:288,1,121.875,2|0,0:0|0:0,0:0:0:0:
20,320,164719,1,0,0:0:0:0:
96,348,164946,2,0,L|264:320,1,162.5
296,248,165628,1,2,0:0:0:0:
340,316,165855,1,0,0:0:0:0:
400,220,166083,6,0,B|420:192|420:192|420:168|420:168|456:112,1,121.875,2|0,0:0|0:0,0:0:0:0:
476,80,166537,1,0,0:0:0:0:
396,60,166764,2,0,B|374:94|374:94|295:113|295:113|260:91,1,162.5,0|0,2:0|0:0,0:0:0:0:
196,40,167446,1,2,0:0:0:0:
168,56,167901,6,0,P|112:56|48:40,1,121.875,2|0,0:0|0:0,0:0:0:0:
12,24,168355,1,0,0:0:0:0:
4,104,168583,2,0,P|-16:172|36:248,1,162.5
108,272,169264,1,2,0:0:0:0:
136,292,169719,6,0,L|276:280,1,121.875,2|0,0:0|0:0,0:0:0:0:
300,276,170174,1,0,0:0:0:0:
264,204,170401,1,0,0:0:0:0:
104,180,170855,1,0,0:0:0:0:
96,160,170969,1,0,0:0:0:0:
88,140,171083,1,2,0:0:0:0:
168,128,171310,1,0,0:0:0:0:
169,106,171424,1,0,0:0:0:0:
170,84,171537,6,0,L|303:59,1,121.875,2|0,0:0|0:0,0:0:0:0:
328,48,171992,1,0,0:0:0:0:
396,8,172219,2,0,P|401:80|316:128,1,162.5
256,148,172901,1,2,0:0:0:0:
236,168,173355,6,0,B|228:264|228:264|248:244,1,121.875,2|0,0:0|0:0,0:0:0:0:
276,216,173810,1,0,0:0:0:0:
352,240,174037,2,0,L|246:364,1,162.5
176,324,174719,1,2,0:0:0:0:
105,284,174946,2,0,L|69:263,1,40.625
36,244,175174,6,0,P|32:192|72:124,1,121.875,2|0,0:0|0:0,0:0:0:0:
96,104,175628,1,0,0:0:0:0:
128,176,175855,2,0,L|296:160,1,162.5
440,128,176537,1,2,0:0:0:0:
393,274,176764,1,0,0:0:0:0:
256,192,176992,12,0,177901,0:0:0:0:
88,128,178810,6,0,L|192:112,1,101.5625,6|0,0:0|0:0,0:0:0:0:
280,152,179264,1,2,0:0:0:0:
199,211,179492,1,0,3:0:0:0:
199,211,179605,1,0,0:0:0:0:
199,211,179719,2,0,P|192:284|204:308,1,101.5625,8|0,0:0|0:0,0:0:0:0:
292,256,180174,1,0,0:0:0:0:
380,304,180401,1,0,0:0:0:0:
464,208,180628,6,0,L|480:104,1,101.5625,2|0,0:0|0:0,0:0:0:0:
408,36,181083,1,2,0:0:0:0:
332,104,181310,1,0,0:0:0:0:
248,48,181537,2,0,P|176:48|152:68,1,101.5625,8|0,0:0|0:0,0:0:0:0:
7,164,181992,2,0,P|56:172|100:148,1,101.5625,2|0,0:0|0:0,0:0:0:0:
36,68,182446,6,0,L|76:268,1,203.125,2|0,0:0|0:0,0:0:0:0:
164,316,183128,1,0,0:0:0:0:
164,316,183242,1,0,0:0:0:0:
164,316,183355,2,0,P|212:316|256:288,1,101.5625,8|0,0:0|0:0,0:0:0:0:
184,216,183810,1,0,0:0:0:0:
220,120,184037,1,0,0:0:0:0:
320,128,184264,6,0,L|436:96,1,101.5625,2|0,0:0|0:0,0:0:0:0:
228,88,184719,2,0,L|112:120,1,101.5625
40,68,185174,2,0,P|30:133|80:204,1,152.34375,8|0,0:0|0:0,0:0:0:0:
116,232,185628,2,0,P|136:288|120:332,1,101.5625,2|0,0:0|0:0,0:0:0:0:
0,284,186083,5,2,0:0:0:0:
24,184,186310,1,0,0:0:0:0:
108,128,186537,2,0,L|212:132,1,101.5625,2|0,0:0|0:0,0:0:0:0:
209,131,186878,1,0,0:0:0:0:
209,131,186992,1,8,0:0:0:0:
300,88,187219,1,0,0:0:0:0:
292,188,187446,2,0,L|392:172,1,101.5625,2|0,0:0|0:0,0:0:0:0:
460,96,187901,6,0,P|493:169|468:240,2,152.34375,2|0|0,0:0|0:0|0:0,0:0:0:0:
392,171,188810,2,0,L|190:204,1,203.125,8|0,0:0|0:0,0:0:0:0:
120,276,189492,1,0,0:0:0:0:
40,152,189719,6,0,B|20:72|72:12|72:12|104:68,1,203.125,2|0,0:0|0:0,0:0:0:0:
184,116,190401,1,0,0:0:0:0:
284,92,190628,2,0,P|340:64|364:32,1,101.5625,8|0,0:0|0:0,0:0:0:0:
464,24,191083,1,0,0:0:0:0:
424,144,191310,2,0,L|432:196,1,50.78125
440,244,191537,6,0,B|440:304|440:304|420:344,1,101.5625,2|0,0:0|0:0,0:0:0:0:
340,280,191992,1,2,0:0:0:0:
256,224,192219,1,0,0:0:0:0:
256,224,192333,1,0,0:0:0:0:
256,224,192446,2,0,B|196:224|196:224|156:204,1,101.5625,8|0,0:0|0:0,0:0:0:0:
116,176,192787,1,0,0:0:0:0:
72,148,192901,1,2,0:0:0:0:
148,80,193128,1,0,0:0:0:0:
40,244,193355,6,0,L|220:344,1,203.125,6|0,0:0|0:0,0:0:0:0:
320,336,194037,1,0,0:0:0:0:
404,276,194264,2,0,P|408:216|384:176,1,101.5625,8|0,0:0|0:0,0:0:0:0:
280,40,194719,2,0,P|274:90|296:136,1,101.5625
376,76,195174,6,0,B|231:100|231:100|160:84,1,203.125,2|0,0:0|0:0,0:0:0:0:
76,100,195855,1,0,0:0:0:0:
48,196,196083,2,0,B|64:248|72:312|72:312|88:276,2,152.34375,8|0|0,0:0|0:0|0:0,0:0:0:0:
148,204,196992,6,0,P|268:232|320:184,1,203.125,2|0,0:0|0:0,0:0:0:0:
228,136,197674,1,0,0:0:0:0:
316,84,197901,2,0,L|254:3,1,101.5625,8|0,0:0|0:0,0:0:0:0:
408,128,198355,2,0,L|469:208,1,101.5625
420,296,198810,6,0,B|384:348|312:336|312:336|272:344|231:325,1,203.125,2|0,0:0|0:0,0:0:0:0:
152,264,199492,1,0,0:0:0:0:
88,188,199719,2,0,P|55:248|76:329,2,152.34375,8|0|0,0:0|0:0|0:0,0:0:0:0:
185,170,200628,6,0,P|216:92|148:0,1,203.125,2|0,0:0|0:0,0:0:0:0:
116,96,201310,1,0,0:0:0:0:
88,188,201537,2,0,P|117:243|156:266,1,101.5625,8|0,0:0|0:0,0:0:0:0:
248,248,201992,2,0,P|307:266|351:255,1,101.5625
402,127,202446,5,2,0:0:0:0:
308,164,202674,1,0,0:0:0:0:
439,221,202901,1,0,0:0:0:0:
476,315,203128,1,0,0:0:0:0:
476,315,203242,1,0,0:0:0:0:
476,315,203355,2,0,P|416:308|376:336,1,101.5625,8|0,0:0|0:0,0:0:0:0:
288,364,203810,2,0,P|238:365|197:336,1,101.5625
264,260,204264,5,2,0:0:0:0:
184,200,204492,2,0,P|172:124|188:92,1,101.5625
256,36,204946,1,0,0:0:0:0:
331,103,205174,2,0,P|343:152|328:200,1,101.5625,8|0,0:0|0:0,0:0:0:0:
308,300,205628,1,0,0:0:0:0:
204,300,205855,1,0,0:0:0:0:
140,220,206083,6,0,P|161:106|237:67,2,203.125,2|0|0,0:0|0:0|0:0,0:0:0:0:
204,300,207219,1,0,0:0:0:0:
204,300,207333,1,0,0:0:0:0:
204,300,207446,1,2,0:0:0:0:
308,300,207674,1,0,0:0:0:0:
256,192,207901,5,0,1:0:0:0:
256,192,208014,12,0,214264,0:0:0:0:
