osu file format v9

[General]
AudioFilename: Hypno Apple!!.mp3
AudioLeadIn: 0
PreviewTime: 56381
Countdown: 0
SampleSet: Normal
StackLeniency: 0.7
Mode: 0
LetterboxInBreaks: 0
StoryFireInFront: 0

[Editor]
Bookmarks: 28352,84520,98425,154483,168498,182512,196527,210541,238571
DistanceSpacing: 1.2
BeatDivisor: 4
GridSize: 8

[Metadata]
Title:Hypno Apple!!
Artist:Conagusuri
Creator:Leorda
Version:Hard
Source:Touhou
Tags:lotus land story gensokyo elly stage 3 bad apple irus tokika zlodeuka

[Difficulty]
HPDrainRate:7
CircleSize:4
OverallDifficulty:8
ApproachRate:8
SliderMultiplier:2
SliderTickRate:1

[Events]
//Background and Video events
0,0,"13661091.jpg"
//Break Periods
2,84600,95913
2,154673,167738
2,182701,195767
//Storyboard Layer 0 (Background)
//Storyboard Layer 1 (Fail)
//Storyboard Layer 2 (Pass)
//Storyboard Layer 3 (Foreground)
//Storyboard Sound Samples
//Background Colour Transformations
3,100,163,162,255

[TimingPoints]
313,437.956204379562,4,2,1,100,1,0
41381,-200,4,2,1,100,0,0
42038,-100,4,2,1,100,0,0
54520,-200,4,2,1,100,0,0
56358,-100,4,1,0,70,0,1
84387,-100,4,2,1,100,0,0
126431,-100,4,1,0,70,0,1
154351,-100,4,2,0,100,0,0
168483,-100,4,1,0,70,0,0
196504,-100,4,1,0,70,0,1
210518,-100,4,2,1,100,0,0
232416,-200,4,2,1,100,0,0
232854,-100,4,2,1,100,0,0

[Colours]
Combo1 : 255,128,192
Combo2 : 255,0,128
Combo3 : 170,0,85

[HitObjects]
160,176,28342,2,0,B|171:119|230:107,2,100,0|0|8
240,184,28999,1,0
80,168,29218,2,0,B|96:72|180:31|216:32,1,200,0|8
288,56,29875,1,0
360,88,30094,6,0,B|424:104|416:168,1,100
296,256,30531,2,0,B|232:240|240:176,1,100,8|0
416,158,30969,5,0
296,256,31188,1,0
416,158,31407,1,8
296,256,31626,1,0
248,320,31845,6,0,B|303:349|342:316,2,100,0|0|8
296,256,32502,2,0,B|296:144,1,100
152,232,33159,5,8
71,232,33378,1,0
112,160,33597,1,0
176,272,33816,5,0
48,272,34035,1,8
112,112,34254,1,0
200,312,34473,5,0
24,312,34692,1,0
112,64,34911,1,8
112,200,35130,1,0
192,200,35349,6,0,B|304:200,1,100
372,200,35787,1,8
432,152,36006,2,0,B|469:206|419:273,2,100
384,88,36663,5,8
312,56,36882,1,0
232,40,37101,2,0,B|112:40,1,100
132,190,37539,2,0,B|252:190,1,100,8|0
288,136,37977,6,0,B|328:184|289:246,1,100
72,136,38415,2,0,B|32:184|71:246,1,100,8|0
128,272,38853,5,0
176,128,39072,1,0
224,272,39291,1,8
104,184,39510,1,0
256,184,39729,1,0
256,184,40167,5,8
256,32,40385,1,0
256,184,40604,1,0
328,56,40823,1,0
256,184,41042,1,8
384,104,41261,1,0
256,184,41480,2,0,B|168:256,1,100,0|8
336,248,42356,5,0
368,176,42575,1,0
448,184,42794,1,12
456,264,43013,1,0
384,304,43232,1,0
312,344,43451,1,0
240,304,43670,6,0,B|192:304|160:240,1,100,8|0
240,224,44108,2,0,B|208:176|160:152|96:184|72:248,1,200,0|8
240,224,44984,5,0
79,231,45203,1,0
240,224,45422,1,8
79,231,45641,1,0
64,152,45860,6,0,B|128:144|156:204,2,100,0|0|8
79,231,46517,1,0
48,80,46736,2,0,B|112:72|168:96|200:120|224:184,1,200,0|8
215,163,47393,5,0
344,88,47612,1,0
240,192,47831,1,0
368,116,48050,1,8
264,224,48269,1,0
392,148,48488,1,0
288,256,48707,1,0
416,180,48926,1,8
312,288,49145,1,0
440,216,49364,6,0,B|504:304,1,100
376,254,49802,2,0,B|440:342,1,100,8|0
312,288,50240,2,0,B|376:376,2,100,0|0|8
255,231,50896,1,0
200,176,51115,6,0,B|152:144|100:178,1,100
198,345,51553,2,0,B|152:376|104:344,1,100,8|0
200,264,51991,5,0
104,264,52210,1,0
272,264,52429,1,8
32,264,52648,1,0
104,224,52867,5,0
152,80,53086,1,0
200,224,53305,1,8
80,128,53524,1,0
232,128,53743,1,0
384,168,54181,5,8
464,168,54400,1,0
424,104,54619,2,0,B|424:0,3,100,0|8|0|8
272,40,56371,6,0,B|152:40,1,100,4|2
91,40,56809,1,8
91,40,56918,1,0
91,40,57028,2,0,B|0:24|8:200|128:160,1,200,2|0
171,165,57685,1,8
171,165,57794,1,0
171,165,57904,1,2
240,344,58123,6,0,B|360:344,1,100,4|0
421,344,58561,1,8
421,344,58670,1,0
421,344,58780,2,0,B|512:360|504:184|384:224,1,200,2|0
341,219,59437,1,8
341,219,59546,1,0
341,219,59656,1,0
260,219,59875,6,0,B|312:32|-8:32|64:248,1,400,4|0
80,296,60969,1,0
160,336,61188,2,0,B|160:200,1,100,8|0
160,236,61626,1,4
160,155,61845,5,2
176,120,61955,1,0
192,80,62064,1,8
248,24,62283,1,2
280,48,62393,1,0
312,80,62502,1,0
352,152,62721,1,2
336,232,62940,1,8
304,256,63050,1,0
272,272,63159,1,2
272,272,63378,1,4
128,200,63816,6,0,B|88:64|312:56|272:208,2,300,0|0|4
40,192,65349,2,0,B|32:120|70:78,1,100,2|8
344,192,65787,2,0,B|352:120|314:78,1,100,2|0
96,32,66225,2,0,B|160:8|224:8|304:40,1,200
256,104,66882,5,4
192,216,67101,1,2
256,328,67320,1,8
320,216,67539,1,0
360,144,67758,5,0
388,115,67867,1,0
417,86,67977,1,0
444,114,68086,1,0
473,142,68196,1,8
416,200,68415,2,0,B|416:304,1,100,2|4
272,376,69072,5,8
240,352,69181,1,0
272,328,69291,1,2
304,304,69400,1,0
272,280,69510,1,8
240,256,69619,1,0
272,224,69729,1,2
304,200,69838,1,0
272,168,69948,1,8
240,144,70057,1,2
272,112,70167,1,8
304,88,70276,1,2
272,64,70385,6,0,B|168:64,1,100,4|0
91,64,70823,1,8
91,64,70933,1,0
91,64,71042,2,0,B|40:112|104:168,1,100,2|0
87,151,71480,2,0,B|36:199|100:255,1,100,2|8
120,224,71809,1,0
152,192,71918,1,0
272,64,72137,6,0,B|376:64,1,100,4|0
453,64,72575,1,8
453,64,72685,1,0
453,64,72794,2,0,B|504:112|440:168,1,100,2|0
457,151,73232,2,0,B|508:199|444:255,1,100,2|8
424,216,73561,1,0
392,192,73670,1,0
320,160,73889,6,4,B|344:0|48:-8|72:176,2,400
320,240,75860,5,2
320,260,76298,1,2
320,280,76736,1,2
320,300,77174,1,2
320,300,77393,1,4
160,320,77831,6,0,B|160:204,3,100,0|2|0|0
160,139,78707,1,8
160,99,78816,1,0
160,58,78926,1,2
232,91,79145,6,0,B|272:227|48:235|88:83,2,300,4|0|0
312,99,80677,2,0,B|320:171|282:213,1,100,2|0
8,99,81115,2,0,B|0:171|38:213,1,100,2|8
256,192,81553,12,4,84400
256,192,96663,12,4,98415
256,192,98634,5,0
280,96,98853,1,8
200,40,99072,1,0
200,40,99291,2,0,B|152:16|104:40,1,100,2|0
88,192,99729,6,0,B|136:216|184:192,1,100,8|0
224,104,100167,2,0,B|272:79|320:103,1,100,2|0
360,192,100604,2,0,B|408:216|456:191,1,100,8|0
408,343,101042,6,0,B|360:368|312:344,1,100,2|0
256,264,101480,1,8
176,320,101699,1,0
336,320,101918,5,2
416,192,102137,1,0
336,64,102356,1,8
336,64,102575,2,0,B|288:48|232:64,1,100,0|2
176,320,103232,1,8
96,192,103451,1,0
176,64,103670,1,2
256,192,103889,5,0
336,64,104108,1,8
256,192,104327,1,0
176,320,104546,1,2
256,192,104765,1,0
336,320,104984,1,8
256,192,105203,1,0
256,192,105312,1,0
256,192,105422,1,6
160,224,105641,6,0,B|112:200|64:224,1,100,0|8
256,288,106079,1,0
352,224,106298,2,0,B|400:200|448:224,1,100,2|0
416,296,106736,6,0,B|285:296|277:184,1,200,8|2
88,64,107612,2,0,B|96:176|232:176,1,200,8|2
184,80,108269,5,0
184,80,108488,2,0,B|144:48|88:64,1,100,8|0
256,136,108926,1,2
328,80,109145,2,0,B|368:48|424:64,2,100,0|8|0
320,184,109802,2,0,B|320:248|256:264|192:248|192:184,1,200,2|8
256,104,110458,1,0
256,104,110677,2,0,B|256:304,2,200,2|8|2
272,104,111663,5,0
288,104,111772,1,0
304,104,111882,1,0
320,104,111991,1,8
336,104,112101,1,0
352,104,112210,1,0
368,104,112320,1,0
384,104,112429,1,6
256,192,112648,5,0
200,280,112867,2,0,B|96:280,1,100,10|10
100,280,113305,1,0
48,192,113524,2,0,B|152:192,1,100,8|8
200,104,113962,1,8
200,104,114072,1,0
200,104,114181,2,0,B|248:80|296:104,1,100,8|2
240,184,114619,2,0,B|288:208|336:184,1,100,8|2
336,184,115057,6,0,B|384:160|432:184,1,100,8|2
256,192,115495,1,8
175,199,115714,2,0,B|128:224|80:200,1,100,2|8
79,199,116152,5,2
176,320,116371,1,8
328,320,116590,1,8
328,320,116699,1,0
328,320,116809,2,0,B|432:320,1,100,8|2
432,184,117247,5,8
336,64,117466,1,2
184,64,117685,1,8
184,64,117904,2,0,B|80:64,1,100,2|8
84,64,118232,1,8
40,152,118451,1,8
40,152,118561,2,0,B|144:152,1,100,8|2
232,192,118999,5,8
248,200,119108,1,0
264,208,119218,1,2
280,216,119327,1,0
296,224,119437,1,4
392,192,119656,5,2
296,224,119875,1,8
320,320,120094,1,2
224,296,120312,6,8,B|96:296|96:176,1,200
256,192,120969,1,2
288,88,121188,2,8,B|416:88|416:208,2,200
192,72,122283,2,2,B|144:48|96:72,1,100,2|8
95,72,122612,1,8
48,160,122831,5,8
48,160,122940,2,0,B|96:184|144:160,1,100,8|2
216,224,123378,1,8
216,224,123488,1,0
216,224,123597,1,8
215,223,123816,2,8,B|216:160|280:144|344:160|344:224,1,200,2|8
336,24,124692,6,8,B|336:87|400:103|464:87|464:23,1,200,6|8
176,360,125568,2,8,B|175:296|111:280|47:296|47:360,1,200,6|8
256,192,126444,6,0,B|304:168|352:192,1,100,4|2
416,272,126882,1,8
376,360,127101,2,0,B|320:344|232:376|176:360,1,200,2|0
177,360,127648,1,0
128,272,127867,1,0
128,272,127977,2,0,B|176:248|224:272,1,100,0|8
177,360,128415,5,2
256,232,128634,1,8
192,96,128853,2,0,B|144:72|96:96,1,100,2|8
96,96,129181,1,0
96,96,129291,1,0
320,96,129619,1,0
320,96,129729,2,0,B|368:72|416:96,1,100,0|8
448,192,130167,5,2
376,264,130385,1,8
376,120,130604,2,0,B|328:96|280:120,1,100,2|8
256,160,130933,1,0
232,120,131042,2,0,B|184:96|136:120,1,100,0|8
136,264,131480,1,0
64,192,131699,1,8
136,264,131918,6,2,B|200:240|272:288|336:264,1,200
333,264,132575,1,0
424,144,132794,1,0
424,144,132904,1,0
424,144,133013,2,2,B|362:167|290:119|224:144,1,194.999996513128,10|2
136,192,133670,5,0
136,192,133889,2,8,B|136:304|272:304,1,200,2|0
216,216,134546,2,0,B|216:104|352:104,1,200,2|0
336,200,135203,2,0,B|319:125|215:117|119:125|89:200,2,300,10|0|8
288,288,136736,5,0
384,312,136955,1,8
464,248,137174,1,0
440,152,137393,1,8
440,152,137502,1,0
440,152,137612,6,0,B|392:128|344:152,1,100,0|8
72,232,138050,2,0,B|120:256|168:232,1,100,2|8
344,232,138488,6,0,B|296:208|248:232,1,100,2|8
168,152,138926,2,0,B|216:176|264:152,1,100,0|8
264,151,139254,1,0
264,48,139473,1,0
264,48,139583,1,8
264,152,139802,5,2
264,168,139911,1,0
264,184,140021,1,8
264,200,140130,1,0
264,216,140240,1,2
264,232,140349,1,0
264,248,140458,1,12
168,272,140677,6,0,B|120:248|72:272,1,100,2|8
72,272,141006,1,0
120,360,141225,1,0
120,360,141334,2,0,B|168:336|216:360,1,100,8|2
312,344,141772,1,8
312,344,141882,1,0
400,296,142101,1,0
400,296,142210,6,8,B|456:264|456:152|400:120,1,200
108,122,142867,2,0,B|56:152|56:264|112:296,1,200
208,248,143524,6,0,B|256:224|304:248,1,100,8|0
304,136,143962,2,0,B|255:160|207:135,1,100,8|0
207,135,144291,1,0
256,48,144510,1,0
256,48,144619,1,2
304,232,144838,6,0,B|256:256|208:232,1,100,8|0
208,232,145167,1,0
256,144,145385,1,0
256,144,145495,1,2
192,312,145714,5,8
208,312,145823,1,0
224,312,145933,1,2
240,312,146042,1,0
256,312,146152,1,8
272,312,146261,1,0
288,312,146371,1,2
304,312,146480,1,0
320,312,146590,1,8
400,256,146809,6,0,B|424:208|400:160,1,100,2|8
112,159,147247,2,0,B|88:208|112:256,1,100,2|12
376,192,147904,6,8,B|376:80|240:80,1,200,2|0
296,168,148561,2,0,B|296:280|160:280,1,200,2|0
176,184,149218,2,0,B|193:259|297:267|393:259|423:184,2,300,10|0|8
232,96,150750,1,0
232,96,150860,1,0
232,96,150969,2,0,B|184:72|136:96,1,100,8|2
152,192,151407,6,0,B|104:216|56:192,2,100,8|2|8
256,240,152064,1,0
256,240,152174,1,0
256,240,152283,1,8
360,192,152502,2,0,B|408:216|456:192,2,100,2|8|2
288,120,153159,5,8
272,112,153269,1,0
256,104,153378,1,2
240,96,153488,1,0
224,88,153597,1,8
208,80,153707,1,0
192,72,153816,1,2
176,168,154035,5,8
160,176,154145,1,0
144,184,154254,1,2
128,192,154364,1,0
112,200,154473,1,4
88,192,168488,6,0,B|136:152|192:200,2,100,4|0|8
136,256,169145,1,0
152,288,169254,1,0
184,312,169364,1,0
224,320,169473,1,0
264,312,169583,1,0
296,288,169692,1,0
320,256,169802,1,8
400,240,170021,5,0
440,224,170130,1,0
456,192,170240,2,0,B|464:80|328:112,1,150,4|0
344,72,170677,2,0,B|245:46|253:158,1,150,8|0
248,192,171115,1,0
216,216,171225,1,0
176,224,171334,1,0
136,208,171444,1,0
120,168,171553,1,8
80,96,171772,1,0
27,154,171991,6,0,B|15:139|-10:104|-7:49|48:8|98:22,1,200,4|8
136,40,172539,1,0
168,56,172648,1,0
240,24,172867,2,0,B|290:9|345:50|348:105|323:140|311:155,1,200,0|8
272,176,173415,1,0
232,184,173524,1,0
256,104,173743,6,0,B|320:60|382:96|400:136|368:219,1,200,0|8
320,240,174400,1,0
312,160,174619,2,0,B|334:83|446:83|462:163,1,200,0|8
480,232,175276,1,0
472,272,175385,1,0
440,296,175495,1,4
368,328,175714,6,0,B|328:360|248:336,1,100,0|8
264,264,176152,2,0,B|192:256|168:200,1,100
160,144,176590,2,0,B|112:112|104:56,1,100,0|8
105,63,177028,1,0
248,96,177247,6,0,B|288:64|368:88,1,100,4|0
352,160,177685,2,0,B|424:168|448:224,1,100,8|0
456,280,178123,2,0,B|504:312|512:368,1,100,0|0
510,360,178561,1,8
432,360,178780,5,0
368,312,178999,1,4
360,232,179218,1,0
288,200,179437,1,8
272,120,179656,1,0
344,80,179875,5,0
408,128,180094,1,0
416,208,180312,1,8
488,240,180531,1,0
488,320,180750,5,4
480,320,180860,1,0
472,320,180969,1,0
464,320,181079,1,0
456,320,181188,1,8
448,320,181298,1,0
440,320,181407,1,0
432,320,181517,1,0
424,320,181626,2,0,B|400:320,16,25
176,48,196517,5,4
144,64,196626,1,0
112,88,196736,1,0
96,128,196845,1,0
96,168,196955,2,0,B|48:264|152:264|96:368,1,200,8|0
100,358,197502,1,0
100,358,197612,1,2
100,358,197721,1,0
100,358,197831,1,8
256,216,198050,5,2
336,48,198269,5,4
368,64,198378,1,0
400,88,198488,1,0
416,128,198597,1,0
416,168,198707,2,0,B|464:264|360:264|416:368,1,200,8|0
411,358,199254,1,0
411,358,199364,1,2
411,358,199473,1,0
411,358,199583,1,8
256,216,199802,5,0
336,216,200021,6,4,B|360:56|64:48|88:224,2,400
336,232,201991,1,0
336,252,202429,1,0
336,272,202867,1,0
336,292,203305,1,0
336,292,203524,1,4
232,168,203962,6,0,B|272:304|48:312|88:160,2,300,0|0|4
312,176,205495,2,0,B|320:248|282:290,1,100,0|8
8,176,205933,2,0,B|0:248|38:290,1,100
256,336,206371,2,0,B|192:360|128:360|48:328,1,200
96,264,207028,5,0
96,112,207247,1,0
248,112,207466,1,8
248,262,207685,1,0
256,192,207794,12,4,210531
256,192,210750,5,0
256,192,210969,1,8
352,144,211188,2,0,B|400:168|448:144,1,100,0|2
448,143,211517,1,0
400,56,211736,5,0
400,56,211845,2,0,B|352:32|304:56,1,100,8|0
112,56,212283,2,0,B|160:32|208:56,1,100,2|0
256,144,212721,2,0,B|240:208|272:280|256:344,1,200,8|2
256,342,213378,5,0
176,280,213597,1,8
336,280,213816,1,0
256,192,214035,5,6
176,104,214254,5,0
336,104,214473,1,8
256,40,214692,1,0
176,104,214911,6,0,B|128:80|80:104,1,100,2|0
256,192,215349,1,8
336,280,215568,2,0,B|384:304|432:280,1,100,0|2
256,192,216006,5,0
176,256,216225,2,0,B|128:280|80:256,1,100,8|0
256,192,216663,1,2
336,128,216882,2,0,B|384:104|432:128,1,100,0|8
432,128,217210,1,0
464,224,217429,5,0
464,224,217539,2,0,B|416:200|368:224,1,100,2|0
344,320,217977,2,0,B|296:344|248:320,1,100,8|0
256,216,218415,2,0,B|272:160|240:72|256:16,1,200,2|8
255,17,218962,1,0
168,72,219181,5,0
168,72,219291,2,0,B|120:48|72:72,1,100,2|0
120,160,219729,2,0,B|168:184|216:160,2,100,8|0|0
344,312,220385,1,0
344,312,220495,1,0
344,312,220604,2,0,B|392:336|440:312,1,100,8|0
392,224,221042,6,0,B|344:200|296:224,1,100,2|0
184,320,221480,1,8
112,192,221699,1,0
184,64,221918,2,0,B|232:40|280:64,1,100,2|0
328,320,222356,1,8
400,192,222575,1,0
328,64,222794,6,0,B|280:40|232:64,1,100,2|0
184,320,223232,2,0,B|232:344|280:320,1,100,8|0
320,192,223670,2,0,B|272:168|176:216|120:192,1,200,2|8
122,193,224546,5,6
224,80,224765,1,2
320,192,224984,1,8
424,80,225203,1,2
400,232,225422,6,0,B|376:280|320:280,1,100,0|2
112,152,225860,2,0,B|136:104|192:104,1,100,8|2
256,240,226298,2,0,B|232:216|192:248|160:240,1,100,0|2
256,240,226736,2,0,B|280:216|320:248|352:240,1,100,8|2
256,240,227174,5,0
256,88,227393,1,2
256,240,227612,1,8
400,192,227831,1,2
240,328,228050,6,0,B|112:328|112:208,1,200,0|8
256,192,228707,1,2
272,56,228926,2,0,B|400:56|400:176,1,200,0|8
399,174,229473,1,0
376,272,229692,5,0
376,272,229802,2,0,B|328:248|280:272,1,100,0|2
136,112,230240,2,0,B|184:136|232:112,1,100,8|2
176,312,230677,2,0,B|200:264|176:216,1,100,0|2
336,72,231115,2,0,B|312:120|336:168,1,100,8|2
336,168,231444,1,0
336,168,231553,1,4
304,264,231772,5,2
304,264,231882,1,0
304,264,231991,2,0,B|256:288|208:264,1,100,8|2
256,176,232429,6,0,B|208:152|160:176,1,100,0|8
288,80,233086,5,2
288,80,233196,1,0
288,80,233305,2,0,B|336:56|384:80,1,100,0|2
336,168,233743,2,0,B|384:192|432:168,1,100,8|2
392,312,234181,5,8
240,296,234400,1,2
112,224,234619,1,8
112,72,234838,1,2
256,120,235057,5,8
256,120,235167,1,0
256,120,235276,1,10
384,192,235495,1,8
384,192,235604,1,0
384,192,235714,1,10
320,328,235933,2,8,B|272:304|176:352|120:328,1,200
122,329,236590,1,2
120,232,236809,5,4
136,216,236918,1,2
152,200,237028,1,8
168,192,237137,1,0
184,184,237247,1,6
200,184,237356,1,0
216,192,237466,1,8
232,200,237575,1,0
248,216,237685,5,6
264,232,237794,1,0
280,240,237904,1,8
296,248,238013,1,0
312,256,238123,1,6
328,256,238232,1,0
344,256,238342,1,8
360,248,238451,1,0
368,232,238561,1,4
