osu file format v7

[General]
AudioFilename: Conagusuri.mp3
AudioLeadIn: 0
PreviewTime: 120519
Countdown: 0
SampleSet: Soft
StackLeniency: 0.4
Mode: 0
LetterboxInBreaks: 1

[Editor]
Bookmarks: 35186,88519,162853,198519
DistanceSpacing: 0.5
BeatDivisor: 6
GridSize: 8

[Metadata]
Title:Hina Choco Dark Matter
Artist:Conagusuri
Creator:Mafiamaster
Version:Lunatic
Source:Touhou
Tags:Akiha Manasora MiYAMO Hina Kagiyama simplistiC Shinxyn

[Difficulty]
HPDrainRate:6
CircleSize:4
OverallDifficulty:8
SliderMultiplier:2.1
SliderTickRate:1

[Events]
//Background and Video events
0,0,"Darryl is baka.jpg"
//Break Periods
2,110066,119782
//Storyboard Layer 0 (Background)
//Storyboard Layer 1 (Fail)
//Storyboard Layer 2 (Pass)
//Storyboard Layer 3 (Foreground)
//Storyboard Sound Samples
//Background Colour Transformations
3,100,0,0,0

[TimingPoints]
533,333.333333333333,4,2,0,100,1,0
35186,-100,4,1,0,60,0,0
45436,-200,4,2,0,100,0,0
45686,-100,4,2,0,0,0,0
45769,-100,4,2,0,100,0,0
56436,-100,4,1,0,60,0,0
88366,-100,4,2,0,100,0,0
96519,-100,4,1,0,60,0,0
162436,-100,4,2,0,100,0,0

[HitObjects]
24,240,13866,1,0
88,288,14033,1,0
160,256,14199,1,8
224,304,14366,1,0
296,272,14533,2,0,B|312:216|376:192|440:216|456:272,1,210,0|8
376,304,15033,6,0,B|376:88,1,210,0|0
376,8,15533,1,8
312,64,15699,1,0
440,64,15866,1,0
376,192,16033,5,0
440,136,16199,1,8
312,136,16366,1,0
240,88,16533,6,0,L|192:64|144:88,2,105,0|0|8
192,160,17033,1,0
272,192,17199,2,0,B|256:248|192:272|128:248|112:192,1,210,0|8
192,160,17699,6,0,L|192:384,1,210
264,320,18199,1,8
320,256,18366,1,0
320,384,18533,1,0
376,320,18699,5,0
432,384,18866,1,10
432,256,19033,1,2
376,320,19199,6,0,L|488:320,2,105,0|0|8
320,256,19699,1,0
376,200,19866,2,0,B|432:184|456:120|432:56|376:40,1,210,0|8
344,120,20366,6,0,B|248:192|240:48|136:136,1,210
80,168,20866,1,8
128,232,21032,1,0
200,192,21199,2,0,L|256:104|320:208,2,210,0|8|0
256,256,22032,5,0
184,296,22199,1,8
328,296,22366,1,0
256,336,22532,5,2
184,216,22782,1,0
328,216,23032,1,0
256,176,23199,5,2
184,296,23449,1,0
328,296,23699,1,0
256,256,23866,1,2
184,296,24032,5,0
256,336,24199,1,0
328,296,24366,1,0
392,344,24532,5,4
440,280,24699,1,0
408,208,24866,1,8
456,144,25032,1,0
424,72,25199,2,0,B|408:16|344:-8|280:16|264:72,1,210,0|8
344,96,25699,6,0,B|328:152|264:176|200:152|184:96,1,210,0|0
264,72,26199,2,0,L|352:8,2,105,8|0|0
184,96,26699,5,0
128,32,26866,1,8
128,160,27032,1,0
72,96,27199,6,0,L|48:48|72:0,2,105,0|0|8
128,160,27699,1,0
184,96,27866,2,0,B|240:112|264:176|240:240|184:256,1,210,0|8
120,304,28366,6,0,L|344:304,1,210
416,304,28866,1,8
480,248,29032,1,0
352,248,29199,1,0
416,192,29366,5,0
416,64,29532,1,2
416,192,29699,1,2
472,128,29866,6,0,L|256:128,1,210,0|8
176,128,30366,1,0
208,208,30532,2,0,B|264:192|288:128|264:64|208:48,1,210,0|8
176,128,31032,2,0,B|120:144|96:208|120:272|176:288,1,210,0|0
248,328,31532,1,8
328,320,31699,1,0
400,272,31866,2,0,B|456:256|480:192|456:128|400:112,2,210,0|8|0
360,200,32699,5,0
320,272,32866,1,8
320,128,33032,1,0
280,200,33199,5,0
400,272,33449,1,0
400,128,33699,1,0
440,200,33866,5,0
320,272,34116,1,0
320,128,34366,1,0
360,200,34532,2,0,L|304:200,3,52.5
280,200,34866,2,0,L|224:200,3,52.5
200,200,35199,5,0
120,200,35366,1,0
40,200,35532,2,0,L|16:152|40:104,1,105,8|0
56,72,35782,2,0,L|104:96|152:72,2,105
24,48,36199,1,8
104,16,36366,6,0,L|168:16,2,52.5
104,104,36699,1,0
104,192,36866,2,0,L|80:240|104:288,1,105,8|0
120,320,37116,2,0,L|168:296|216:320,2,105
136,360,37532,2,0,L|88:384|40:360,1,105,8|0
8,280,37866,5,0
24,200,38032,1,0
104,192,38199,1,8
184,192,38366,2,0,L|184:264,1,52.5
272,192,38616,2,0,L|272:120,3,52.5,0|0|0|8
352,192,39032,5,0
392,192,39116,1,0
432,192,39199,2,0,L|456:240|432:288,2,105,0|0|8
392,120,39699,1,0
392,120,39783,1,0
320,80,39949,2,0,C|320:24,2,52.5
320,120,40199,2,0,L|272:144|224:120,1,105,8|0
152,88,40533,5,0
80,120,40699,1,0
40,192,40866,2,0,C|48:312,1,105,8|0
80,320,41116,2,0,C|72:200,1,105
112,232,41366,2,0,C|120:352,1,105,0|8
152,352,41616,2,0,C|256:345,1,105
232,312,41866,6,0,C|336:305,2,105,0|0|8
192,312,42283,2,0,C|184:192,1,105
184,168,42533,1,0
176,88,42699,1,0
256,112,42866,2,0,L|256:48,4,52.5,8|0|0|0|0
328,168,43366,6,0,C|384:168,2,52.5,0|0|8
256,112,43699,1,0
256,112,43783,1,0
184,168,43949,1,0
184,168,44033,1,0
216,248,44199,1,8
216,248,44283,1,0
296,248,44449,1,0
296,248,44533,6,0,L|344:272|392:248,2,105
256,184,45033,1,0
256,184,45116,2,0,C|256:64,2,105
256,184,45533,5,4
216,312,45866,5,0
144,360,46033,2,0,L|72:360,2,52.5,0|0|2
296,312,46533,5,0
368,360,46699,2,0,L|440:360,2,52.5,0|0|2
256,80,47199,5,0
256,168,47366,1,0
256,256,47533,1,2
264,280,47616,1,0
280,296,47699,1,0
304,304,47783,1,0
328,296,47866,1,0
344,280,47949,1,0
352,256,48033,1,0
344,232,48116,1,0
328,216,48199,1,2
320,64,48533,5,0
192,64,48699,1,0
256,120,48866,1,2
440,240,49199,5,0
448,216,49283,1,0
456,192,49366,1,0
448,168,49449,1,0
440,144,49533,1,2
256,192,49866,5,0
256,192,49949,1,0
256,104,50116,1,0
256,16,50283,1,0
232,16,50366,1,0
208,16,50449,1,0
184,16,50533,2,0,C|184:88,2,52.5
160,16,50783,1,0
136,16,50866,1,2
88,356,51199,6,0,L|88:304,2,52.5
136,232,51533,1,2
88,27,51866,6,0,L|88:80,2,52.5
136,152,52199,1,2
352,192,52533,5,0
352,192,52616,1,0
352,192,52699,1,0
440,192,52866,1,2
464,184,52949,1,0
480,168,53033,1,0
488,144,53116,1,0
480,120,53199,1,0
464,104,53283,1,0
440,96,53366,1,0
416,104,53449,1,0
400,120,53533,1,2
256,248,53866,6,0,C|256:360,2,105,0|0|2
256,80,54533,2,0,C|256:16,4,52.5,0|0|0|0|2
120,192,55199,6,0,C|64:232,3,52.5,0|0|0|0
112,248,55533,2,0,C|69:278,3,52.5,2|0|0|0
104,304,55866,5,0
128,136,56033,1,0
256,248,56199,2,0,B|256:368,1,105,2|0
408,304,56533,5,4
408,280,56616,1,0
408,256,56699,1,0
408,232,56783,1,0
408,208,56866,2,0,B|408:88,1,105,8|0
480,304,57199,5,0
480,280,57283,1,0
480,256,57366,1,0
480,232,57449,1,0
480,208,57533,2,0,B|480:88,1,105,8|0
408,24,57866,5,0
328,24,58033,1,0
320,48,58116,1,0
304,64,58199,1,8
280,72,58283,1,0
256,64,58366,1,0
240,48,58449,1,0
232,24,58533,1,0
280,144,58699,1,0
280,168,58783,1,0
280,192,58866,2,0,B|280:304,1,105,8|0
120,136,59199,5,0
56,192,59366,1,0
120,248,59533,2,0,B|120:368,1,105,8|0
184,192,59866,5,0
208,192,59949,1,0
232,192,60033,1,0
256,192,60116,1,0
280,192,60199,2,0,B|392:192,1,105,8|0
480,192,60533,6,0,L|480:256,3,52.5
480,272,60866,1,8
472,296,60949,1,0
456,312,61033,1,0
432,320,61116,1,0
408,312,61199,1,0
392,296,61283,1,0
384,272,61366,1,0
392,248,61449,1,0
408,232,61533,1,8
216,32,61866,5,0
216,32,61949,1,0
296,32,62116,1,0
296,32,62199,1,8
256,104,62366,1,0
296,176,62533,1,0
336,104,62699,1,0
360,104,62783,1,0
384,104,62866,2,0,B|504:104,1,105,8|0
440,176,63199,5,0
440,264,63366,1,0
440,352,63533,1,8
440,264,63699,1,0
368,216,63866,1,0
368,240,63949,1,0
368,264,64033,1,0
368,288,64116,1,0
368,312,64199,1,8
296,264,64366,1,0
216,264,64533,5,4
136,264,64699,1,0
56,264,64866,1,0
48,240,64949,1,0
56,216,65033,1,8
48,192,65116,1,0
56,168,65199,1,0
56,88,65366,5,0
208,88,65533,1,8
232,96,65616,1,0
256,88,65699,1,0
280,96,65783,1,0
304,88,65866,1,0
456,88,66033,5,8
456,168,66199,1,0
464,192,66283,1,0
456,216,66366,1,0
464,240,66449,1,0
456,264,66533,1,8
424,352,66699,5,0
256,384,66866,1,8
88,352,67033,1,0
32,192,67199,5,4
80,264,67366,1,0
128,192,67533,1,0
176,120,67699,1,0
224,192,67866,2,0,B|240:248|304:272|368:248|384:192,1,210,0|8
304,168,68366,1,0
384,144,68533,2,0,B|368:88|304:64|240:88|224:144,1,210,0|8
304,168,69033,1,0
464,168,69199,5,0
472,192,69283,1,0
464,216,69366,1,0
456,240,69449,1,0
464,264,69533,1,8
472,288,69616,1,0
464,312,69699,1,0
304,248,69866,5,0
304,328,70033,1,0
304,168,70199,1,8
384,248,70366,1,0
216,248,70533,2,0,B|56:248,1,157.5
40,248,70866,1,8
40,168,71033,1,0
120,168,71199,2,0,B|176:184|200:248|176:312|120:328,2,210,0|8|0
96,160,71949,5,0
72,152,72033,1,0
48,144,72116,1,0
56,120,72199,1,8
64,96,72283,1,0
72,72,72366,1,0
160,72,72533,6,0,B|256:0|264:144|368:56,2,210,0|8|0
136,152,73366,2,0,B|64:240,1,105,0|8
376,152,73699,2,0,B|448:240,1,105
256,256,74033,2,0,B|256:368,1,105,0|8
256,256,74366,1,0
328,168,74533,5,0
304,160,74616,1,0
280,168,74699,1,0
256,176,74783,1,0
232,168,74866,1,8
208,160,74949,1,0
184,168,75033,1,0
96,192,75199,5,4
56,264,75366,1,0
168,232,75533,1,8
128,304,75699,1,0
416,192,75866,5,4
456,264,76033,1,0
344,232,76199,1,8
384,304,76366,1,0
152,128,76533,5,0
216,72,76699,1,0
296,72,76866,1,8
360,128,77033,1,0
256,192,77199,5,8
256,192,77366,1,8
256,192,77533,1,8
480,192,77866,5,4
432,120,78033,1,0
384,192,78199,1,8
336,264,78366,1,0
288,192,78533,2,0,B|272:136|208:112|144:136|128:192,1,210,0|8
208,216,79032,1,0
128,240,79199,2,0,B|144:296|208:320|272:296|288:240,1,210,0|8
208,216,79699,1,0
48,216,79866,5,0
40,192,79949,1,0
48,168,80032,1,0
56,144,80116,1,0
48,120,80199,1,8
40,96,80282,1,0
48,72,80366,1,0
208,136,80532,5,0
208,56,80699,1,0
208,216,80866,1,8
128,136,81032,1,0
296,136,81199,2,0,B|456:136,1,157.5
472,136,81532,1,8
472,216,81699,1,0
392,216,81866,2,0,B|336:200|312:136|336:72|392:56,2,210,0|8|0
416,224,82616,5,0
440,232,82699,1,0
464,240,82782,1,0
456,264,82866,1,8
448,288,82949,1,0
440,312,83032,1,0
352,312,83199,6,8,B|256:384|248:240|144:328,2,210,0|8|0
376,232,84032,2,0,B|448:144,1,105,0|8
136,232,84366,2,0,B|64:144,1,105
256,128,84699,2,0,B|256:16,1,105,0|8
256,128,85032,1,0
184,216,85199,5,0
208,224,85282,1,0
232,216,85366,1,0
256,208,85449,1,0
280,216,85532,1,8
304,224,85616,1,0
328,216,85699,1,0
416,192,85866,5,4
416,96,86032,1,0
496,144,86199,1,8
336,144,86366,1,0
96,192,86532,5,4
96,96,86699,1,0
16,144,86866,1,8
176,144,87032,1,0
360,256,87199,5,2
296,312,87366,1,2
216,312,87532,1,2
152,256,87699,1,2
256,192,87866,5,4
256,192,88199,1,0
488,144,88532,5,0
424,96,88699,1,0
352,128,88866,1,8
288,80,89032,1,0
216,112,89199,2,0,B|200:168|136:192|72:168|56:112,1,210,0|8
136,80,89699,6,0,B|136:296,1,210
136,376,90199,1,8
200,320,90366,1,0
72,320,90532,1,0
136,192,90699,5,0
72,248,90866,1,8
200,248,91032,1,0
272,312,91199,6,0,L|320:336|368:312,2,105,0|0|8
320,240,91699,1,0
240,208,91866,2,0,B|256:152|320:128|384:152|400:208,1,210,0|8
320,240,92366,6,0,L|320:16,1,210,0|0
248,80,92866,1,8
192,144,93032,1,0
192,16,93199,1,0
136,80,93366,5,0
80,16,93532,1,8
80,144,93699,1,0
136,80,93866,6,0,L|24:80,2,105,0|0|8
192,144,94366,1,0
136,200,94532,2,0,B|80:216|56:280|80:344|136:360,1,210,0|8
168,280,95032,6,0,B|264:208|272:352|376:264,1,210
432,232,95532,1,8
384,168,95699,1,0
312,208,95866,2,0,L|256:296|192:192,2,210,0|8|0
256,144,96699,5,0
328,104,96866,1,0
184,104,97032,1,0
256,64,97199,5,0
328,184,97449,1,0
184,184,97699,1,0
256,224,97866,5,0
328,104,98116,1,0
184,104,98366,1,0
256,144,98532,5,0
256,160,98616,1,0
256,176,98699,1,0
256,192,98782,1,0
256,208,98866,1,0
256,224,98949,1,0
256,240,99032,1,0
256,256,99116,1,0
256,272,99199,5,4
136,192,99532,5,8
136,192,100199,1,8
136,192,100866,1,8
256,312,102199,5,8
256,312,102866,1,8
256,312,103532,1,8
376,192,104866,5,8
376,192,105532,1,8
376,192,106199,1,8
352,72,107532,6,0,B|256:0|248:144|144:56,2,210,8|0|8
256,192,108532,12,4,109866
296,72,120532,5,0
328,48,120616,1,0
360,24,120699,2,0,L|416:24,2,52.5,0|0|8
216,72,121199,5,0
184,48,121282,1,0
152,24,121366,2,0,L|96:24,2,52.5,0|0|8
256,192,121866,6,0,L|192:192,3,52.5
256,192,122199,2,0,L|312:192,3,52.5,8|0|0|0
336,192,122532,1,0
360,192,122616,1,0
384,192,122699,1,0
408,192,122782,1,0
432,192,122866,1,8
256,376,123199,6,0,L|256:312,4,52.5,0|0|0|0|8
72,192,123866,5,0
144,152,124032,1,0
160,192,124116,1,0
144,232,124199,1,8
256,192,124532,6,0,L|320:192,3,52.5
256,192,124866,2,0,L|200:192,3,52.5,8|0|0|0
176,192,125199,1,0
152,192,125282,1,0
128,192,125366,1,0
104,192,125449,1,0
80,192,125532,1,8
376,152,125866,6,0,L|440:152,3,52.5
456,152,126199,1,8
136,232,126532,6,0,L|72:232,3,52.5
56,232,126866,1,8
160,192,127199,5,0
160,192,127366,1,0
88,144,127532,1,8
64,144,127616,1,0
40,152,127699,1,0
24,168,127782,1,0
16,192,127866,1,0
24,216,127949,1,0
40,232,128032,1,0
64,240,128116,1,0
88,240,128199,1,8
256,136,128532,6,0,C|256:24,2,105,0|0|8
256,304,129199,2,0,C|256:368,4,52.5,0|0|0|0|8
392,192,129866,6,0,C|448:152,3,52.5
400,136,130199,2,0,C|443:106,3,52.5,8|0|0|0
392,96,130532,2,0,B|368:32|296:32,1,105
288,32,130782,1,0
256,40,130866,2,0,B|256:160,1,105,8|0
112,40,131199,5,0
112,120,131366,1,0
112,144,131449,1,0
112,168,131532,2,0,B|112:288,1,105,8|0
32,40,131866,5,0
32,120,132032,1,0
32,144,132116,1,0
32,168,132199,2,0,B|32:288,1,105,8|0
72,352,132532,1,0
160,352,132699,1,0
168,328,132782,1,0
184,312,132866,1,8
208,304,132949,1,0
232,312,133032,1,0
248,328,133116,1,0
256,352,133199,6,0,B|328:352,3,52.5
336,352,133532,2,0,B|400:328|400:256,1,105,8|0
392,136,133866,5,0
456,192,134032,1,0
392,248,134199,2,0,B|280:248,1,105,8|0
224,192,134532,5,0
200,192,134616,1,0
176,192,134699,1,0
152,192,134782,1,0
128,192,134866,2,0,B|16:192,1,105,8|0
352,192,135199,5,0
352,192,135282,1,0
352,192,135366,1,0
432,224,135532,1,8
456,232,135616,1,0
472,248,135699,1,0
480,272,135782,1,0
472,296,135866,1,0
456,312,135949,1,0
432,320,136032,1,0
408,312,136116,1,0
392,296,136199,1,8
296,352,136532,5,0
216,352,136699,1,0
296,352,136866,1,8
256,280,137032,1,0
176,280,137199,1,0
152,280,137282,1,0
128,280,137366,1,0
104,280,137449,1,0
80,280,137532,2,0,B|80:160,1,105,8|0
80,88,137866,5,0
168,88,138032,1,0
256,88,138199,1,8
256,88,138282,1,0
120,160,138532,1,0
144,160,138616,1,0
168,160,138699,1,0
192,160,138782,1,0
216,160,138866,1,8
168,232,139032,1,0
296,120,139199,5,0
376,120,139366,1,0
456,120,139532,1,0
464,144,139616,1,0
456,168,139699,1,8
464,192,139782,1,0
456,216,139866,1,0
456,296,140032,5,0
304,296,140199,1,8
280,288,140282,1,0
256,296,140366,1,0
232,288,140449,1,0
208,296,140532,1,0
56,296,140699,5,8
56,216,140866,1,0
48,192,140949,1,0
56,168,141032,1,0
48,144,141116,1,0
56,120,141199,1,8
88,32,141366,5,0
256,0,141532,1,8
424,32,141699,1,0
480,192,141866,5,4
432,120,142032,1,0
384,192,142199,1,0
336,264,142366,1,0
288,192,142532,2,0,B|272:136|208:112|144:136|128:192,1,210,0|8
208,216,143032,1,0
128,240,143199,2,0,B|144:296|208:320|272:296|288:240,1,210,0|8
208,216,143699,1,0
48,216,143866,5,0
40,192,143949,1,0
48,168,144032,1,0
56,144,144116,1,0
48,120,144199,1,8
40,96,144282,1,0
48,72,144366,1,0
208,136,144532,5,0
208,56,144699,1,0
208,216,144866,1,8
128,136,145032,1,0
296,136,145199,2,0,B|456:136,1,157.5
472,136,145532,1,8
472,216,145699,1,0
392,216,145866,2,0,B|336:200|312:136|336:72|392:56,2,210,0|8|0
416,224,146616,5,0
440,232,146699,1,0
464,240,146782,1,0
456,264,146866,1,8
448,288,146949,1,0
440,312,147032,1,0
352,312,147199,6,0,B|256:384|248:240|144:328,2,210,0|8|0
376,232,148032,2,0,B|448:144,1,105,0|8
136,232,148366,2,0,B|64:144,1,105
256,128,148699,2,0,B|256:16,1,105,0|8
256,128,149032,1,0
184,216,149199,5,0
208,224,149282,1,0
232,216,149366,1,0
256,208,149449,1,0
280,216,149532,1,8
304,224,149616,1,0
328,216,149699,1,0
320,112,149866,5,0
448,216,150032,1,0
352,136,150199,1,8
416,192,150366,1,0
192,112,150532,5,0
64,216,150699,1,0
160,136,150866,1,8
96,192,151032,1,0
152,256,151199,5,0
216,312,151366,1,0
296,312,151532,1,8
360,256,151699,1,0
256,192,151866,5,0
256,192,152032,1,0
256,192,152199,1,8
32,192,152532,5,4
80,264,152699,1,0
128,192,152866,1,8
176,120,153032,1,0
224,192,153199,2,0,B|240:248|304:272|368:248|384:192,1,210,0|8
304,168,153699,1,0
384,144,153866,2,0,B|368:88|304:64|240:88|224:144,1,210,0|8
304,168,154366,1,0
464,168,154532,5,0
472,192,154616,1,0
464,216,154699,1,0
456,240,154782,1,0
464,264,154866,1,8
472,288,154949,1,0
464,312,155032,1,0
304,248,155199,5,0
304,328,155366,1,0
304,168,155532,1,8
384,248,155699,1,0
216,248,155866,2,0,B|56:248,1,157.5
40,248,156199,1,8
40,168,156366,1,0
120,168,156532,2,0,B|176:184|200:248|176:312|120:328,2,210,0|8|0
96,160,157283,5,0
72,152,157366,1,0
48,144,157449,1,0
56,120,157533,1,8
64,96,157616,1,0
72,72,157699,1,0
160,72,157866,6,0,B|256:0|264:144|368:56,2,210,0|8|0
136,152,158699,2,0,B|64:240,1,105,0|8
376,152,159033,2,0,B|448:240,1,105
256,256,159366,2,0,B|256:368,1,105,0|8
256,256,159699,1,0
328,168,159866,5,0
304,160,159949,1,0
280,168,160033,1,0
256,176,160116,1,0
232,168,160199,1,8
208,160,160283,1,0
184,168,160366,1,0
104,144,160533,5,0
104,240,160699,1,0
176,80,160866,1,8
176,304,161033,1,0
408,144,161199,5,0
408,240,161366,1,0
336,80,161533,1,8
336,304,161699,1,0
336,192,161866,5,0
256,272,162033,1,0
256,112,162199,1,0
176,192,162366,1,0
256,192,162533,5,4
256,192,162866,1,0
