osu file format v12

[General]
AudioFilename: Ciru Miru Cirno.mp3
AudioLeadIn: 0
PreviewTime: 97282
Countdown: 0
SampleSet: Normal
StackLeniency: 0.7
Mode: 0
LetterboxInBreaks: 0

[Editor]
Bookmarks: 3962,10629,19962,30629,54629,65296,70628,75962,86629,97296,102629,126629,137296,147962,158629,169296,174629,198629,209296,218629,220629,225962,247295,271295,277962,282295
DistanceSpacing: 1
BeatDivisor: 4
GridSize: 8

[Metadata]
Title:Chirumiru Cirno
TitleUnicode:チルミルチルノ
Artist:Conagusuri
ArtistUnicode:Conagusuri
Creator:alex_98
Version:Rumia
Source:Touhou
Tags:baka mikuru milk
BeatmapID:189432
BeatmapSetID:57665

[Difficulty]
HPDrainRate:3
CircleSize:4
OverallDifficulty:6
ApproachRate:7
SliderMultiplier:1.6
SliderTickRate:2

[Events]
//Background and Video events
Video,0,"Ciru Miru Cirno (vid only).avi"
0,0,"Rumia.jpg",0,0
//Break Periods
2,10829,17729
2,65162,69728
2,76161,85728
2,126495,136395
2,148120,157728
2,198828,219729
2,278161,281395
//Storyboard Layer 0 (Background)
//Storyboard Layer 1 (Fail)
//Storyboard Layer 2 (Pass)
//Storyboard Layer 3 (Foreground)
//Storyboard Sound Samples
//Background Colour Transformations
3,100,163,162,255

[TimingPoints]
3963,333.333333333333,4,1,0,100,1,0
10629,-100,4,2,0,5,0,0
19962,-100,4,1,0,100,0,0
30629,-100,4,1,0,100,0,1
50462,-66.6666666666667,4,1,0,100,0,1
50962,-100,4,1,0,100,0,1
51962,-100,4,1,0,69,0,0
63628,-200,4,1,0,69,0,0
65295,-100,4,1,0,69,0,0
102629,-100,4,1,0,100,0,1
112628,-133.333333333333,4,1,0,100,0,1
113295,-100,4,1,0,100,0,1
125296,-100,4,1,0,100,0,0
158629,-100,4,1,0,69,0,0
174629,-100,4,1,0,100,0,1
197296,-100,4,2,0,100,0,0
220629,333.333333333333,4,1,0,100,1,0
225962,-100,4,1,0,100,0,1
235962,-133.333333333333,4,1,0,100,0,1
236628,-100,4,1,0,100,0,1
247294,-100,4,1,0,100,0,0
247295,-100,4,1,0,100,0,1
269962,-100,4,2,0,100,0,0
271295,-100,4,1,0,100,0,0
276628,-100,4,2,0,100,0,0
277962,-100,4,2,0,5,0,0
282295,333.333333333333,4,1,0,100,1,0

[Colours]
Combo1 : 0,128,192
Combo2 : 0,255,255
Combo3 : 5,5,240

[HitObjects]
120,192,3963,1,4,0:0:0:0:
256,112,4296,1,4,0:0:0:0:
416,112,4629,2,0,B|472:112|472:168,1,80,8|0,0:0|0:0,0:0:0:0:
416,272,4962,2,0,B|472:272|472:216,1,80,0|8,0:0|0:0,0:0:0:0:
336,272,5462,2,0,L|336:192,1,80,0|8,0:0|0:0,0:0:0:0:
256,272,5796,2,0,L|256:192,1,80,0|8,0:0|0:0,0:0:0:0:
120,272,6296,1,8,0:0:0:0:
120,112,6629,6,0,B|144:128|144:128|168:112|168:112|192:128|192:128|216:112|216:112|232:128|232:128|248:112,2,160
48,152,7462,1,0,0:0:0:0:
120,192,7629,1,0,0:0:0:0:
48,232,7796,2,0,P|120:272|200:216,1,160
248,192,8296,1,0,0:0:0:0:
248,112,8462,1,0,0:0:0:0:
184,152,8629,2,0,P|248:192|304:264,1,160
256,192,9296,12,0,10629,0:0:0:0:
256,192,18629,12,0,19629,0:0:0:0:
184,136,19962,6,0,P|256:104|328:136,1,160
184,240,20629,2,0,P|256:272|328:240,1,160
256,192,21296,2,0,L|256:112,2,80
256,192,21796,1,0,0:0:0:0:
256,192,21962,2,0,L|256:272,2,80
184,152,22462,1,0,0:0:0:0:
112,112,22629,6,0,L|112:272,1,160
400,272,23296,2,0,L|400:112,1,160
328,112,23796,1,0,0:0:0:0:
256,112,23962,2,0,L|256:32,2,80
256,192,24462,1,0,0:0:0:0:
256,272,24629,2,0,L|256:352,2,80
256,192,25129,1,0,0:0:0:0:
176,192,25296,6,0,L|96:192,1,80
16,192,25629,1,0,0:0:0:0:
16,192,25962,2,0,L|16:112,1,80
16,32,26296,1,0,0:0:0:0:
16,32,26629,2,0,L|96:32,1,80
176,32,26962,1,0,0:0:0:0:
176,32,27296,2,0,L|176:112,1,80
176,192,27629,1,0,0:0:0:0:
176,192,27712,1,0,0:0:0:0:
176,192,27796,1,0,0:0:0:0:
176,192,27962,6,0,L|208:160,2,40
176,272,28296,2,0,L|208:304,2,40
96,272,28629,2,0,L|64:304,2,40
96,192,28962,2,0,L|64:160,2,40
176,192,29296,6,0,L|216:176,3,40
248,192,29629,2,0,L|288:208,3,40
312,176,29962,2,0,L|344:144,1,40
304,128,30129,2,0,L|272:88,1,40
280,56,30296,2,0,L|280:32,7,20
280,0,30629,6,0,L|240:0,4,40
320,0,31129,2,0,P|392:40|392:120,1,160
344,168,31629,1,0,0:0:0:0:
352,248,31796,1,0,0:0:0:0:
312,320,31962,6,0,L|344:352,4,40
248,272,32462,2,0,P|168:256|128:264,1,120
136,304,32796,2,0,P|112:240|72:216,1,80
40,192,33129,1,0,0:0:0:0:
24,112,33296,6,0,L|8:72,4,40
96,152,33796,2,0,P|184:168|240:128,1,160
200,64,34296,2,0,B|240:48|280:64|288:80,1,80
360,64,34629,5,0,0:0:0:0:
384,296,34962,1,0,0:0:0:0:
152,320,35296,1,0,0:0:0:0:
128,88,35629,1,0,0:0:0:0:
360,64,35962,6,0,P|392:56|416:56,4,40
304,120,36462,2,0,P|232:96|256:80,1,160
320,64,36962,2,0,P|376:88|400:120,1,80
432,192,37296,6,0,B|439:242|411:256|415:317,2,120
440,112,37962,2,0,P|384:120|368:144,1,80
328,208,38296,2,0,P|296:240|248:256,1,80
200,296,38629,6,0,B|224:336|272:336|280:368,1,80
184,216,38962,2,0,B|208:176|256:176|264:144,1,80,0|0,0:0|0:0,0:0:0:0:
120,264,39296,2,0,P|64:288|32:344,2,120
160,264,39879,1,0,0:0:0:0:
120,104,40129,5,0,0:0:0:0:
80,176,40296,1,0,0:0:0:0:
160,176,40462,1,0,0:0:0:0:
184,80,40629,2,0,P|120:36|56:80,1,160
120,256,41296,5,0,0:0:0:0:
144,336,41462,1,0,0:0:0:0:
224,312,41629,1,0,0:0:0:0:
200,232,41796,1,0,0:0:0:0:
136,176,41962,2,0,L|112:120,2,40
64,320,42296,2,0,L|8:344,2,40
120,256,42629,6,0,P|224:312|256:312,1,120
264,312,42962,1,0,0:0:0:0:
272,232,43129,2,0,P|376:232|400:256,1,120
416,256,43462,1,0,0:0:0:0:
360,312,43629,2,0,L|416:256,1,80
376,192,43962,6,0,B|336:176|256:192|136:256|224:352|256:368|288:352|376:256|256:192|176:176|136:192,1,480
135,192,45129,1,0,0:0:0:0:
72,240,45296,5,0,0:0:0:0:
136,192,45462,1,0,0:0:0:0:
200,240,45629,1,0,0:0:0:0:
232,168,45796,1,0,0:0:0:0:
272,240,45963,1,0,0:0:0:0:
304,168,46129,1,0,0:0:0:0:
368,216,46296,1,0,0:0:0:0:
432,168,46463,1,0,0:0:0:0:
432,88,46629,6,0,P|352:168|432:248,1,240
504,256,47296,1,0,0:0:0:0:
464,216,47462,1,0,0:0:0:0:
432,168,47629,1,0,0:0:0:0:
400,120,47796,1,0,0:0:0:0:
360,80,47962,6,0,L|272:56,1,80
232,120,48296,2,0,L|152:104,1,80
168,184,48629,2,0,L|80:200,1,80
136,264,48962,2,0,L|96:336,1,80
176,328,49296,2,0,L|264:368,1,80
248,280,49629,2,0,L|328:280,1,80
288,208,49962,2,0,L|336:144,2,80
224,312,50462,6,0,P|176:328|136:192,1,240.000009155274
136,191,50962,1,0,0:0:0:0:
224,312,51296,1,0,0:0:0:0:
136,191,51629,1,0,0:0:0:0:
256,88,51962,5,0,0:0:0:0:
296,152,52129,1,0,0:0:0:0:
216,152,52296,1,0,0:0:0:0:
256,88,52462,1,0,0:0:0:0:
256,248,52796,1,0,0:0:0:0:
256,248,52962,1,0,0:0:0:0:
256,88,53296,1,0,0:0:0:0:
256,192,53379,12,0,54296,0:0:0:0:
128,168,54629,5,0,0:0:0:0:
184,112,54795,1,0,0:0:0:0:
256,80,54962,1,0,0:0:0:0:
336,88,55129,1,0,0:0:0:0:
392,144,55296,2,0,L|432:136,2,40
416,224,55629,2,0,L|464:232,2,40
368,288,55962,6,0,P|344:224|320:192,1,80
256,216,56295,2,0,P|296:272|304:304,1,80
216,288,56629,1,0,0:0:0:0:
136,288,56795,1,0,0:0:0:0:
56,288,56962,1,0,0:0:0:0:
56,80,57295,6,0,L|56:160,1,80
56,200,57545,1,0,0:0:0:0:
56,240,57629,1,0,0:0:0:0:
120,200,57795,1,0,0:0:0:0:
184,240,57962,2,0,L|184:160,1,80
184,120,58212,1,0,0:0:0:0:
184,80,58295,1,0,0:0:0:0:
256,112,58462,6,0,L|296:136,1,40
328,152,58628,2,0,B|368:176|368:176|360:240|392:296,2,160
184,152,59462,1,0,0:0:0:0:
256,264,59628,1,0,0:0:0:0:
328,152,59795,1,0,0:0:0:0:
184,152,59962,6,0,B|144:176|144:176|152:240|120:296,2,160
256,112,60795,1,0,0:0:0:0:
328,152,60962,1,0,0:0:0:0:
256,184,61128,1,0,0:0:0:0:
328,152,61295,6,0,B|368:128|368:128|360:64|392:8,2,160
256,112,62128,1,0,0:0:0:0:
184,152,62295,1,0,0:0:0:0:
136,304,62628,6,0,L|136:344,2,40
216,328,62962,2,0,L|216:368,2,40
296,328,63295,2,0,L|296:368,2,40
376,304,63629,2,0,L|376:344,1,40
256,192,63962,12,0,64962,0:0:0:0:
144,320,70628,5,0,0:0:0:0:
216,360,70795,1,0,0:0:0:0:
296,360,70962,1,0,0:0:0:0:
368,320,71128,1,0,0:0:0:0:
296,280,71295,1,0,0:0:0:0:
296,280,71378,1,0,0:0:0:0:
216,280,71545,1,0,0:0:0:0:
216,280,71628,1,0,0:0:0:0:
256,208,71795,1,0,0:0:0:0:
176,168,71962,5,0,0:0:0:0:
256,192,72128,1,0,0:0:0:0:
336,168,72295,1,0,0:0:0:0:
256,192,72462,1,0,0:0:0:0:
200,256,72628,1,0,0:0:0:0:
256,104,72795,1,0,0:0:0:0:
312,256,72961,1,0,0:0:0:0:
336,96,73295,5,0,0:0:0:0:
256,72,73462,1,0,0:0:0:0:
176,96,73628,1,0,0:0:0:0:
256,112,73795,1,0,0:0:0:0:
336,96,73962,2,0,L|304:128,1,40
176,96,74212,2,0,L|208:128,1,40
256,168,74462,1,0,0:0:0:0:
256,248,74628,6,0,B|256:272|256:272|256:288|256:288|256:280|256:280|256:296|256:296|256:312,2,80
256,168,75128,2,0,L|256:128,10,40
184,128,86628,6,0,P|248:112|344:144,1,160
392,192,87128,1,0,0:0:0:0:
336,248,87295,2,0,P|272:264|176:232,1,160
120,192,87795,1,0,0:0:0:0:
168,128,87962,2,0,P|208:192|160:256,1,160
256,256,88462,1,0,0:0:0:0:
344,256,88628,2,0,P|304:192|352:128,1,160
400,192,89128,5,0,0:0:0:0:
400,192,89295,2,0,L|240:192,2,160
376,112,90128,1,0,0:0:0:0:
312,64,90295,1,0,0:0:0:0:
232,56,90462,1,0,0:0:0:0:
168,104,90628,2,0,B|184:176|240:192|240:192|240:240,2,160
104,256,91628,5,0,0:0:0:0:
256,312,91962,6,0,B|320:288|344:248|344:248|408:248,1,160
392,168,92462,1,0,0:0:0:0:
312,168,92628,2,0,P|272:224|240:248,1,80
184,248,92962,1,0,0:0:0:0:
144,184,93128,6,0,P|168:128|192:112,1,80
312,168,93462,2,0,P|272:224|240:248,1,80
104,168,93795,2,0,P|128:112|152:96,1,80
352,176,94128,2,0,P|312:232|280:256,1,80
144,264,94628,6,0,L|72:216,1,80
136,168,94962,1,0,0:0:0:0:
216,168,95128,1,0,0:0:0:0:
264,232,95295,2,0,L|256:320,2,80
320,176,95795,1,0,0:0:0:0:
392,144,95962,2,0,B|360:112|336:112|336:112|312:104|312:104|304:120|304:120|296:112|296:112|296:120|296:120|288:112|288:112|272:120|272:120|272:112|272:112|256:112|256:112|256:104|256:104|264:112|264:112|248:112|248:112|224:112,1,240
144,112,96628,2,0,L|144:280,1,160
120,192,97296,5,4,0:0:0:0:
256,112,97629,1,4,0:0:0:0:
416,112,97962,2,0,B|472:112|472:168,1,80,8|0,0:0|0:0,0:0:0:0:
416,272,98295,2,0,B|472:272|472:216,1,80,0|8,0:0|0:0,0:0:0:0:
336,272,98795,2,0,L|336:192,1,80,0|8,0:0|0:0,0:0:0:0:
256,272,99129,2,0,L|256:192,1,80,0|8,0:0|0:0,0:0:0:0:
120,272,99629,1,8,0:0:0:0:
112,112,99962,6,0,P|184:88|264:112,1,160
256,272,100628,2,0,L|312:216,1,80
256,272,100962,2,0,L|200:216,1,80
256,64,101462,2,0,L|256:232,1,160
256,304,101962,2,0,L|256:344,4,40
96,280,102628,5,0,0:0:0:0:
160,232,102795,1,0,0:0:0:0:
240,248,102962,1,0,0:0:0:0:
288,184,103128,1,0,0:0:0:0:
352,64,103295,2,0,L|352:144,1,80
424,208,103628,2,0,L|424:120,1,80
352,64,103962,5,0,0:0:0:0:
288,112,104128,1,0,0:0:0:0:
216,80,104295,1,0,0:0:0:0:
144,112,104462,2,0,L|144:192,1,80
112,264,104795,1,0,0:0:0:0:
64,200,104962,1,0,0:0:0:0:
144,192,105128,1,0,0:0:0:0:
256,264,105295,6,0,L|408:312,1,160
352,360,105795,2,0,P|336:288|408:232,1,160
408,312,106295,2,0,L|328:288,1,80
256,264,106628,5,0,0:0:0:0:
168,96,106962,1,0,0:0:0:0:
336,8,107295,1,0,0:0:0:0:
424,176,107629,1,0,0:0:0:0:
256,264,107962,5,0,0:0:0:0:
184,288,108128,1,0,0:0:0:0:
160,208,108295,1,0,0:0:0:0:
80,200,108462,1,0,0:0:0:0:
80,120,108628,6,0,L|160:128,1,80
120,56,108962,2,0,L|200:64,1,80
280,80,109295,6,0,L|304:0,1,80
352,104,109628,2,0,L|432:128,1,80
328,176,109962,2,0,L|304:256,1,80
256,152,110295,2,0,L|176:128,1,80
288,88,110628,6,0,B|232:64|160:96|152:168|176:248|256:256|296:224|320:200|320:176|328:160|328:160|328:224|240:360,1,560
112,160,112128,5,0,0:0:0:0:
216,96,112295,1,0,0:0:0:0:
176,208,112462,1,0,0:0:0:0:
144,96,112628,2,0,P|176:152|240:168,1,120.000004577637
384,160,113295,6,0,P|416:120|416:88,1,80
392,16,113628,1,0,0:0:0:0:
336,72,113795,1,0,0:0:0:0:
312,152,113962,2,0,L|334:75,1,80
286,227,114295,2,0,L|311:151,1,80
256,96,114628,6,0,L|184:144,1,80
136,176,114962,1,0,0:0:0:0:
88,104,115128,2,0,P|208:128|176:248,1,240
208,304,115795,1,0,0:0:0:0:
288,288,115962,6,0,L|360:248,1,80
424,208,116295,2,0,L|352:168,1,80
288,128,116628,2,0,L|360:88,1,80
424,48,116962,2,0,L|352:8,1,80
288,48,117295,6,0,L|288:208,4,160
360,80,118795,1,0,0:0:0:0:
288,112,118962,1,0,0:0:0:0:
216,80,119128,2,0,P|144:96|104:184,1,160
96,248,119628,1,0,0:0:0:0:
32,200,119795,1,0,0:0:0:0:
103,167,119962,6,0,P|152:184|176:224,1,80
225,262,120295,1,0,0:0:0:0:
281,205,120462,2,0,P|298:183|346:166,1,80
424,160,120795,1,0,0:0:0:0:
346,166,120962,2,0,P|384:224|416:232,1,80
424,160,121295,2,0,P|394:102|354:86,1,80
326,38,121628,1,0,0:0:0:0:
269,94,121795,2,0,P|257:101|228:158,1,80
272,256,122128,5,0,0:0:0:0:
352,328,122295,1,0,0:0:0:0:
456,344,122462,1,0,0:0:0:0:
432,240,122628,2,0,L|352:208,1,80
424,168,122962,2,0,L|344:136,1,80
416,96,123295,2,0,L|336:64,1,80
269,94,123628,1,0,0:0:0:0:
256,192,123962,12,0,124962,0:0:0:0:
256,192,125295,12,0,126295,0:0:0:0:
64,296,137295,6,0,L|0:240,1,80
120,240,137628,2,0,L|64:176,1,80
184,192,137962,2,0,L|136:104,1,80
256,168,138295,2,0,L|256:88,1,80
216,40,138628,6,0,L|216:120,1,80
326,73,138961,2,0,L|287:143,1,80
404,131,139295,2,0,L|351:191,1,80
468,195,139628,2,0,L|407:247,1,80
328,280,139962,5,0,0:0:0:0:
328,280,140128,1,0,0:0:0:0:
240,264,140295,1,0,0:0:0:0:
240,264,140462,1,0,0:0:0:0:
152,248,140628,1,0,0:0:0:0:
152,248,140795,1,0,0:0:0:0:
72,216,140962,1,0,0:0:0:0:
72,216,141128,1,0,0:0:0:0:
160,200,141295,6,0,L|216:264,1,80
128,296,141628,2,0,L|208:264,1,80
288,232,141962,1,0,0:0:0:0:
264,312,142128,1,0,0:0:0:0:
352,296,142295,2,0,L|400:304,2,40
256,192,142628,12,0,144962,0:0:0:0:
176,192,145295,6,0,L|208:160,2,40
176,272,145629,2,0,L|208:304,2,40
96,272,145962,2,0,L|64:304,2,40
96,192,146295,2,0,L|64:160,2,40
176,192,146629,6,0,L|216:176,3,40
248,192,146962,2,0,L|288:208,3,40
312,176,147295,2,0,L|344:144,1,40
304,128,147462,2,0,L|272:88,1,40
280,56,147629,2,0,L|280:32,7,20
184,128,158628,6,0,P|248:112|344:144,1,160
392,192,159128,1,0,0:0:0:0:
336,248,159295,2,0,P|272:264|176:232,1,160
120,192,159795,1,0,0:0:0:0:
168,128,159962,2,0,P|208:192|160:256,1,160
256,256,160462,1,0,0:0:0:0:
344,256,160628,2,0,P|304:192|352:128,1,160
400,192,161128,5,0,0:0:0:0:
400,192,161295,2,0,L|240:192,2,160
376,112,162128,1,0,0:0:0:0:
312,64,162295,1,0,0:0:0:0:
232,56,162462,1,0,0:0:0:0:
168,104,162628,2,0,B|184:176|240:192|240:192|240:240,2,160
104,256,163628,5,0,0:0:0:0:
256,312,163962,6,0,B|320:288|344:248|344:248|408:248,1,160
392,168,164462,1,0,0:0:0:0:
312,168,164628,2,0,P|272:224|240:248,1,80
184,248,164962,1,0,0:0:0:0:
144,184,165128,6,0,P|168:128|192:112,1,80
312,168,165462,2,0,P|272:224|240:248,1,80
104,168,165795,2,0,P|128:112|152:96,1,80
352,176,166128,2,0,P|312:232|280:256,1,80
144,264,166628,6,0,L|72:216,1,80
136,168,166962,1,0,0:0:0:0:
216,168,167128,1,0,0:0:0:0:
264,232,167295,2,0,L|256:320,2,80
320,176,167795,1,0,0:0:0:0:
392,144,167962,2,0,B|360:112|336:112|336:112|312:104|312:104|304:120|304:120|296:112|296:112|296:120|296:120|288:112|288:112|272:120|272:120|272:112|272:112|256:112|256:112|256:104|256:104|264:112|264:112|248:112|248:112|224:112,1,240
160,56,168628,2,0,L|168:136,1,80
88,104,168962,2,0,L|144:176,1,80
120,192,169296,5,4,0:0:0:0:
256,112,169629,1,4,0:0:0:0:
416,112,169962,2,0,B|472:112|472:168,1,80,8|0,0:0|0:0,0:0:0:0:
416,272,170295,2,0,B|472:272|472:216,1,80,0|8,0:0|0:0,0:0:0:0:
336,272,170795,2,0,L|336:192,1,80,0|8,0:0|0:0,0:0:0:0:
256,272,171129,2,0,L|256:192,1,80,0|8,0:0|0:0,0:0:0:0:
120,272,171629,1,8,0:0:0:0:
256,112,171962,6,0,L|256:272,2,160
336,192,172795,1,0,0:0:0:0:
176,192,172962,1,0,0:0:0:0:
256,272,173128,2,0,L|256:112,2,160
256,272,173962,6,0,L|256:312,3,40
256,272,174295,2,0,L|256:240,8,20
256,192,174795,1,0,0:0:0:0:
256,112,174962,1,0,0:0:0:0:
176,168,175128,2,0,B|232:224|288:152|336:208,1,160
376,264,175628,1,0,0:0:0:0:
408,192,175795,1,0,0:0:0:0:
328,168,175962,6,0,B|280:224|224:152|168:208,1,160
96,192,176462,1,0,0:0:0:0:
32,152,176628,2,0,L|0:120,2,40
32,232,176962,2,0,L|0:264,2,40
96,192,177295,6,0,L|176:192,1,80
176,192,177628,2,0,L|256:192,1,80
256,192,177962,2,0,L|336:192,1,80
336,192,178295,2,0,L|416:192,1,80
376,112,178628,6,0,L|376:192,1,80
296,272,178962,2,0,L|296:192,1,80
216,112,179295,2,0,L|216:192,1,80
136,272,179628,2,0,L|136:192,1,80
136,112,179962,6,0,L|216:112,1,80
216,272,180295,2,0,L|296:272,1,80
296,112,180628,2,0,L|376:112,1,80
376,272,180962,2,0,L|456:272,1,80
456,192,181295,5,0,0:0:0:0:
416,192,181462,1,0,0:0:0:0:
376,192,181628,1,0,0:0:0:0:
336,192,181795,1,0,0:0:0:0:
296,192,181962,1,0,0:0:0:0:
256,192,182128,1,0,0:0:0:0:
216,192,182295,1,0,0:0:0:0:
176,192,182462,1,0,0:0:0:0:
176,112,182628,6,0,L|176:192,1,80
176,272,182962,2,0,L|176:192,1,80
96,192,183295,2,0,L|48:192,4,40
176,192,183795,2,0,L|336:192,1,160
280,136,184295,1,0,0:0:0:0:
280,248,184462,1,0,0:0:0:0:
176,112,184628,1,0,0:0:0:0:
96,192,184795,1,0,0:0:0:0:
176,272,184962,1,0,0:0:0:0:
256,112,185295,5,0,0:0:0:0:
256,192,185462,1,0,0:0:0:0:
256,272,185629,1,0,0:0:0:0:
336,216,185795,2,0,B|280:160|224:232|176:176,1,160
136,120,186295,1,0,0:0:0:0:
104,192,186462,1,0,0:0:0:0:
184,216,186629,6,0,B|232:160|288:232|344:176,1,160
416,192,187129,1,0,0:0:0:0:
480,232,187295,2,0,L|512:264,2,40
480,152,187629,2,0,L|512:120,2,40
416,192,187962,6,0,L|336:192,1,80
336,192,188295,2,0,L|256:192,1,80
256,192,188629,2,0,L|176:192,1,80
176,192,188962,2,0,L|96:192,1,80
136,272,189295,6,0,L|136:192,1,80
216,112,189629,2,0,L|216:192,1,80
296,272,189962,2,0,L|296:192,1,80
376,112,190295,2,0,L|376:192,1,80
376,272,190629,6,0,L|296:272,1,80
296,112,190962,2,0,L|216:112,1,80
216,272,191295,2,0,L|136:272,1,80
136,112,191629,2,0,L|56:112,1,80
56,192,191962,5,0,0:0:0:0:
96,192,192129,1,0,0:0:0:0:
136,192,192295,1,0,0:0:0:0:
176,192,192462,1,0,0:0:0:0:
216,192,192629,1,0,0:0:0:0:
256,192,192795,1,0,0:0:0:0:
296,192,192962,1,0,0:0:0:0:
336,192,193129,1,0,0:0:0:0:
336,272,193295,6,0,L|336:192,1,80
336,112,193629,2,0,L|336:192,1,80
416,192,193962,2,0,L|464:192,4,40
336,192,194462,2,0,L|176:192,1,160
232,248,194962,1,0,0:0:0:0:
232,136,195129,1,0,0:0:0:0:
336,272,195295,1,0,0:0:0:0:
416,192,195462,1,0,0:0:0:0:
336,112,195629,1,0,0:0:0:0:
176,136,195962,6,0,L|96:136,1,80
96,248,196295,2,0,L|176:248,1,80
336,192,196795,2,0,L|256:192,1,80
256,192,197295,5,0,0:0:0:0:
256,192,197378,12,0,198628,0:0:0:0:
120,192,220629,5,4,0:0:0:0:
256,112,220962,1,4,0:0:0:0:
416,112,221295,2,0,B|472:112|472:168,1,80,8|0,0:0|0:0,0:0:0:0:
416,272,221628,2,0,B|472:272|472:216,1,80,0|8,0:0|0:0,0:0:0:0:
336,272,222128,2,0,L|336:192,1,80,0|8,0:0|0:0,0:0:0:0:
256,272,222462,2,0,L|256:192,1,80,0|8,0:0|0:0,0:0:0:0:
120,272,222962,1,8,0:0:0:0:
112,112,223295,6,0,P|184:88|264:112,1,160
256,272,223961,2,0,L|312:216,1,80
256,272,224295,2,0,L|200:216,1,80
256,64,224795,2,0,L|256:232,1,160
256,304,225295,2,0,L|256:344,4,40
96,280,225961,5,0,0:0:0:0:
160,232,226128,1,0,0:0:0:0:
240,248,226295,1,0,0:0:0:0:
288,184,226461,1,0,0:0:0:0:
352,64,226628,2,0,L|352:144,1,80
424,208,226961,2,0,L|424:120,1,80
352,64,227295,5,0,0:0:0:0:
288,112,227461,1,0,0:0:0:0:
216,80,227628,1,0,0:0:0:0:
144,112,227795,2,0,L|144:192,1,80
112,264,228128,1,0,0:0:0:0:
64,200,228295,1,0,0:0:0:0:
144,192,228461,1,0,0:0:0:0:
256,264,228628,6,0,L|408:312,1,160
352,360,229128,2,0,P|336:288|408:232,1,160
408,312,229628,2,0,L|328:288,1,80
256,264,229961,5,0,0:0:0:0:
168,96,230295,1,0,0:0:0:0:
336,8,230628,1,0,0:0:0:0:
424,176,230962,1,0,0:0:0:0:
256,264,231295,5,0,0:0:0:0:
184,288,231461,1,0,0:0:0:0:
160,208,231628,1,0,0:0:0:0:
80,200,231795,1,0,0:0:0:0:
80,120,231961,6,0,L|160:128,1,80
120,56,232295,2,0,L|200:64,1,80
280,80,232628,6,0,L|304:0,1,80
352,104,232961,2,0,L|432:128,1,80
328,176,233295,2,0,L|304:256,1,80
256,152,233628,2,0,L|176:128,1,80
288,88,233961,6,0,B|232:64|160:96|152:168|176:248|256:256|296:224|320:200|320:176|328:160|328:160|328:224|240:360,1,560
112,160,235461,5,0,0:0:0:0:
216,96,235628,1,0,0:0:0:0:
176,208,235795,1,0,0:0:0:0:
144,96,235962,2,0,P|176:152|240:168,1,120
384,160,236628,6,0,P|416:120|416:88,1,80
392,16,236961,1,0,0:0:0:0:
336,72,237128,1,0,0:0:0:0:
312,152,237295,2,0,L|334:75,1,80
286,227,237628,2,0,L|311:151,1,80
256,96,237961,6,0,L|184:144,1,80
136,176,238295,1,0,0:0:0:0:
88,104,238461,2,0,P|208:128|176:248,1,240
208,304,239128,1,0,0:0:0:0:
288,288,239295,6,0,L|360:248,1,80
424,208,239628,2,0,L|352:168,1,80
288,128,239961,2,0,L|360:88,1,80
424,48,240295,2,0,L|352:8,1,80
288,48,240628,6,0,L|288:208,4,160
360,80,242128,1,0,0:0:0:0:
288,112,242295,1,0,0:0:0:0:
216,80,242461,2,0,P|144:96|104:184,1,160
96,248,242961,1,0,0:0:0:0:
32,200,243128,1,0,0:0:0:0:
103,167,243295,6,0,P|152:184|176:224,1,80
225,262,243628,1,0,0:0:0:0:
281,205,243795,2,0,P|298:183|346:166,1,80
424,160,244128,1,0,0:0:0:0:
346,166,244295,2,0,P|384:224|416:232,1,80
424,160,244628,2,0,P|394:102|354:86,1,80
326,38,244961,1,0,0:0:0:0:
269,94,245128,2,0,P|257:101|228:158,1,80
272,256,245461,5,0,0:0:0:0:
352,328,245628,1,0,0:0:0:0:
456,344,245795,1,0,0:0:0:0:
432,240,245961,2,0,L|352:208,1,80
424,168,246295,2,0,L|344:136,1,80
416,96,246628,2,0,L|336:64,1,80
269,94,246961,1,0,0:0:0:0:
256,312,247295,5,0,0:0:0:0:
256,192,247462,1,0,0:0:0:0:
256,112,247629,1,0,0:0:0:0:
176,168,247795,2,0,B|232:224|288:152|336:208,1,160
376,264,248295,1,0,0:0:0:0:
408,192,248462,1,0,0:0:0:0:
328,168,248629,6,0,B|280:224|224:152|168:208,1,160
96,192,249129,1,0,0:0:0:0:
32,152,249295,2,0,L|0:120,2,40
32,232,249629,2,0,L|0:264,2,40
96,192,249962,6,0,L|176:192,1,80
176,192,250295,2,0,L|256:192,1,80
256,192,250629,2,0,L|336:192,1,80
336,192,250962,2,0,L|416:192,1,80
376,112,251295,6,0,L|376:192,1,80
296,272,251629,2,0,L|296:192,1,80
216,112,251962,2,0,L|216:192,1,80
136,272,252295,2,0,L|136:192,1,80
136,112,252629,6,0,L|216:112,1,80
216,272,252962,2,0,L|296:272,1,80
296,112,253295,2,0,L|376:112,1,80
376,272,253629,2,0,L|456:272,1,80
456,192,253962,5,0,0:0:0:0:
416,192,254129,1,0,0:0:0:0:
376,192,254295,1,0,0:0:0:0:
336,192,254462,1,0,0:0:0:0:
296,192,254629,1,0,0:0:0:0:
256,192,254795,1,0,0:0:0:0:
216,192,254962,1,0,0:0:0:0:
176,192,255129,1,0,0:0:0:0:
176,112,255295,6,0,L|176:192,1,80
176,272,255629,2,0,L|176:192,1,80
96,192,255962,2,0,L|48:192,4,40
176,192,256462,2,0,L|336:192,1,160
280,136,256962,1,0,0:0:0:0:
280,248,257129,1,0,0:0:0:0:
176,112,257295,1,0,0:0:0:0:
96,192,257462,1,0,0:0:0:0:
176,272,257629,1,0,0:0:0:0:
256,112,257962,5,0,0:0:0:0:
256,192,258129,1,0,0:0:0:0:
256,272,258296,1,0,0:0:0:0:
336,216,258462,2,0,B|280:160|224:232|176:176,1,160
136,120,258962,1,0,0:0:0:0:
104,192,259129,1,0,0:0:0:0:
184,216,259296,6,0,B|232:160|288:232|344:176,1,160
416,192,259796,1,0,0:0:0:0:
480,232,259962,2,0,L|512:264,2,40
480,152,260296,2,0,L|512:120,2,40
416,192,260629,6,0,L|336:192,1,80
336,192,260962,2,0,L|256:192,1,80
256,192,261296,2,0,L|176:192,1,80
176,192,261629,2,0,L|96:192,1,80
136,272,261962,6,0,L|136:192,1,80
216,112,262296,2,0,L|216:192,1,80
296,272,262629,2,0,L|296:192,1,80
376,112,262962,2,0,L|376:192,1,80
376,272,263296,6,0,L|296:272,1,80
296,112,263629,2,0,L|216:112,1,80
216,272,263962,2,0,L|136:272,1,80
136,112,264296,2,0,L|56:112,1,80
56,192,264629,5,0,0:0:0:0:
96,192,264796,1,0,0:0:0:0:
136,192,264962,1,0,0:0:0:0:
176,192,265129,1,0,0:0:0:0:
216,192,265296,1,0,0:0:0:0:
256,192,265462,1,0,0:0:0:0:
296,192,265629,1,0,0:0:0:0:
336,192,265796,1,0,0:0:0:0:
336,272,265962,6,0,L|336:192,1,80
336,112,266296,2,0,L|336:192,1,80
416,192,266629,2,0,L|464:192,4,40
336,192,267129,2,0,L|176:192,1,160
232,248,267629,1,0,0:0:0:0:
232,136,267796,1,0,0:0:0:0:
336,272,267962,1,0,0:0:0:0:
416,192,268129,1,0,0:0:0:0:
336,112,268296,1,0,0:0:0:0:
176,136,268629,6,0,L|96:136,1,80
96,248,268962,2,0,L|176:248,1,80
336,192,269462,2,0,L|256:192,1,80
256,192,269962,5,0,0:0:0:0:
256,192,270045,12,0,271295,0:0:0:0:
256,112,271628,1,4,0:0:0:0:
416,112,271961,2,0,B|472:112|472:168,1,80,8|0,0:0|0:0,0:0:0:0:
416,272,272294,2,0,B|472:272|472:216,1,80,0|8,0:0|0:0,0:0:0:0:
336,272,272794,2,0,L|336:192,1,80,0|8,0:0|0:0,0:0:0:0:
256,272,273128,2,0,L|256:192,1,80,0|8,0:0|0:0,0:0:0:0:
120,272,273628,1,8,0:0:0:0:
120,112,273961,6,0,B|144:128|144:128|168:112|168:112|192:128|192:128|216:112|216:112|232:128|232:128|248:112,2,160
48,152,274794,1,0,0:0:0:0:
120,192,274961,1,0,0:0:0:0:
48,232,275128,2,0,P|120:272|200:216,1,160
248,192,275628,1,0,0:0:0:0:
248,112,275794,1,0,0:0:0:0:
184,152,275961,2,0,P|248:192|304:264,1,160
256,192,276628,12,0,277961,0:0:0:0:
120,192,282295,5,4,0:0:0:0:
256,112,282628,1,4,0:0:0:0:
416,112,282961,2,0,B|472:112|472:168,1,80,8|0,0:0|0:0,0:0:0:0:
416,272,283294,2,0,B|472:272|472:216,1,80,0|8,0:0|0:0,0:0:0:0:
336,272,283794,2,0,L|336:192,1,80,0|8,0:0|0:0,0:0:0:0:
256,272,284128,2,0,L|256:192,1,80,0|8,0:0|0:0,0:0:0:0:
120,272,284628,1,8,0:0:0:0:
