osu file format v12

[General]
AudioFilename: Ciru Miru Cirno.mp3
AudioLeadIn: 0
PreviewTime: 97282
Countdown: 0
SampleSet: Normal
StackLeniency: 0.7
Mode: 0
LetterboxInBreaks: 0
WidescreenStoryboard: 0

[Editor]
Bookmarks: 3962,10629,19962,30629,54629,65296,75962,86629,97296,102629,126629,137296,147962,158629,169296,174629,198629,209296,218629,220629,225962,247295,271295,277962,282295
DistanceSpacing: 1.2
BeatDivisor: 4
GridSize: 8

[Metadata]
Title:Chirumiru Cirno
TitleUnicode:チルミルチルノ
Artist:Conagusuri
ArtistUnicode:Conagusuri
Creator:alex_98
Version:Cirno
Source:Touhou
Tags:baka mikuru milk
BeatmapID:189430
BeatmapSetID:57665

[Difficulty]
HPDrainRate:5
CircleSize:4
OverallDifficulty:6
ApproachRate:9
SliderMultiplier:1.7
SliderTickRate:2

[Events]
//Background and Video events
Video,0,"Ciru Miru Cirno (vid only).avi"
0,0,"Cirno.jpg",0,0
//Break Periods
2,10496,19362
2,76163,86029
2,148162,158029
2,198829,208696
2,218496,220029
//Storyboard Layer 0 (Background)
//Storyboard Layer 1 (Fail)
//Storyboard Layer 2 (Pass)
//Storyboard Layer 3 (Foreground)
//Storyboard Sound Samples
//Background Colour Transformations
3,100,0,255,255

[TimingPoints]
3963,333.333333333333,4,1,0,100,1,0
8629,-66.6666666666667,4,1,0,100,0,0
10296,-100,4,2,0,5,0,0
19962,-100,4,1,0,100,0,0
30629,-100,4,1,0,100,0,1
39296,-66.6666666666667,4,1,0,100,0,1
41296,-100,4,1,0,100,0,1
49962,-66.6666666666667,4,1,0,100,0,1
51953,-100,4,1,0,69,0,0
102629,-100,4,1,0,100,0,1
122462,-66.6666666666667,4,1,0,100,0,1
123962,-100,4,1,0,100,0,1
125296,-66.6666666666667,4,1,0,100,0,0
135296,-100,4,1,0,100,0,0
137296,-66.6666666666667,4,1,0,100,0,0
139962,-66.6666666666667,4,1,0,100,0,0
158629,-100,4,1,0,69,0,0
174629,-100,4,1,0,100,0,1
178629,-50,4,1,0,100,0,1
183296,-100,4,1,0,100,0,1
183796,-66.6666666666667,4,1,0,100,0,1
185296,-100,4,1,0,100,0,1
189296,-50,4,1,0,100,0,1
193962,-100,4,1,0,100,0,1
194462,-66.6666666666667,4,1,0,100,0,1
197296,-100,4,2,0,100,0,0
220629,333.333333333333,4,1,0,100,1,0
225962,-100,4,1,0,100,0,1
245795,-66.6666666666667,4,1,0,100,0,1
247294,-100,4,1,0,100,0,0
247295,-100,4,1,0,100,0,1
251295,-50,4,1,0,100,0,1
255962,-66.6666666666667,4,1,0,100,0,1
256462,-50,4,1,0,100,0,1
257962,-100,4,1,0,100,0,1
261962,-50,4,1,0,100,0,1
266628,-66.6666666666667,4,1,0,100,0,1
267128,-50,4,1,0,100,0,1
269962,-100,4,2,0,100,0,0
271295,-100,4,1,0,100,0,0
276628,-100,4,2,0,100,0,0
277962,-100,4,2,0,5,0,0
282295,333.333333333333,4,1,0,100,1,0

[Colours]
Combo1 : 0,128,192
Combo2 : 0,255,255
Combo3 : 5,5,240

[HitObjects]
104,56,3962,1,4,0:0:0:0:
376,128,4296,1,4,0:0:0:0:
128,240,4629,1,8,0:0:0:0:
48,264,4796,1,0,0:0:0:0:
80,344,4962,1,0,0:0:0:0:
160,312,5129,1,8,0:0:0:0:
328,280,5462,5,0,0:0:0:0:
328,112,5629,1,8,0:0:0:0:
152,112,5796,1,0,0:0:0:0:
152,280,5962,1,8,0:0:0:0:
152,264,6296,1,8,0:0:0:0:
152,248,6629,6,0,B|322:248,1,170,8|0,0:0|0:0,0:0:0:0:
376,88,7296,1,8,0:0:0:0:
304,48,7462,1,0,0:0:0:0:
264,120,7629,1,0,0:0:0:0:
336,160,7796,1,8,0:0:0:0:
72,136,8129,2,0,B|80:80|112:48,1,85,8|0,0:0|0:0,0:0:0:0:
184,24,8462,1,0,0:0:0:0:
280,32,8629,2,0,B|447:231,2,255.000009727478,8|0|4,0:0|0:0|0:0,0:0:0:0:
256,192,9379,12,0,10296,0:0:0:0:
376,24,19962,6,0,B|376:200,1,170,4|0,0:0|0:0,0:0:0:0:
320,72,20629,2,0,B|320:248,1,170
264,120,21296,5,0,0:0:0:0:
264,192,21462,1,0,0:0:0:0:
264,264,21629,1,0,0:0:0:0:
264,328,21796,1,0,0:0:0:0:
208,296,21962,2,0,B|208:120,1,170
80,72,22629,6,0,B|256:72,1,170
376,120,23296,2,0,B|200:120,1,170
152,160,23796,1,0,0:0:0:0:
208,192,23962,1,0,0:0:0:0:
152,224,24129,1,0,0:0:0:0:
208,256,24296,1,0,0:0:0:0:
152,288,24462,1,0,0:0:0:0:
208,320,24629,1,0,0:0:0:0:
280,320,24796,1,0,0:0:0:0:
344,320,24962,6,0,B|344:232,1,85
344,168,25296,2,0,B|344:72|224:72,1,170
128,168,25962,2,0,B|128:288|264:288,1,170
368,288,26629,5,0,0:0:0:0:
408,232,26796,1,0,0:0:0:0:
368,176,26962,1,0,0:0:0:0:
320,128,27129,1,0,0:0:0:0:
264,168,27296,2,0,B|264:256,2,85
264,168,27712,1,0,0:0:0:0:
235,165,27795,1,0,0:0:0:0:
207,162,27878,1,0,0:0:0:0:
179,160,27961,1,4,0:0:0:0:
112,112,28129,6,0,B|184:160,1,85
160,240,28462,2,0,B|232:192,1,85
208,112,28796,2,0,B|280:160,1,85
264,240,29129,2,0,B|336:192,1,85
376,192,29379,5,0,0:0:0:0:
373,158,29462,1,0,0:0:0:0:
364,126,29546,1,0,0:0:0:0:
343,101,29629,1,0,0:0:0:0:
312,105,29712,1,0,0:0:0:0:
291,131,29796,1,0,0:0:0:0:
275,160,29879,1,0,0:0:0:0:
260,190,29962,1,0,0:0:0:0:
244,219,30046,1,0,0:0:0:0:
224,246,30129,1,0,0:0:0:0:
194,259,30212,1,0,0:0:0:0:
166,243,30296,1,0,0:0:0:0:
150,214,30379,1,0,0:0:0:0:
141,181,30462,1,0,0:0:0:0:
138,148,30546,1,0,0:0:0:0:
136,112,30629,6,0,B|224:112,1,85,12|0,0:0|0:0,0:0:0:0:
160,176,30962,2,0,B|248:176,1,85,0|8,0:0|0:0,0:0:0:0:
304,128,31462,1,0,0:0:0:0:
344,128,31629,1,8,0:0:0:0:
384,128,31796,1,0,0:0:0:0:
416,128,31962,6,0,B|392:176|416:224,1,85,8|0,0:0|0:0,0:0:0:0:
488,168,32296,2,0,B|512:216|488:264,1,85,0|8,0:0|0:0,0:0:0:0:
432,312,32629,1,0,0:0:0:0:
360,272,32796,1,0,0:0:0:0:
288,312,32962,1,8,0:0:0:0:
216,272,33129,1,0,0:0:0:0:
144,312,33296,6,0,B|120:264|144:216,1,85,8|0,0:0|0:0,0:0:0:0:
216,272,33629,2,0,B|240:224|216:176,1,85,0|8,0:0|0:0,0:0:0:0:
472,56,34129,1,0,0:0:0:0:
472,56,34296,1,8,0:0:0:0:
472,56,34462,1,0,0:0:0:0:
472,56,34629,6,2,B|424:32|376:56,1,85,0|0,0:0|0:0,0:0:0:0:
392,136,34962,2,0,B|344:160|296:136,1,85,0|0,0:0|0:0,0:0:0:0:
304,56,35296,2,2,B|256:32|208:56,1,85,0|0,0:0|0:0,0:0:0:0:
224,136,35629,2,0,B|176:160|128:136,1,85,0|0,0:0|0:0,0:0:0:0:
120,56,35962,5,8,0:0:0:0:
72,128,36129,1,0,0:0:0:0:
120,200,36296,1,0,0:0:0:0:
72,272,36462,1,8,0:0:0:0:
328,272,36796,5,8,0:0:0:0:
248,328,36962,1,0,0:0:0:0:
152,328,37129,1,0,0:0:0:0:
72,272,37296,5,8,0:0:0:0:
24,192,37462,1,0,0:0:0:0:
136,168,37629,1,0,0:0:0:0:
184,248,37796,1,8,0:0:0:0:
296,312,37962,2,0,B|368:288|368:224,1,85
240,208,38296,2,0,B|168:232|168:296,1,85,8|0,0:0|0:0,0:0:0:0:
240,176,38629,2,0,B|168:152|168:88,1,85,8|0,0:0|0:0,0:0:0:0:
296,72,38962,2,0,B|368:96|368:160,1,85,0|8,0:0|0:0,0:0:0:0:
400,192,39296,5,0,0:0:0:0:
320,96,39463,1,0,0:0:0:0:
176,256,39629,1,0,0:0:0:0:
72,96,39796,6,0,B|160:32|320:96,1,255.000009727478,8|0,0:0|0:0,0:0:0:0:
376,208,40296,1,8,0:0:0:0:
264,144,40463,1,0,0:0:0:0:
392,128,40629,2,8,B|256:256|136:264,1,255.000009727478
376,272,41296,6,0,B|288:272,1,85,12|0,0:0|0:0,0:0:0:0:
352,208,41629,2,0,B|264:208,1,85,0|8,0:0|0:0,0:0:0:0:
208,256,42129,1,0,0:0:0:0:
168,256,42296,1,8,0:0:0:0:
128,256,42463,1,0,0:0:0:0:
96,256,42629,6,0,B|120:208|96:160,1,85,8|0,0:0|0:0,0:0:0:0:
24,216,42963,2,0,B|0:168|24:120,1,85,0|8,0:0|0:0,0:0:0:0:
80,72,43296,1,0,0:0:0:0:
152,112,43463,1,0,0:0:0:0:
224,72,43629,1,8,0:0:0:0:
296,112,43796,1,0,0:0:0:0:
368,72,43963,6,0,B|392:120|368:168,1,85,8|0,0:0|0:0,0:0:0:0:
296,112,44296,2,0,B|272:160|296:208,1,85,0|8,0:0|0:0,0:0:0:0:
40,328,44796,1,0,0:0:0:0:
40,328,44963,1,8,0:0:0:0:
40,328,45129,1,0,0:0:0:0:
40,328,45296,6,2,B|88:352|136:328,1,85,0|0,0:0|0:0,0:0:0:0:
120,248,45629,2,0,B|168:224|216:248,1,85,0|0,0:0|0:0,0:0:0:0:
208,328,45963,2,2,B|256:352|304:328,1,85,0|0,0:0|0:0,0:0:0:0:
288,248,46296,2,0,B|336:224|384:248,1,85,0|0,0:0|0:0,0:0:0:0:
392,328,46629,5,8,0:0:0:0:
440,256,46796,1,0,0:0:0:0:
392,184,46963,1,0,0:0:0:0:
440,112,47129,1,8,0:0:0:0:
184,112,47463,5,8,0:0:0:0:
264,56,47629,1,0,0:0:0:0:
360,56,47796,1,0,0:0:0:0:
440,112,47963,5,8,0:0:0:0:
488,192,48129,1,0,0:0:0:0:
376,216,48296,1,0,0:0:0:0:
328,136,48463,1,8,0:0:0:0:
216,72,48629,2,0,B|144:96|144:160,1,85
272,176,48963,2,0,B|344:152|344:88,1,85,8|0,0:0|0:0,0:0:0:0:
272,208,49296,2,0,B|344:232|344:296,1,85,8|0,0:0|0:0,0:0:0:0:
216,312,49629,2,0,B|144:288|144:224,1,85,0|8,0:0|0:0,0:0:0:0:
112,192,49963,5,0,0:0:0:0:
192,288,50129,1,0,0:0:0:0:
336,128,50296,1,0,0:0:0:0:
440,288,50463,6,0,B|352:352|192:288,1,255.000009727478,8|0,0:0|0:0,0:0:0:0:
136,176,50963,1,8,0:0:0:0:
192,208,51046,1,0,0:0:0:0:
248,240,51129,1,0,0:0:0:0:
120,256,51296,2,8,B|256:128|376:120,1,255.000009727478
371,109,51712,1,0,0:0:0:0:
408,96,51796,1,0,0:0:0:0:
408,96,51963,6,0,B|360:64|304:112,1,85
408,264,52296,2,0,B|368:304|320:256,1,85
256,192,52629,1,0,0:0:0:0:
160,136,52796,1,0,0:0:0:0:
160,248,52963,1,0,0:0:0:0:
256,192,53296,12,0,54296,0:0:0:0:
274,188,54629,5,4,0:0:0:0:
264,133,54713,1,0,0:0:0:0:
254,78,54796,1,0,0:0:0:0:
381,62,54963,2,0,B|449:124|425:167,1,85
413,190,55213,1,0,0:0:0:0:
383,245,55296,2,0,B|294:280|267:250,1,85
248,256,55546,1,0,0:0:0:0:
208,224,55629,1,0,0:0:0:0:
128,160,55796,1,0,0:0:0:0:
100,269,55963,5,0,0:0:0:0:
155,265,56046,1,0,0:0:0:0:
209,262,56129,1,0,0:0:0:0:
237,155,56296,1,0,0:0:0:0:
182,151,56379,1,0,0:0:0:0:
127,147,56463,1,0,0:0:0:0:
311,83,56629,1,0,0:0:0:0:
312,138,56713,1,0,0:0:0:0:
313,193,56796,1,0,0:0:0:0:
315,247,56879,1,0,0:0:0:0:
317,301,56963,1,2,0:0:0:0:
404,84,57296,6,0,B|351:49|306:53,1,85
262,54,57546,1,0,0:0:0:0:
207,60,57629,1,0,0:0:0:0:
105,93,57796,1,0,0:0:0:0:
153,218,57963,2,0,B|221:229|268:190,1,85
280,177,58213,1,0,0:0:0:0:
317,135,58296,1,0,0:0:0:0:
426,130,58463,5,0,0:0:0:0:
413,183,58546,1,0,0:0:0:0:
379,226,58629,1,0,0:0:0:0:
330,251,58713,1,0,0:0:0:0:
277,264,58796,1,0,0:0:0:0:
221,266,58879,1,0,0:0:0:0:
167,258,58963,1,0,0:0:0:0:
120,230,59046,1,0,0:0:0:0:
94,182,59129,1,0,0:0:0:0:
136,117,59296,1,0,0:0:0:0:
330,72,59463,1,0,0:0:0:0:
375,266,59629,1,0,0:0:0:0:
181,311,59796,1,0,0:0:0:0:
299,161,59963,5,0,0:0:0:0:
243,152,60046,1,0,0:0:0:0:
188,143,60129,1,0,0:0:0:0:
277,264,60296,1,0,0:0:0:0:
322,232,60379,1,0,0:0:0:0:
367,200,60463,1,0,0:0:0:0:
420,103,60629,1,0,0:0:0:0:
372,75,60713,1,0,0:0:0:0:
320,55,60796,1,0,0:0:0:0:
266,45,60879,1,0,0:0:0:0:
211,43,60963,1,0,0:0:0:0:
156,50,61046,1,0,0:0:0:0:
103,64,61129,1,0,0:0:0:0:
94,174,61296,6,0,B|85:259|139:281,1,85
231,305,61629,1,0,0:0:0:0:
303,182,61796,1,0,0:0:0:0:
198,216,61963,1,0,0:0:0:0:
249,236,62046,1,0,0:0:0:0:
303,244,62129,1,0,0:0:0:0:
359,243,62213,1,0,0:0:0:0:
413,233,62296,1,0,0:0:0:0:
257,75,62629,5,0,0:0:0:0:
204,89,62713,1,0,0:0:0:0:
155,116,62796,1,0,0:0:0:0:
242,182,62963,1,0,0:0:0:0:
294,162,63046,1,0,0:0:0:0:
343,138,63129,1,0,0:0:0:0:
176,256,63296,1,0,0:0:0:0:
138,216,63379,1,0,0:0:0:0:
104,172,63463,1,0,0:0:0:0:
257,75,63629,1,0,0:0:0:0:
325,274,63796,1,0,0:0:0:0:
80,300,63963,6,0,B|52:224|67:191,1,85
132,103,64296,2,0,B|170:135|168:211,1,85
234,297,64629,1,0,0:0:0:0:
283,273,64713,1,0,0:0:0:0:
250,167,64879,1,0,0:0:0:0:
195,158,64963,1,0,0:0:0:0:
406,91,65296,5,0,0:0:0:0:
358,119,65379,1,0,0:0:0:0:
377,283,65629,1,0,0:0:0:0:
427,305,65713,1,0,0:0:0:0:
286,191,65879,1,0,0:0:0:0:
230,191,65963,1,0,0:0:0:0:
174,191,66046,1,0,0:0:0:0:
118,191,66129,1,0,0:0:0:0:
62,191,66213,1,0,0:0:0:0:
6,191,66296,1,0,0:0:0:0:
8,192,66629,5,0,0:0:0:0:
24,224,66713,1,0,0:0:0:0:
88,336,66879,1,0,0:0:0:0:
136,320,66963,1,0,0:0:0:0:
184,304,67046,1,0,0:0:0:0:
232,288,67129,1,0,0:0:0:0:
184,368,67296,1,0,0:0:0:0:
168,320,67379,1,0,0:0:0:0:
136,280,67463,1,0,0:0:0:0:
104,240,67546,1,0,0:0:0:0:
88,192,67629,2,0,L|32:112,1,85
76,122,67879,5,0,0:0:0:0:
105,126,67963,1,0,0:0:0:0:
133,134,68046,1,0,0:0:0:0:
161,146,68129,1,0,0:0:0:0:
187,160,68213,1,0,0:0:0:0:
212,176,68296,1,0,0:0:0:0:
237,192,68379,1,0,0:0:0:0:
261,209,68463,1,0,0:0:0:0:
286,226,68546,1,0,0:0:0:0:
312,241,68629,1,0,0:0:0:0:
338,255,68713,1,0,0:0:0:0:
365,267,68796,1,0,0:0:0:0:
393,276,68879,1,0,0:0:0:0:
423,282,68963,1,0,0:0:0:0:
360,336,69129,2,0,P|416:296|424:264,1,85
414,190,69463,6,0,B|384:140,1,42.5
223,104,69713,2,0,B|175:151,1,42.5
160,168,69879,1,0,0:0:0:0:
136,216,69963,1,0,0:0:0:0:
227,288,70129,1,0,0:0:0:0:
269,253,70213,1,0,0:0:0:0:
302,208,70296,1,0,0:0:0:0:
317,155,70379,1,0,0:0:0:0:
65,73,70629,5,0,0:0:0:0:
63,183,70796,1,0,0:0:0:0:
67,292,70963,1,0,0:0:0:0:
63,183,71129,1,0,0:0:0:0:
154,119,71296,1,0,0:0:0:0:
207,133,71379,1,0,0:0:0:0:
208,232,71546,1,0,0:0:0:0:
352,219,71796,1,0,0:0:0:0:
423,135,71963,5,0,0:0:0:0:
369,124,72046,1,0,0:0:0:0:
314,129,72129,1,0,0:0:0:0:
260,141,72213,1,0,0:0:0:0:
205,148,72296,1,0,0:0:0:0:
151,141,72379,1,0,0:0:0:0:
100,118,72463,1,0,0:0:0:0:
48,95,72546,1,0,0:0:0:0:
16,48,72629,1,0,0:0:0:0:
224,16,72796,1,0,0:0:0:0:
16,48,72963,1,0,0:0:0:0:
203,310,73296,5,0,0:0:0:0:
128,229,73463,1,0,0:0:0:0:
137,139,73629,1,0,0:0:0:0:
209,70,73796,1,0,0:0:0:0:
308,73,73963,1,0,0:0:0:0:
377,145,74129,1,0,0:0:0:0:
374,244,74296,1,0,0:0:0:0:
302,313,74463,1,0,0:0:0:0:
27,191,74629,5,0,0:0:0:0:
256,194,74796,1,0,0:0:0:0:
485,191,74963,1,0,0:0:0:0:
256,57,75213,5,0,0:0:0:0:
256,112,75296,1,0,0:0:0:0:
256,167,75379,1,0,0:0:0:0:
256,222,75463,1,0,0:0:0:0:
256,277,75546,1,0,0:0:0:0:
256,332,75629,1,0,0:0:0:0:
27,191,75796,5,0,0:0:0:0:
485,191,75963,1,4,0:0:0:0:
434,57,86629,6,0,B|487:97|454:163,1,85,4|0,0:0|0:0,0:0:0:0:
380,126,86962,2,0,B|375:174|429:208,1,85
361,265,87296,1,0,0:0:0:0:
300,205,87462,1,0,0:0:0:0:
242,267,87629,1,8,0:0:0:0:
184,204,87796,1,0,0:0:0:0:
126,265,87962,6,0,B|88:211|85:151|156:114,1,170
117,88,88379,1,0,0:0:0:0:
93,53,88462,1,0,0:0:0:0:
176,38,88629,1,8,0:0:0:0:
319,83,88796,6,0,B|259:177,2,85
404,81,89296,1,0,0:0:0:0:
422,122,89379,1,0,0:0:0:0:
428,161,89462,1,0,0:0:0:0:
394,239,89629,1,8,0:0:0:0:
325,289,89796,1,0,0:0:0:0:
241,300,89962,2,0,B|183:301|149:286,1,85
99,225,90296,1,8,0:0:0:0:
83,185,90379,1,0,0:0:0:0:
89,143,90462,1,0,0:0:0:0:
156,91,90629,6,0,B|240:47,1,85
253,133,90962,2,0,B|231:43,1,85
181,163,91296,1,2,0:0:0:0:
312,242,91462,1,4,0:0:0:0:
356,106,91629,2,6,B|335:25|204:26,1,170,0|6,0:0|0:0,0:0:0:0:
64,94,92296,5,0,0:0:0:0:
125,151,92462,1,0,0:0:0:0:
47,186,92629,2,0,B|12:245|49:302,1,85
113,238,92962,2,0,B|135:282|91:333,1,85,8|0,0:0|0:0,0:0:0:0:
188,325,93296,1,0,0:0:0:0:
267,352,93462,1,0,0:0:0:0:
341,310,93629,1,0,0:0:0:0:
392,242,93796,2,0,B|426:163|328:84,1,170
258,90,94296,1,8,0:0:0:0:
88,76,94629,5,0,0:0:0:0:
60,108,94712,1,0,0:0:0:0:
62,150,94796,1,0,0:0:0:0:
106,222,94962,1,0,0:0:0:0:
134,253,95046,1,0,0:0:0:0:
135,295,95129,1,0,0:0:0:0:
216,320,95296,2,0,B|291:303|325:274|349:216,1,170
340,137,95796,1,0,0:0:0:0:
273,84,95962,1,2,0:0:0:0:
249,99,96046,1,0,0:0:0:0:
235,123,96129,1,0,0:0:0:0:
230,151,96212,1,0,0:0:0:0:
232,179,96296,1,2,0:0:0:0:
241,206,96379,1,0,0:0:0:0:
257,229,96462,1,0,0:0:0:0:
277,248,96546,1,0,0:0:0:0:
302,262,96629,1,2,0:0:0:0:
329,270,96712,1,0,0:0:0:0:
358,273,96796,1,0,0:0:0:0:
386,272,96879,1,0,0:0:0:0:
414,267,96962,1,6,0:0:0:0:
104,56,97296,5,4,0:0:0:0:
376,128,97629,1,4,0:0:0:0:
128,240,97962,1,8,0:0:0:0:
48,264,98129,1,0,0:0:0:0:
80,344,98296,1,0,0:0:0:0:
160,312,98462,1,8,0:0:0:0:
328,280,98796,5,0,0:0:0:0:
328,112,98962,1,8,0:0:0:0:
152,112,99129,1,0,0:0:0:0:
152,280,99296,1,8,0:0:0:0:
152,264,99629,1,8,0:0:0:0:
152,248,99962,6,0,B|321:248,1,170,8|0,0:0|0:0,0:0:0:0:
376,88,100629,1,8,0:0:0:0:
304,48,100796,1,0,0:0:0:0:
264,120,100962,1,0,0:0:0:0:
336,160,101129,1,8,0:0:0:0:
72,136,101462,2,0,B|80:80|112:48,1,85,8|0,0:0|0:0,0:0:0:0:
184,24,101796,1,0,0:0:0:0:
280,32,101962,2,0,B|272:123,2,85,8|0|8,0:0|0:0|0:0,0:0:0:0:
363,50,102462,1,0,0:0:0:0:
462,65,102629,5,4,0:0:0:0:
487,103,102712,1,0,0:0:0:0:
479,150,102796,1,0,0:0:0:0:
386,142,102962,1,0,0:0:0:0:
419,229,103129,1,8,0:0:0:0:
244,300,103462,5,0,0:0:0:0:
154,272,103629,1,8,0:0:0:0:
82,210,103796,1,0,0:0:0:0:
78,303,103962,5,8,0:0:0:0:
123,290,104046,1,0,0:0:0:0:
156,257,104129,1,0,0:0:0:0:
174,164,104296,1,8,0:0:0:0:
82,210,104462,2,0,B|110:291|253:300,1,170,8|0,0:0|0:0,0:0:0:0:
313,244,104962,1,0,0:0:0:0:
357,351,105129,1,8,0:0:0:0:
473,285,105296,5,8,0:0:0:0:
487,240,105379,1,0,0:0:0:0:
490,193,105462,1,0,0:0:0:0:
482,145,105546,1,0,0:0:0:0:
462,102,105629,1,0,0:0:0:0:
376,40,105796,2,8,P|264:64|256:192,1,255
256,192,106379,1,0,0:0:0:0:
256,192,106462,1,0,0:0:0:0:
256,192,106546,1,0,0:0:0:0:
256,192,106629,5,10,0:0:0:0:
114,248,106796,1,0,0:0:0:0:
57,107,106962,1,2,0:0:0:0:
198,49,107129,1,0,0:0:0:0:
256,192,107296,5,10,0:0:0:0:
107,222,107462,1,0,0:0:0:0:
75,73,107629,1,2,0:0:0:0:
224,43,107796,1,0,0:0:0:0:
256,192,107962,5,8,0:0:0:0:
103,196,108129,1,0,0:0:0:0:
98,44,108296,1,0,0:0:0:0:
250,39,108462,2,8,B|355:167|257:307,1,255
176,271,109129,1,0,0:0:0:0:
194,183,109296,6,0,B|291:183|291:280,1,127.5
291,306,109629,2,0,B|320:344|352:336,1,42.5,8|0,0:0|0:0,0:0:0:0:
361,368,109796,2,0,B|353:315|344:244|370:200|448:160,1,233.75,8|0,0:0|0:0,0:0:0:0:
450,174,110296,2,0,B|432:103|370:77,1,127.5,8|0,0:0|0:0,0:0:0:0:
326,41,110629,6,0,B|282:6,1,42.5,8|0,0:0|0:0,0:0:0:0:
264,41,110796,2,0,B|220:77,1,42.5
194,41,110962,2,0,B|150:6,1,42.5
123,41,111129,2,8,B|79:77|79:77|26:121|2:192|26:253|79:306|79:306|123:342,1,340,0|0,0:0|0:0,0:0:0:0:
158,342,111879,1,0,0:0:0:0:
194,342,111962,6,0,B|238:306,1,42.5
264,342,112129,2,0,B|308:377,1,42.5
335,342,112296,2,0,B|379:306,1,42.5,8|8,0:0|0:0,0:0:0:0:
406,342,112462,2,0,B|450:377,1,42.5
476,342,112629,2,8,B|503:342|503:342|529:315|529:209|503:183,1,170
423,139,113129,1,0,0:0:0:0:
308,41,113296,6,0,B|308:139,1,85,8|0,0:0|0:0,0:0:0:0:
203,41,113629,2,0,B|203:139,1,85,0|8,0:0|0:0,0:0:0:0:
61,94,113962,1,0,0:0:0:0:
17,218,114129,1,0,0:0:0:0:
44,297,114296,1,0,0:0:0:0:
123,324,114462,1,0,0:0:0:0:
203,342,114629,6,0,B|203:244,1,85,8|0,0:0|0:0,0:0:0:0:
308,342,114962,2,0,B|308:244,1,85,0|8,0:0|0:0,0:0:0:0:
256,174,115296,1,0,0:0:0:0:
256,68,115462,1,0,0:0:0:0:
256,121,115629,1,8,0:0:0:0:
256,15,115796,1,0,0:0:0:0:
158,68,115962,6,0,B|114:165,1,85,8|0,0:0|0:0,0:0:0:0:
353,68,116296,2,0,B|397:165,1,85,0|8,0:0|0:0,0:0:0:0:
256,315,116629,1,0,0:0:0:0:
256,68,116796,2,0,B|256:165,2,85
254,68,117296,1,2,0:0:0:0:
432,192,117629,1,0,0:0:0:0:
256,359,117962,1,2,0:0:0:0:
79,192,118296,1,0,0:0:0:0:
254,68,118629,6,0,B|326:139,1,85,8|0,0:0|0:0,0:0:0:0:
378,190,118962,2,0,B|308:262,1,85,0|8,0:0|0:0,0:0:0:0:
132,244,119296,1,0,0:0:0:0:
132,130,119462,1,0,0:0:0:0:
35,192,119629,1,8,0:0:0:0:
238,192,119796,1,0,0:0:0:0:
272,208,119962,5,8,0:0:0:0:
256,184,120129,1,0,0:0:0:0:
344,208,120296,1,0,0:0:0:0:
160,208,120462,1,8,0:0:0:0:
384,120,120629,1,0,0:0:0:0:
152,280,120796,1,0,0:0:0:0:
304,88,120962,1,8,0:0:0:0:
272,288,121129,1,0,0:0:0:0:
158,68,121296,6,0,B|114:165,1,85,8|0,0:0|0:0,0:0:0:0:
353,68,121629,2,0,B|397:165,1,85,0|8,0:0|0:0,0:0:0:0:
176,224,121962,1,0,0:0:0:0:
336,224,122129,1,0,0:0:0:0:
256,280,122296,1,0,0:0:0:0:
256,59,122462,6,0,B|256:350,1,255.000009727478
336,224,122962,1,0,0:0:0:0:
256,224,123046,1,0,0:0:0:0:
176,224,123129,1,0,0:0:0:0:
256,368,123296,2,0,B|256:86,1,255.000009727478
256,112,123712,1,0,0:0:0:0:
256,112,123796,1,0,0:0:0:0:
51,101,123962,5,8,0:0:0:0:
192,50,124129,1,0,0:0:0:0:
131,160,124296,1,0,0:0:0:0:
267,121,124462,2,0,B|345:106|391:172|406:171,1,127.5,8|0,0:0|0:0,0:0:0:0:
387,171,124796,2,0,B|314:185|234:242|196:341,1,255,0|0,0:0|0:0,0:0:0:0:
256,192,125379,12,4,126296,0:0:0:0:
64,80,126629,5,2,0:0:0:0:
64,80,126712,1,0,0:0:0:0:
64,80,126796,1,0,0:0:0:0:
336,152,126962,5,8,0:0:0:0:
336,152,127046,1,0,0:0:0:0:
336,152,127129,1,0,0:0:0:0:
176,280,127296,5,8,0:0:0:0:
176,280,127379,1,0,0:0:0:0:
176,280,127462,1,0,0:0:0:0:
389,318,127629,5,8,0:0:0:0:
389,318,127712,1,0,0:0:0:0:
389,318,127796,1,0,0:0:0:0:
394,96,127962,5,2,0:0:0:0:
394,96,128046,1,0,0:0:0:0:
394,96,128129,1,0,0:0:0:0:
62,276,128296,5,8,0:0:0:0:
62,276,128379,1,0,0:0:0:0:
62,276,128462,1,0,0:0:0:0:
183,90,128629,5,8,0:0:0:0:
183,90,128712,1,0,0:0:0:0:
183,90,128796,1,0,0:0:0:0:
238,313,128962,5,8,0:0:0:0:
238,313,129046,1,0,0:0:0:0:
238,313,129129,1,0,0:0:0:0:
407,217,129296,5,2,0:0:0:0:
407,217,129379,1,0,0:0:0:0:
407,217,129462,1,0,0:0:0:0:
116,254,129629,5,8,0:0:0:0:
116,254,129712,1,0,0:0:0:0:
116,254,129796,1,0,0:0:0:0:
383,93,129962,5,8,0:0:0:0:
383,93,130046,1,0,0:0:0:0:
383,93,130129,1,0,0:0:0:0:
92,86,130296,5,8,0:0:0:0:
92,86,130379,1,0,0:0:0:0:
92,86,130462,1,0,0:0:0:0:
254,282,130629,5,2,0:0:0:0:
258,282,130712,1,0,0:0:0:0:
262,282,130796,1,0,0:0:0:0:
266,282,130879,1,0,0:0:0:0:
270,282,130962,1,8,0:0:0:0:
274,282,131046,1,0,0:0:0:0:
278,282,131129,1,0,0:0:0:0:
56,240,131296,6,0,B|138:214,1,63.7500024318696,8|0,0:0|0:0,0:0:0:0:
55,141,131462,2,0,B|134:167,1,63.7500024318696,0|0,0:0|0:0,0:0:0:0:
259,191,131712,1,8,0:0:0:0:
184,112,131962,6,0,B|168:48,2,63.7500024318696
336,120,132296,2,0,B|400:104,2,63.7500024318696
328,272,132629,2,0,B|344:336,2,63.7500024318696
176,264,132962,2,0,B|112:280,2,63.7500024318696
208,131,133296,6,0,B|208:270,1,127.500004863739
304,131,133629,2,0,B|304:270,1,127.500004863739
111,131,133962,2,0,B|111:270,1,127.500004863739
400,131,134296,2,0,B|400:270,1,127.500004863739
189,119,134629,6,0,B|322:119,1,127.500004863739
189,263,134962,2,0,B|322:263,1,127.500004863739
312,192,135296,2,0,B|184:192,2,127.5
256,192,135962,12,0,136962,0:0:0:0:
196,47,137296,5,0,0:0:0:0:
315,47,137462,1,0,0:0:0:0:
196,96,137629,5,0,0:0:0:0:
315,96,137796,1,0,0:0:0:0:
196,143,137962,5,0,0:0:0:0:
315,143,138129,1,0,0:0:0:0:
196,192,138296,5,0,0:0:0:0:
315,192,138462,1,0,0:0:0:0:
315,336,138629,5,0,0:0:0:0:
196,336,138796,1,0,0:0:0:0:
315,288,138962,5,0,0:0:0:0:
196,288,139129,1,0,0:0:0:0:
315,240,139296,5,0,0:0:0:0:
196,240,139462,1,0,0:0:0:0:
315,192,139629,5,0,0:0:0:0:
196,192,139796,1,0,0:0:0:0:
166,252,139962,5,0,0:0:0:0:
195,102,140129,1,0,0:0:0:0:
345,131,140296,1,0,0:0:0:0:
316,281,140462,1,0,0:0:0:0:
166,252,140629,5,0,0:0:0:0:
195,102,140796,1,0,0:0:0:0:
345,131,140962,1,0,0:0:0:0:
316,281,141129,1,0,0:0:0:0:
166,252,141296,5,0,0:0:0:0:
195,102,141462,1,0,0:0:0:0:
345,131,141629,1,0,0:0:0:0:
316,281,141796,1,0,0:0:0:0:
166,252,141962,5,0,0:0:0:0:
195,102,142129,1,0,0:0:0:0:
345,131,142296,1,0,0:0:0:0:
331,207,142379,1,0,0:0:0:0:
316,281,142462,1,0,0:0:0:0:
148,313,142629,6,0,B|150:169,1,127.500004863739
316,281,142962,1,0,0:0:0:0:
331,207,143046,1,0,0:0:0:0:
345,131,143129,1,0,0:0:0:0:
217,137,143296,1,0,0:0:0:0:
174,184,143379,1,0,0:0:0:0:
61,244,143546,1,0,0:0:0:0:
60,180,143629,1,0,0:0:0:0:
81,120,143712,1,0,0:0:0:0:
125,70,143796,1,0,0:0:0:0:
251,81,143962,5,0,0:0:0:0:
279,83,144046,1,0,0:0:0:0:
306,94,144129,1,0,0:0:0:0:
330,110,144212,1,0,0:0:0:0:
350,131,144296,1,0,0:0:0:0:
368,154,144379,1,0,0:0:0:0:
384,178,144462,1,0,0:0:0:0:
399,203,144546,1,0,0:0:0:0:
413,228,144629,1,0,0:0:0:0:
428,253,144712,1,0,0:0:0:0:
443,278,144796,1,0,0:0:0:0:
459,301,144879,1,0,0:0:0:0:
140,276,145296,5,0,0:0:0:0:
128,213,145379,1,0,0:0:0:0:
154,155,145462,1,0,0:0:0:0:
279,83,145629,1,0,0:0:0:0:
314,205,145796,1,0,0:0:0:0:
187,215,145962,1,0,0:0:0:0:
128,213,146046,1,0,0:0:0:0:
73,179,146129,1,0,0:0:0:0:
48,120,146212,1,0,0:0:0:0:
166,71,146379,1,0,0:0:0:0:
221,101,146462,1,0,0:0:0:0:
423,89,146629,5,0,0:0:0:0:
419,120,146712,1,0,0:0:0:0:
407,150,146796,1,0,0:0:0:0:
389,176,146879,1,0,0:0:0:0:
367,200,146962,1,0,0:0:0:0:
343,221,147046,1,0,0:0:0:0:
318,240,147129,1,0,0:0:0:0:
291,257,147212,1,0,0:0:0:0:
263,272,147296,1,0,0:0:0:0:
234,286,147379,1,0,0:0:0:0:
204,298,147462,1,0,0:0:0:0:
174,308,147546,1,0,0:0:0:0:
144,317,147629,1,0,0:0:0:0:
112,323,147712,1,0,0:0:0:0:
80,325,147796,1,0,0:0:0:0:
16,330,147962,5,4,0:0:0:0:
64,48,158629,6,0,B|152:48,1,85
141,132,158963,2,0,B|224:174,1,85
282,115,159296,2,0,B|372:129,1,85
416,196,159629,2,0,B|371:281,1,85
295,297,159963,6,0,B|236:293|221:230,1,85
238,166,160296,2,0,B|243:97|160:89,1,85
146,165,160629,2,0,B|132:225|206:249,1,85
261,220,160963,2,0,B|323:211|362:261,1,85
401,300,161296,6,0,B|438:243|397:197,1,85
487,179,161629,2,0,B|453:132|384:139,1,85
337,174,161963,2,0,B|331:104|366:71,1,85
428,57,162296,2,0,B|378:15|346:22,1,85
274,53,162629,6,0,B|217:80|155:39,1,85
126,2,162963,2,0,B|89:49|117:106,1,85
22,76,163296,2,0,B|35:143|92:169,1,85
19,223,163629,2,0,B|94:229|125:202,1,85
152,145,163963,6,0,B|194:199|192:271,1,127.5
136,290,164296,1,0,0:0:0:0:
220,288,164463,1,0,0:0:0:0:
301,313,164629,2,0,B|314:241|250:212,1,85
196,228,164963,1,0,0:0:0:0:
238,156,165129,1,0,0:0:0:0:
218,73,165296,5,0,0:0:0:0:
295,104,165463,1,0,0:0:0:0:
379,96,165629,1,0,0:0:0:0:
338,168,165796,1,0,0:0:0:0:
271,221,165963,1,0,0:0:0:0:
349,251,166129,1,0,0:0:0:0:
397,322,166296,1,0,0:0:0:0:
432,248,166463,1,0,0:0:0:0:
430,103,166629,5,0,0:0:0:0:
348,191,166796,1,0,0:0:0:0:
280,40,166963,5,0,0:0:0:0:
245,168,167129,1,0,0:0:0:0:
136,48,167296,5,0,0:0:0:0:
129,183,167463,1,0,0:0:0:0:
16,72,167629,5,0,0:0:0:0:
40,216,167796,1,0,0:0:0:0:
128,326,167963,5,0,0:0:0:0:
145,311,168046,1,0,0:0:0:0:
161,295,168129,1,0,0:0:0:0:
176,278,168213,1,0,0:0:0:0:
183,257,168296,1,0,0:0:0:0:
175,236,168379,1,0,0:0:0:0:
164,216,168463,1,0,0:0:0:0:
164,194,168546,1,0,0:0:0:0:
175,174,168629,1,0,0:0:0:0:
188,156,168713,1,0,0:0:0:0:
199,136,168796,1,0,0:0:0:0:
198,113,168879,1,0,0:0:0:0:
185,95,168963,1,0,0:0:0:0:
167,81,169046,1,0,0:0:0:0:
147,71,169129,1,0,0:0:0:0:
126,63,169213,1,0,0:0:0:0:
104,56,169296,5,4,0:0:0:0:
376,128,169629,1,4,0:0:0:0:
128,240,169963,1,8,0:0:0:0:
48,264,170129,1,0,0:0:0:0:
80,344,170296,1,0,0:0:0:0:
160,312,170463,1,8,0:0:0:0:
328,280,170796,5,0,0:0:0:0:
328,112,170963,1,8,0:0:0:0:
152,112,171129,1,0,0:0:0:0:
152,280,171296,1,8,0:0:0:0:
152,264,171629,1,8,0:0:0:0:
152,248,171963,6,0,B|323:247,1,170,8|0,0:0|0:0,0:0:0:0:
376,88,172629,1,8,0:0:0:0:
304,48,172796,1,0,0:0:0:0:
264,120,172963,1,0,0:0:0:0:
336,160,173129,1,8,0:0:0:0:
72,136,173463,2,0,B|80:80|112:48,1,85,8|0,0:0|0:0,0:0:0:0:
184,24,173796,1,0,0:0:0:0:
267,42,173963,5,8,0:0:0:0:
304,60,174046,1,0,0:0:0:0:
329,94,174129,1,0,0:0:0:0:
338,135,174213,1,0,0:0:0:0:
340,178,174296,1,8,0:0:0:0:
344,220,174379,1,0,0:0:0:0:
357,260,174463,1,0,0:0:0:0:
382,294,174546,1,0,0:0:0:0:
418,316,174629,5,4,0:0:0:0:
248,320,174796,1,4,0:0:0:0:
336,280,174963,1,4,0:0:0:0:
176,248,175129,2,0,B|152:224|112:232|104:240|104:240|80:208|72:160|104:128,1,170,8|0,0:0|0:0,0:0:0:0:
152,80,175629,1,8,0:0:0:0:
304,72,175796,1,0,0:0:0:0:
376,88,175963,5,8,0:0:0:0:
242,33,176129,1,0,0:0:0:0:
187,167,176296,1,0,0:0:0:0:
321,221,176463,1,8,0:0:0:0:
435,133,176629,5,0,0:0:0:0:
346,18,176796,1,0,0:0:0:0:
231,107,176963,1,8,0:0:0:0:
321,221,177129,1,0,0:0:0:0:
463,201,177296,5,8,0:0:0:0:
444,57,177463,1,0,0:0:0:0:
300,77,177629,1,0,0:0:0:0:
321,221,177796,2,8,B|269:289|183:281|117:236|100:202,1,255,8|8,0:0|0:0,0:0:0:0:
88,160,178379,1,0,0:0:0:0:
88,112,178463,1,0,0:0:0:0:
104,72,178546,1,0,0:0:0:0:
128,32,178629,6,2,B|299:52,1,170
152,112,178963,2,0,B|318:156,1,170
120,184,179296,2,2,B|288:240,1,170
72,256,179629,2,0,B|240:296,1,170
64,352,179963,6,0,B|208:352|240:296|240:296|296:264|336:208|304:120,1,340,8|0,0:0|0:0,0:0:0:0:
304,360,180463,2,0,B|392:288|392:208|392:208|448:168|472:128|496:80,1,340,8|0,0:0|0:0,0:0:0:0:
408,88,180963,2,0,B|400:104|384:120|368:128|368:128|336:88|272:112|272:112|248:88,1,170,8|0,0:0|0:0,0:0:0:0:
256,312,181296,5,0,0:0:0:0:
376,191,181462,1,0,0:0:0:0:
255,71,181629,1,0,0:0:0:0:
135,192,181796,1,0,0:0:0:0:
256,312,181962,5,0,0:0:0:0:
376,191,182129,1,0,0:0:0:0:
255,71,182296,1,0,0:0:0:0:
135,192,182462,1,0,0:0:0:0:
256,312,182629,1,0,0:0:0:0:
376,191,182796,1,0,0:0:0:0:
255,71,182962,1,0,0:0:0:0:
135,192,183129,1,0,0:0:0:0:
176,296,183296,5,0,0:0:0:0:
215,281,183379,1,0,0:0:0:0:
242,249,183463,1,0,0:0:0:0:
231,210,183546,1,0,0:0:0:0:
192,196,183629,1,0,0:0:0:0:
120,240,183796,6,0,B|184:304|256:320|312:320|352:296,1,255.000009727478,8|0,0:0|0:0,0:0:0:0:
312,240,184296,1,8,0:0:0:0:
392,352,184463,1,0,0:0:0:0:
344,56,184629,2,8,B|394:131|400:208|385:259|352:296,1,255.000009727478
94,316,185296,5,4,0:0:0:0:
264,320,185463,1,4,0:0:0:0:
176,280,185629,1,4,0:0:0:0:
336,248,185796,2,0,B|360:224|400:232|408:240|408:240|432:208|440:160|408:128,1,170,8|0,0:0|0:0,0:0:0:0:
360,80,186296,1,8,0:0:0:0:
208,72,186463,1,0,0:0:0:0:
136,88,186629,5,8,0:0:0:0:
270,33,186796,1,0,0:0:0:0:
325,167,186963,1,0,0:0:0:0:
191,221,187129,1,8,0:0:0:0:
77,133,187296,5,0,0:0:0:0:
166,18,187463,1,0,0:0:0:0:
281,107,187629,1,8,0:0:0:0:
191,221,187796,1,0,0:0:0:0:
49,201,187963,5,8,0:0:0:0:
68,57,188129,1,0,0:0:0:0:
212,77,188296,1,0,0:0:0:0:
191,221,188463,2,8,B|243:289|329:281|395:236|412:202,1,255,8|8,0:0|0:0,0:0:0:0:
424,160,189046,1,0,0:0:0:0:
424,112,189129,1,0,0:0:0:0:
408,72,189213,1,0,0:0:0:0:
384,32,189296,6,2,B|212:52,1,170
360,112,189629,2,0,B|193:156,1,170
392,184,189963,2,2,B|224:240,1,170
440,256,190296,2,0,B|272:296,1,170
448,352,190629,6,0,B|304:352|272:296|272:296|216:264|176:208|208:120,1,340,8|0,0:0|0:0,0:0:0:0:
208,360,191129,2,0,B|120:288|120:208|120:208|64:168|40:128|16:80,1,340,8|0,0:0|0:0,0:0:0:0:
104,88,191629,2,0,B|112:104|128:120|144:128|144:128|176:88|240:112|240:112|264:88,1,170,8|0,0:0|0:0,0:0:0:0:
256,312,191962,5,0,0:0:0:0:
135,191,192129,1,0,0:0:0:0:
256,71,192296,1,0,0:0:0:0:
376,192,192462,1,0,0:0:0:0:
255,312,192629,5,0,0:0:0:0:
135,191,192796,1,0,0:0:0:0:
256,71,192962,1,0,0:0:0:0:
376,192,193129,1,0,0:0:0:0:
255,312,193296,5,0,0:0:0:0:
135,191,193462,1,0,0:0:0:0:
256,71,193629,1,0,0:0:0:0:
376,192,193796,1,0,0:0:0:0:
336,296,193963,5,0,0:0:0:0:
296,281,194046,1,0,0:0:0:0:
269,249,194129,1,0,0:0:0:0:
280,210,194213,1,0,0:0:0:0:
319,196,194296,1,0,0:0:0:0:
392,240,194463,6,0,B|328:304|256:320|200:320|160:296,1,255.000009727478,8|0,0:0|0:0,0:0:0:0:
200,240,194963,1,8,0:0:0:0:
120,352,195129,1,0,0:0:0:0:
168,56,195296,2,8,B|117:131|112:208|126:259|160:296,1,255.000009727478
400,160,195963,5,0,0:0:0:0:
168,56,196129,1,0,0:0:0:0:
200,240,196296,1,0,0:0:0:0:
256,192,196463,12,0,196963,0:0:0:0:
256,192,197296,12,0,198629,0:0:0:0:
208,296,209296,5,4,0:0:0:0:
58,214,209629,1,2,0:0:0:0:
164,81,209963,1,8,0:0:0:0:
328,124,210296,1,2,0:0:0:0:
338,251,210463,1,0,0:0:0:0:
351,291,210629,1,2,0:0:0:0:
226,319,210796,1,0,0:0:0:0:
183,314,210963,1,2,0:0:0:0:
99,165,211296,1,8,0:0:0:0:
242,74,211629,1,2,0:0:0:0:
282,63,211713,1,0,0:0:0:0:
326,60,211796,1,0,0:0:0:0:
366,73,211879,1,0,0:0:0:0:
403,95,211963,1,2,0:0:0:0:
245,159,212296,5,2,0:0:0:0:
345,295,212629,1,8,0:0:0:0:
499,223,212963,1,2,0:0:0:0:
398,170,213213,1,0,0:0:0:0:
346,147,213296,1,2,0:0:0:0:
248,204,213463,1,0,0:0:0:0:
205,241,213629,1,2,0:0:0:0:
215,71,213963,1,8,0:0:0:0:
74,166,214296,1,2,0:0:0:0:
208,296,214629,1,2,0:0:0:0:
351,204,214963,1,2,0:0:0:0:
208,296,215296,1,8,0:0:0:0:
135,142,215629,5,2,0:0:0:0:
238,95,215796,1,0,0:0:0:0:
294,91,215963,1,2,0:0:0:0:
404,118,216129,1,0,0:0:0:0:
400,174,216296,1,2,0:0:0:0:
235,217,216629,1,8,0:0:0:0:
77,281,216963,1,2,0:0:0:0:
101,112,217296,1,2,0:0:0:0:
267,78,217629,1,2,0:0:0:0:
413,163,217963,1,8,0:0:0:0:
327,310,218296,1,2,0:0:0:0:
104,56,220629,5,4,0:0:0:0:
376,128,220962,1,4,0:0:0:0:
128,240,221295,1,8,0:0:0:0:
48,264,221462,1,0,0:0:0:0:
80,344,221629,1,0,0:0:0:0:
160,312,221795,1,8,0:0:0:0:
328,280,222129,5,0,0:0:0:0:
328,112,222295,1,8,0:0:0:0:
152,112,222462,1,0,0:0:0:0:
152,280,222629,1,8,0:0:0:0:
152,264,222962,1,8,0:0:0:0:
152,248,223295,6,0,B|321:248,1,170,8|0,0:0|0:0,0:0:0:0:
376,88,223962,1,8,0:0:0:0:
304,48,224129,1,0,0:0:0:0:
264,120,224295,1,0,0:0:0:0:
336,160,224462,1,8,0:0:0:0:
72,136,224795,2,0,B|80:80|112:48,1,85,8|0,0:0|0:0,0:0:0:0:
184,24,225129,1,0,0:0:0:0:
280,32,225295,2,0,B|272:77,4,42.5
363,50,225795,1,0,0:0:0:0:
462,65,225962,5,4,0:0:0:0:
487,103,226045,1,0,0:0:0:0:
479,150,226129,1,0,0:0:0:0:
386,142,226295,1,0,0:0:0:0:
419,229,226462,1,8,0:0:0:0:
244,300,226795,5,0,0:0:0:0:
154,272,226962,1,8,0:0:0:0:
82,210,227129,1,0,0:0:0:0:
78,303,227295,5,8,0:0:0:0:
123,290,227379,1,0,0:0:0:0:
156,257,227462,1,0,0:0:0:0:
174,164,227629,1,8,0:0:0:0:
82,210,227795,2,0,B|110:291|253:300,1,170,8|0,0:0|0:0,0:0:0:0:
313,244,228295,1,0,0:0:0:0:
357,351,228462,1,8,0:0:0:0:
473,285,228629,5,8,0:0:0:0:
487,240,228712,1,0,0:0:0:0:
490,193,228795,1,0,0:0:0:0:
482,145,228879,1,0,0:0:0:0:
462,102,228962,1,0,0:0:0:0:
376,40,229129,2,8,P|264:64|256:192,1,255
256,192,229712,1,0,0:0:0:0:
256,192,229795,1,0,0:0:0:0:
256,192,229879,1,0,0:0:0:0:
256,192,229962,5,10,0:0:0:0:
114,248,230129,1,0,0:0:0:0:
57,107,230295,1,2,0:0:0:0:
198,49,230462,1,0,0:0:0:0:
256,192,230629,5,10,0:0:0:0:
107,222,230795,1,0,0:0:0:0:
75,73,230962,1,2,0:0:0:0:
224,43,231129,1,0,0:0:0:0:
256,192,231295,5,8,0:0:0:0:
103,196,231462,1,0,0:0:0:0:
98,44,231629,1,0,0:0:0:0:
250,39,231795,2,8,B|355:167|257:307,1,255
176,271,232462,1,0,0:0:0:0:
194,183,232629,6,0,B|291:183|291:280,1,127.5
291,306,232962,2,0,B|320:344|360:328,1,63.75,8|0,0:0|0:0,0:0:0:0:
361,368,233129,2,0,B|353:315|344:244|370:200|448:160,1,233.75,8|0,0:0|0:0,0:0:0:0:
450,174,233629,2,0,B|432:103|370:77,1,127.5,8|0,0:0|0:0,0:0:0:0:
326,41,233962,6,0,B|282:6,1,42.5,8|0,0:0|0:0,0:0:0:0:
264,41,234129,2,0,B|220:77,1,42.5
194,41,234295,2,0,B|150:6,1,42.5
123,41,234462,2,8,B|79:77|79:77|26:121|2:192|26:253|79:306|79:306|123:342,1,340,0|0,0:0|0:0,0:0:0:0:
158,342,235212,1,0,0:0:0:0:
194,342,235295,6,0,B|238:306,1,42.5
264,342,235462,2,0,B|308:377,1,42.5
335,342,235629,2,0,B|379:306,1,42.5,8|8,0:0|0:0,0:0:0:0:
406,342,235795,2,0,B|450:377,1,42.5
476,342,235962,2,8,B|503:342|503:342|529:315|529:209|503:183,1,170
423,139,236462,1,0,0:0:0:0:
308,41,236629,6,0,B|308:139,1,85,8|0,0:0|0:0,0:0:0:0:
203,41,236962,2,0,B|203:139,1,85,0|8,0:0|0:0,0:0:0:0:
61,94,237295,1,0,0:0:0:0:
17,218,237462,1,0,0:0:0:0:
44,297,237629,1,0,0:0:0:0:
123,324,237795,1,0,0:0:0:0:
203,342,237962,6,0,B|203:244,1,85,8|0,0:0|0:0,0:0:0:0:
308,342,238295,2,0,B|308:244,1,85,0|8,0:0|0:0,0:0:0:0:
256,174,238629,1,0,0:0:0:0:
256,68,238795,1,0,0:0:0:0:
256,121,238962,1,8,0:0:0:0:
256,15,239129,1,0,0:0:0:0:
158,68,239295,6,0,B|114:165,1,85,8|0,0:0|0:0,0:0:0:0:
353,68,239629,2,0,B|397:165,1,85,0|8,0:0|0:0,0:0:0:0:
256,315,239962,1,0,0:0:0:0:
256,68,240129,2,0,B|256:165,2,85
254,68,240629,1,2,0:0:0:0:
432,192,240962,1,0,0:0:0:0:
256,359,241295,1,2,0:0:0:0:
79,192,241629,1,0,0:0:0:0:
254,68,241962,6,0,B|326:139,1,85,8|0,0:0|0:0,0:0:0:0:
378,190,242295,2,0,B|308:262,1,85,0|8,0:0|0:0,0:0:0:0:
132,244,242629,1,0,0:0:0:0:
132,130,242795,1,0,0:0:0:0:
35,192,242962,1,8,0:0:0:0:
238,192,243129,1,0,0:0:0:0:
272,208,243295,5,8,0:0:0:0:
256,184,243462,1,0,0:0:0:0:
344,208,243629,1,0,0:0:0:0:
160,208,243795,1,8,0:0:0:0:
384,120,243962,1,0,0:0:0:0:
152,280,244129,1,0,0:0:0:0:
304,88,244295,1,8,0:0:0:0:
272,288,244462,1,0,0:0:0:0:
158,68,244629,6,0,B|114:165,1,85,8|0,0:0|0:0,0:0:0:0:
353,68,244962,2,0,B|397:165,1,85,0|8,0:0|0:0,0:0:0:0:
176,224,245295,1,0,0:0:0:0:
336,224,245462,1,0,0:0:0:0:
256,280,245629,1,0,0:0:0:0:
256,59,245795,6,0,B|256:350,1,255.000009727478
336,224,246295,1,0,0:0:0:0:
256,224,246379,1,0,0:0:0:0:
176,224,246462,1,0,0:0:0:0:
256,368,246629,2,0,B|256:86,1,255.000009727478
256,112,247045,1,0,0:0:0:0:
256,112,247129,1,0,0:0:0:0:
418,316,247295,5,4,0:0:0:0:
248,320,247462,1,4,0:0:0:0:
336,280,247629,1,4,0:0:0:0:
176,248,247795,2,0,B|152:224|112:232|104:240|104:240|80:208|72:160|104:128,1,170,8|0,0:0|0:0,0:0:0:0:
152,80,248295,1,8,0:0:0:0:
304,72,248462,1,0,0:0:0:0:
376,88,248629,5,8,0:0:0:0:
242,33,248795,1,0,0:0:0:0:
187,167,248962,1,0,0:0:0:0:
321,221,249129,1,8,0:0:0:0:
435,133,249295,5,0,0:0:0:0:
346,18,249462,1,0,0:0:0:0:
231,107,249629,1,8,0:0:0:0:
321,221,249795,1,0,0:0:0:0:
463,201,249962,5,8,0:0:0:0:
444,57,250129,1,0,0:0:0:0:
300,77,250295,1,0,0:0:0:0:
321,221,250462,2,8,B|269:289|183:281|117:236|100:202,1,255,8|8,0:0|0:0,0:0:0:0:
88,160,251045,1,0,0:0:0:0:
88,112,251129,1,0,0:0:0:0:
104,72,251212,1,0,0:0:0:0:
128,32,251295,6,2,B|299:52,1,170
152,112,251629,2,0,B|318:156,1,170
120,184,251962,2,2,B|288:240,1,170
72,256,252295,2,0,B|240:296,1,170
64,352,252629,6,0,B|208:352|240:296|240:296|296:264|336:208|304:120,1,340,8|0,0:0|0:0,0:0:0:0:
304,360,253129,2,0,B|392:288|392:208|392:208|448:168|472:128|496:80,1,340,8|0,0:0|0:0,0:0:0:0:
408,88,253629,2,0,B|400:104|384:120|368:128|368:128|336:88|272:112|272:112|248:88,1,170,8|0,0:0|0:0,0:0:0:0:
256,312,253962,5,0,0:0:0:0:
376,191,254128,1,0,0:0:0:0:
255,71,254295,1,0,0:0:0:0:
135,192,254462,1,0,0:0:0:0:
256,312,254628,5,0,0:0:0:0:
376,191,254795,1,0,0:0:0:0:
255,71,254962,1,0,0:0:0:0:
135,192,255128,1,0,0:0:0:0:
256,312,255295,1,0,0:0:0:0:
376,191,255462,1,0,0:0:0:0:
255,71,255628,1,0,0:0:0:0:
135,192,255795,1,0,0:0:0:0:
184,312,255962,5,0,0:0:0:0:
186,270,256045,1,0,0:0:0:0:
169,232,256129,1,0,0:0:0:0:
129,225,256212,1,0,0:0:0:0:
100,255,256295,1,0,0:0:0:0:
112,328,256462,6,0,B|218:394|321:393|397:376|443:331,1,340,8|0,0:0|0:0,0:0:0:0:
512,344,256962,1,8,0:0:0:0:
360,208,257129,1,0,0:0:0:0:
355,4,257295,2,8,B|446:89|478:192|474:266|440:326,1,340
94,316,257962,5,4,0:0:0:0:
264,320,258129,1,4,0:0:0:0:
176,280,258295,1,4,0:0:0:0:
336,248,258462,2,0,B|360:224|400:232|408:240|408:240|432:208|440:160|408:128,1,170,8|0,0:0|0:0,0:0:0:0:
360,80,258962,1,8,0:0:0:0:
208,72,259129,1,0,0:0:0:0:
136,88,259295,5,8,0:0:0:0:
270,33,259462,1,0,0:0:0:0:
325,167,259629,1,0,0:0:0:0:
191,221,259795,1,8,0:0:0:0:
77,133,259962,5,0,0:0:0:0:
166,18,260129,1,0,0:0:0:0:
281,107,260295,1,8,0:0:0:0:
191,221,260462,1,0,0:0:0:0:
49,201,260629,5,8,0:0:0:0:
68,57,260795,1,0,0:0:0:0:
212,77,260962,1,0,0:0:0:0:
191,221,261129,2,8,B|243:289|329:281|395:236|412:202,1,255,8|8,0:0|0:0,0:0:0:0:
424,160,261712,1,0,0:0:0:0:
424,112,261795,1,0,0:0:0:0:
408,72,261879,1,0,0:0:0:0:
384,32,261962,6,2,B|212:52,1,170
360,112,262295,2,0,B|193:156,1,170
392,184,262629,2,2,B|224:240,1,170
440,256,262962,2,0,B|272:296,1,170
448,352,263295,6,0,B|304:352|272:296|272:296|216:264|176:208|208:120,1,340,8|0,0:0|0:0,0:0:0:0:
208,360,263795,2,0,B|120:288|120:208|120:208|64:168|40:128|16:80,1,340,8|0,0:0|0:0,0:0:0:0:
104,88,264295,2,0,B|112:104|128:120|144:128|144:128|176:88|240:112|240:112|264:88,1,170,8|0,0:0|0:0,0:0:0:0:
256,312,264628,5,0,0:0:0:0:
135,191,264795,1,0,0:0:0:0:
256,71,264962,1,0,0:0:0:0:
376,192,265128,1,0,0:0:0:0:
255,312,265295,5,0,0:0:0:0:
135,191,265462,1,0,0:0:0:0:
256,71,265628,1,0,0:0:0:0:
376,192,265795,1,0,0:0:0:0:
255,312,265962,5,0,0:0:0:0:
135,191,266128,1,0,0:0:0:0:
256,71,266295,1,0,0:0:0:0:
376,192,266462,1,0,0:0:0:0:
328,312,266628,5,0,0:0:0:0:
326,270,266711,1,0,0:0:0:0:
343,232,266795,1,0,0:0:0:0:
383,225,266878,1,0,0:0:0:0:
412,255,266961,1,0,0:0:0:0:
400,328,267128,6,0,B|293:394|190:393|114:376|68:331,1,340,8|0,0:0|0:0,0:0:0:0:
0,344,267628,1,8,0:0:0:0:
152,208,267795,1,0,0:0:0:0:
157,4,267961,2,8,B|65:89|33:192|37:266|71:326,1,340
400,160,268629,5,0,0:0:0:0:
168,56,268795,1,0,0:0:0:0:
200,240,268962,1,0,0:0:0:0:
256,192,269129,12,0,269629,0:0:0:0:
256,192,269962,12,0,271295,0:0:0:0:
136,256,271629,1,4,0:0:0:0:
384,144,271962,1,8,0:0:0:0:
464,120,272129,1,0,0:0:0:0:
432,40,272295,1,0,0:0:0:0:
352,72,272462,1,8,0:0:0:0:
184,104,272795,5,0,0:0:0:0:
184,272,272962,1,8,0:0:0:0:
360,272,273129,1,0,0:0:0:0:
360,104,273295,1,8,0:0:0:0:
360,120,273629,1,8,0:0:0:0:
360,136,273962,6,0,B|187:135,1,170,8|0,0:0|0:0,0:0:0:0:
136,296,274629,1,8,0:0:0:0:
208,336,274795,1,0,0:0:0:0:
248,264,274962,1,0,0:0:0:0:
176,224,275129,1,8,0:0:0:0:
440,248,275462,2,0,B|432:304|400:336,1,85,8|0,0:0|0:0,0:0:0:0:
328,360,275795,1,0,0:0:0:0:
256,312,275962,1,8,0:0:0:0:
72,192,276295,1,0,0:0:0:0:
256,72,276628,1,4,0:0:0:0:
256,192,276670,12,0,277962,0:0:0:0:
104,56,282295,5,4,0:0:0:0:
376,128,282628,1,4,0:0:0:0:
128,240,282961,1,8,0:0:0:0:
48,264,283128,1,0,0:0:0:0:
80,344,283294,1,0,0:0:0:0:
160,312,283461,1,8,0:0:0:0:
328,280,283794,5,0,0:0:0:0:
328,112,283961,1,8,0:0:0:0:
152,112,284128,1,0,0:0:0:0:
152,280,284294,1,8,0:0:0:0:
152,280,284628,1,0,0:0:0:0:
