osu file format v9

[General]
AudioFilename: Higashi no Kuni no Waltz.MP3
AudioLeadIn: 0
PreviewTime: 158976
Countdown: 0
SampleSet: Soft
StackLeniency: 0.4
Mode: 0
LetterboxInBreaks: 1

[Editor]
DistanceSpacing: 0.7
BeatDivisor: 4
GridSize: 4

[Metadata]
Title:Higashi no Kuni no Waltz
Artist:Comp
Creator:Shinde
Version:Hard
Source:Touhou
Tags:Ranko Paprika Necrofantasia ZUN Buta-Otome Gensou Homo Ludens Shinxyn

[Difficulty]
HPDrainRate:5
CircleSize:4
OverallDifficulty:7
ApproachRate:7
SliderMultiplier:1.2
SliderTickRate:1

[Events]
//Background and Video events
0,0,"BG.jpg"
//Break Periods
2,87539,103894
//Storyboard Layer 0 (Background)
//Storyboard Layer 1 (Fail)
//Storyboard Layer 2 (Pass)
//Storyboard Layer 3 (Foreground)
//Storyboard Sound Samples
//Background Colour Transformations
3,100,0,0,0

[TimingPoints]
15340,363.636363636364,3,2,1,20,1,0
26067,-100,3,2,1,15,0,0
26430,-100,3,2,1,20,0,0
32794,-100,3,2,1,30,0,0
36976,-100,3,2,1,20,0,0
37339,-100,3,2,1,30,0,0
39158,-100,3,2,1,20,0,0
39521,-100,3,2,1,30,0,0
52430,-80,3,2,1,50,0,1
53339,-80,3,2,1,35,0,1
53703,-80,3,2,1,50,0,1
54430,-80,3,2,1,35,0,1
54794,-80,3,2,1,50,0,1
57703,-80,3,2,1,30,0,1
58067,-80,3,2,1,50,0,1
59885,-80,3,2,1,30,0,1
60249,-80,3,2,1,50,0,1
64249,-80,3,2,1,35,0,1
64612,-80,3,2,1,50,0,1
67703,-86.9565217391304,3,2,1,50,0,1
68612,-80,3,2,1,50,0,1
69794,-80,3,2,1,40,0,1
70067,-80,3,2,1,50,0,1
71885,-80,3,2,1,35,0,1
72249,-80,3,2,1,50,0,1
74067,-80,3,2,1,35,0,1
74430,-80,3,2,1,50,0,1
76249,-80,3,2,1,35,0,1
76612,-80,3,2,1,50,0,1
82976,-100,3,2,1,50,0,0
87339,-100,3,2,1,20,0,0
115521,-100,3,2,1,15,0,0
115885,-100,3,2,1,20,0,0
122249,-100,3,2,1,30,0,0
126430,-100,3,2,1,20,0,0
126794,-100,3,2,1,30,0,0
128612,-100,3,2,1,20,0,0
128976,-100,3,2,1,30,0,0
134067,-100,3,2,1,20,0,0
134430,-100,3,2,1,30,0,0
141885,-100,3,2,1,20,0,0
142430,-100,3,2,1,10,0,0
142794,-100,3,2,1,20,0,0
143521,-100,3,2,1,10,0,0
143885,-100,3,2,1,20,0,0
144612,-100,3,2,1,10,0,0
144976,-100,3,2,1,20,0,0
145703,-100,3,2,1,10,0,0
146067,-100,3,2,1,20,0,0
151158,-100,3,2,1,10,0,0
151521,-100,3,2,1,20,0,0
152249,-100,3,2,1,10,0,0
152612,-100,3,2,1,20,0,0
153339,-100,3,2,1,10,0,0
153703,-100,3,2,1,20,0,0
154430,-100,3,2,1,10,0,0
154794,-100,3,2,1,20,0,0
160339,-100,3,2,1,10,0,0
160612,-100,3,2,1,20,0,0
161521,-80,3,2,1,50,0,1
162430,-80,3,2,1,35,0,1
162794,-80,3,2,1,50,0,1
163521,-80,3,2,1,35,0,1
163885,-80,3,2,1,50,0,1
166794,-80,3,2,1,35,0,1
167158,-80,3,2,1,50,0,1
168976,-80,3,2,1,35,0,1
169339,-80,3,2,1,50,0,1
173339,-80,3,2,1,35,0,1
173703,-80,3,2,1,50,0,1
178885,-80,3,2,1,35,0,1
179158,-80,3,2,1,50,0,1
180976,-80,3,2,1,35,0,1
181339,-80,3,2,1,50,0,1
183158,-80,3,2,1,35,0,1
183521,-80,3,2,1,50,0,1
185339,-80,3,2,1,35,0,1
185703,-80,3,2,1,50,0,1
192067,-100,3,2,1,50,0,0
196440,363.636363636364,3,2,1,20,1,0
196440,-142.857142857143,3,2,1,20,0,0
207349,392.156862745098,3,2,1,20,1,0
207741,454.545454545455,3,2,1,20,1,0
208195,517.241379310345,3,2,1,20,1,0
208712,588.235294117647,3,2,1,20,1,0
209300,689.655172413793,3,2,1,20,1,0
209989,1052.63157894737,3,2,1,20,1,0
215252,-100,3,2,1,0,0,0

[Colours]
Combo1 : 163,186,248
Combo2 : 15,106,244
Combo3 : 3,3,126

[HitObjects]
68,64,15340,2,0,B|20:152|48:240,1,180,0|2
72,304,16067,1,0
364,364,16430,2,0,B|456:316|456:216,1,180,0|2
332,240,17158,1,0
244,164,17521,2,0,B|232:97|276:52,1,120
336,16,18067,1,2
336,88,18249,1,0
124,280,18612,2,0,B|132:348|188:376,2,120
180,80,19703,6,0,B|96:80|96:36|8:36,1,180,0|2
32,136,20430,1,0
168,272,20794,2,0,B|252:272|252:316|340:316,1,180,0|2
316,216,21521,1,0
112,184,21885,2,0,B|26:239|52:344,1,180,0|2
168,296,22612,1,0
404,356,22976,5,0
488,196,23340,1,0
308,212,23703,1,0
380,48,24067,6,0,B|352:136|408:220,1,180,0|2
456,272,24794,1,0
248,288,25158,2,0,B|160:296|180:236|76:248,1,180,0|2
8,260,25885,1,0
56,52,26249,2,0,B|48:120|108:156,1,120,4|0
156,68,26794,1,0
236,128,26976,1,0
336,28,27340,5,2
424,64,27703,1,0
348,124,28067,1,0
416,260,28430,6,0,B|392:352|280:368,1,180,0|2
220,332,29158,1,0
32,232,29521,2,0,B|44:172|104:140,1,120
240,88,30249,1,0
106,33,30612,2,0,B|78:133|138:205,1,180
188,252,31340,1,0
332,228,31703,5,2
328,360,32067,1,0
452,288,32430,1,0
360,140,32794,6,0,B|292:120|292:52,2,120
256,240,33885,2,0,B|256:304|196:336,2,120,2|0|0
152,140,34976,2,0,B|88:140|56:200,2,120
256,40,36067,2,0,B|256:128|312:128|312:208,1,180,2|0
312,280,36794,1,0
188,352,37158,6,0,B|108:344|84:292|84:292|110:238|85:182,1,240,4|0
292,144,38249,2,0,B|312:192|284:231|284:231|256:224|228:231|228:231|200:192|220:144,1,240
427,181,39340,2,0,B|402:238|428:292|428:292|404:344|324:352,1,240,4|0
256,224,40430,1,2
104,112,41521,6,0,B|152:28|256:8|359:28|407:112,1,360
224,336,43339,1,0
356,280,43703,2,0,B|324:224|255:211|186:224|154:280,1,240,2|0
288,336,44794,1,0
400,104,45885,5,0
120,32,46612,2,0,B|85:88|120:144,1,120,0|2
224,248,47339,1,0
337,158,47703,2,0,B|281:123|225:158,1,120,0|2
120,256,48430,5,0
220,320,48794,1,0
204,176,49158,1,2
344,272,49521,1,0
288,88,49885,1,0
460,216,50249,1,4
108,96,52430,6,0,B|108:37|108:37|37:37|-5:111|37:186|108:186,1,299.999995529652,0|0
212,76,53521,1,4
300,308,54249,1,0
404,197,54612,2,0,B|474:197|517:272|474:346|404:346|404:346|404:286,1,299.999995529652,4|0
404,116,55703,6,0,B|404:40,1,74.9999988824129,2|0
300,148,56249,2,0,B|300:224,1,74.9999988824129,0|2
204,72,56794,6,0,B|56:72,2,149.999997764826,0|0|0
87,269,57885,2,0,B|12:140,2,149.999997764826,4|0|0
256,112,58976,2,0,B|316:165|300:248,1,149.999997764826,2|0
168,216,59703,1,0
256,112,60067,2,0,B|331:86|395:141,1,149.999997764826,4|0
302,240,60794,1,0
184,328,61158,6,0,B|108:340|48:280|48:280|20:208|64:132,1,299.999995529652,0|2
176,36,62249,2,0,B|204:104|174:182|174:182|251:153|324:184,1,299.999995529652,0|2
484,248,63339,2,0,B|528:184|500:104,1,149.999997764826
352,164,64067,1,0
440,48,64430,1,4
264,280,65158,1,0
196,148,65521,2,0,B|153:212|180:291,2,149.999997764826,2|0|0
364,40,66612,5,2
392,54,66794,1,0
407,82,66976,1,0
407,113,67158,1,0
392,139,67339,1,0
366,156,67521,1,0
288,180,67703,6,0,B|288:112,1,69.0000022619963,2|0
248,152,68067,2,0,B|248:220,1,69.0000022619963
208,180,68430,2,0,B|208:112,1,69.0000022619963
132,152,68794,5,2
104,166,68976,1,0
89,194,69158,1,0
89,225,69339,1,0
104,251,69521,1,0
130,268,69703,1,0
158,276,69885,5,4
364,60,70612,1,0
476,156,70976,2,0,B|436:228|348:220,1,149.999997764826,2|0
232,132,71703,1,0
268,280,72067,1,4
124,240,72430,5,0
36,84,72794,1,0
20,264,73158,2,0,B|1:163|93:103|179:123|216:188,1,299.999995529652,2|0
300,308,74249,6,0,B|357:367|437:339,2,149.999997764826,4|0|0
371,211,75339,2,0,B|449:233|505:169,2,149.999997764826
316,104,76430,2,0,B|395:84|411:0,2,149.999997764826,4|0|0
316,104,77521,1,2
88,56,78249,5,0
24,192,78612,2,0,B|80:144|152:144|136:192,1,149.999997764826,0|2
100,260,79158,1,0
60,324,79339,2,0,B|43:372|115:372|171:324,1,149.999997764826,0|2
424,328,80430,5,0
488,192,80794,2,0,B|432:240|360:240|376:192,1,149.999997764826,0|2
412,124,81339,1,0
452,60,81521,2,0,B|468:11|396:11|340:59,1,149.999997764826,0|2
256,192,82612,5,0
256,192,82976,12,0,87339
96,32,104794,6,0,B|96:212,1,180,0|2
96,284,105521,1,0
416,352,105885,2,0,B|416:172,1,180,0|2
416,100,106612,1,0
168,40,106976,6,0,B|102:52|80:120,1,120
184,144,107521,1,2
184,144,107703,1,0
168,336,108067,2,0,B|100:328|72:272,2,120
348,340,109158,6,0,B|496:336|380:240,1,180,0|2
304,264,109885,1,0
136,196,110249,2,0,B|65:65|206:118,1,180,0|2
223,196,110976,1,0
396,152,111339,2,0,B|392:4|296:120,1,180,0|2
320,196,112067,1,0
140,356,112430,5,0
36,208,112794,1,0
204,276,113158,1,0
104,128,113521,6,0,B|166:59|266:66,1,180,0|2
335,81,114249,1,0
226,215,114612,2,0,B|245:124|335:80,1,180,0|2
402,58,115339,1,0
456,216,115703,2,0,B|472:280|416:324,1,120,4|0
352,292,116249,1,0
312,352,116430,1,0
168,332,116794,5,2
87,281,117158,1,0
172,235,117521,1,0
68,136,117885,6,0,B|110:43|212:48,1,180,0|2
184,160,118612,1,0
268,276,118976,1,0
400,220,119339,1,0
308,108,119703,1,0
430,51,120067,2,0,B|458:151|398:223,1,180,0|2
348,270,120794,1,0
212,216,121158,5,0
128,372,121521,1,0
40,216,121885,1,0
72,76,122249,6,0,B|192:76,1,120
332,36,122976,1,0
292,176,123339,2,0,B|292:296,2,120,2|0|0
192,76,124430,1,0
48,60,124794,2,0,B|32:128|80:172,1,120
204,316,125521,2,0,B|220:248|172:204,1,120,2|0
60,296,126249,1,0
204,316,126612,6,0,B|264:340|316:320|316:320|312:248|364:200,1,240,4|0
408,68,127703,2,0,B|368:118|313:127|313:127|280:63|211:47,1,240
76,24,128794,2,0,B|126:63|135:118|135:118|70:151|57:212,1,240,4|0
200,244,129885,1,0
468,92,130976,6,0,B|523:123|537:193|523:261|468:293,1,240
320,192,132067,1,2
108,328,132794,5,0
44,293,133158,2,0,B|-11:261|-25:193|-11:123|44:92,1,240,2|0
192,192,134249,1,4
404,48,135339,6,0,B|472:148,2,120
264,20,136430,1,2
304,160,136794,1,0
404,48,137158,1,0
264,20,137521,5,2
148,52,137885,1,0
32,136,138249,1,0
200,136,138612,1,2
32,228,138976,1,0
248,228,139339,1,0
32,324,139703,1,4
384,64,141885,6,0,B|380:130|439:160,2,120,0|2|2
176,36,142976,2,0,B|109:32|79:91,2,120,0|2|2
172,248,144067,2,0,B|238:251|268:192,2,120,0|2|2
380,212,145158,2,0,B|410:271|476:267,2,120,0|2|2
316,84,146249,6,0,B|283:27|215:14|146:27|114:83,1,240,0|2
112,300,147339,2,0,B|144:356|212:369|281:356|313:300,1,240,0|2
216,192,148430,1,0
432,44,149158,5,0
292,80,149521,1,0
152,44,149885,1,0
64,284,150612,6,0,B|184:284,1,120,0|2
328,284,151339,1,2
128,196,151703,2,0,B|248:196,1,120,0|2
392,196,152430,1,2
264,20,152794,6,0,B|264:140,1,120,0|2
264,284,153521,1,2
176,84,153885,2,0,B|176:204,1,120,0|2
176,348,154612,1,2
48,280,154976,6,0,B|8:220|32:166|32:166|98:181|143:129,1,240,0|2
236,24,156067,1,0
240,168,156430,1,0
328,52,156794,1,0
256,192,157158,12,0,158976
88,152,159339,5,2
73,178,159521,1,0
65,207,159703,1,0
66,237,159885,1,0
74,265,160067,1,0
88,291,160249,1,0
112,307,160430,1,2
408,36,161521,6,0,B|470:36|508:65|508:65|487:107|508:148|508:148|470:178|408:178,1,299.999995529652
276,105,162612,1,4
276,104,163339,1,0
204,236,163703,2,0,B|204:298|233:336|233:336|275:315|316:336|316:336|346:298|346:236,1,299.999995529652,4|0
276,104,164794,6,0,B|352:104,1,74.9999988824129,2|0
244,208,165339,2,0,B|168:208,1,74.9999988824129,0|2
20,208,165885,6,0,B|20:60,2,149.999997764826,0|0|0
170,292,166976,2,0,B|20:292,2,149.999997764826,4|0|0
344,336,168067,2,0,B|404:283|388:200,1,149.999997764826,2|0
240,232,168794,1,0
204,84,169158,2,0,B|125:99|97:179,1,149.999997764826,4|0
240,232,169885,1,0
356,324,170249,6,0,B|439:324|439:240|391:199|340:212|340:269|381:314|455:307|452:215,1,299.999995529652,0|2
432,84,171339,2,0,B|368:28|268:32|264:124|144:96,1,299.999995529652,0|2
48,188,172430,2,0,B|4:124|32:44,1,149.999997764826
152,108,173158,1,0
168,240,173521,1,4
360,48,174249,1,0
252,128,174612,2,0,B|300:188|384:188,2,149.999997764826,2|0|0
132,40,175703,6,0,B|64:76,1,74.9999988824129,2|0
140,76,176067,2,0,B|79:123,1,74.9999988824129
156,112,176430,2,0,B|104:169,1,74.9999988824129
188,200,176794,6,0,B|240:143,1,74.9999988824129,2|0
221,217,177158,2,0,B|282:170,1,74.9999988824129
252,242,177521,2,0,B|320:206,1,74.9999988824129
312,312,177885,5,2
336,329,178067,1,0
364,338,178249,1,0
393,339,178430,1,0
422,331,178612,1,0
447,314,178794,1,0
466,290,178976,6,0,B|500:213|457:148,1,149.999997764826,4|0
376,40,179703,1,0
264,116,180067,2,0,B|304:188|392:180,1,149.999997764826,2|0
376,40,180794,1,0
264,116,181158,1,4
152,40,181521,5,0
40,116,181885,1,0
48,252,182249,2,0,B|170:247|225:124|152:40,1,299.999995529652,2|0
259,143,183339,6,0,B|254:229|192:274,2,149.999997764826,4|0|0
128,72,184430,2,0,B|67:115|62:201,2,149.999997764826
256,32,185521,1,4
388,68,185885,1,0
400,204,186249,1,0
276,152,186612,1,2
88,56,187339,5,0
24,192,187703,2,0,B|80:144|152:144|136:192,1,149.999997764826,0|2
100,260,188249,1,0
60,324,188430,2,0,B|43:372|115:372|171:324,1,149.999997764826,0|2
424,328,189521,5,0
488,192,189885,2,0,B|432:240|360:240|376:192,1,149.999997764826,0|2
412,124,190430,1,0
452,60,190612,2,0,B|468:11|396:11|340:59,1,149.999997764826,0|2
256,192,191703,5,0
256,192,192067,12,0,195339
76,48,196440,6,0,B|16:121|60:204,1,167.999995994568
116,268,197530,1,0
196,120,198258,1,0
251,183,198621,2,0,B|295:266|235:339,1,167.999995994568
152,328,199712,5,2
80,288,200076,1,0
52,208,200439,1,0
64,124,200803,5,0
204,28,201530,2,0,B|204:112,1,83.999997997284
368,148,202621,2,0,B|368:64,1,83.999997997284
368,232,203712,1,2
368,316,204076,1,0
204,276,204803,1,0
144,336,205167,6,0,B|105:282|123:214|184:196,1,167.999995994568
260,168,206258,2,0,B|306:159|316:104,2,83.999997997284
180,148,207349,1,2
28,36,208195,2,0,B|-4:88|28:152,1,120
172,292,209903,1,0
256,192,211304,12,0,215252
