osu file format v9

[General]
AudioFilename: Higashi no Kuni no Waltz.MP3
AudioLeadIn: 0
PreviewTime: 158976
Countdown: 0
SampleSet: Soft
StackLeniency: 0.6
Mode: 0
LetterboxInBreaks: 1

[Editor]
DistanceSpacing: 1.2
BeatDivisor: 1
GridSize: 4

[Metadata]
Title:Higashi no Kuni no Waltz
Artist:Comp
Creator:Shinde
Version:Easy
Source:Touhou
Tags:Ranko Paprika Necrofantasia ZUN Buta-Otome Gensou Homo Ludens Shinxyn

[Difficulty]
HPDrainRate:1
CircleSize:3
OverallDifficulty:2
ApproachRate:2
SliderMultiplier:0.8
SliderTickRate:1

[Events]
//Background and Video events
0,0,"BG.jpg"
//Break Periods
2,87540,103234
//Storyboard Layer 0 (Background)
//Storyboard Layer 1 (Fail)
//Storyboard Layer 2 (Pass)
//Storyboard Layer 3 (Foreground)
//Storyboard Sound Samples
//Background Colour Transformations
3,100,0,0,0

[TimingPoints]
15340,363.636363636364,3,2,1,20,1,0
26067,-100,3,2,1,15,0,0
26430,-100,3,2,1,20,0,0
32794,-100,3,2,1,30,0,0
36976,-100,3,2,1,20,0,0
37339,-100,3,2,1,30,0,0
39158,-100,3,2,1,20,0,0
39521,-100,3,2,1,30,0,0
52430,-100,3,2,1,50,0,1
53339,-100,3,2,1,35,0,1
53703,-100,3,2,1,50,0,1
54430,-100,3,2,1,35,0,1
54794,-100,3,2,1,50,0,1
57703,-100,3,2,1,30,0,1
58067,-100,3,2,1,50,0,1
59885,-100,3,2,1,30,0,1
60249,-100,3,2,1,50,0,1
64249,-100,3,2,1,35,0,1
64612,-100,3,2,1,50,0,1
67703,-100,3,2,1,50,0,1
68612,-100,3,2,1,50,0,1
69794,-100,3,2,1,40,0,1
70067,-100,3,2,1,50,0,1
71885,-100,3,2,1,35,0,1
72249,-100,3,2,1,50,0,1
74067,-100,3,2,1,35,0,1
74430,-100,3,2,1,50,0,1
76249,-100,3,2,1,35,0,1
76612,-100,3,2,1,50,0,1
82976,-100,3,2,1,50,0,0
87339,-100,3,2,1,20,0,0
115521,-100,3,2,1,15,0,0
115885,-100,3,2,1,20,0,0
122249,-100,3,2,1,30,0,0
126430,-100,3,2,1,20,0,0
126794,-100,3,2,1,30,0,0
128612,-100,3,2,1,20,0,0
128976,-100,3,2,1,30,0,0
134067,-100,3,2,1,20,0,0
134430,-100,3,2,1,30,0,0
141885,-100,3,2,1,20,0,0
142430,-100,3,2,1,10,0,0
142794,-100,3,2,1,20,0,0
143521,-100,3,2,1,10,0,0
143885,-100,3,2,1,20,0,0
144612,-100,3,2,1,10,0,0
144976,-100,3,2,1,20,0,0
145703,-100,3,2,1,10,0,0
146067,-100,3,2,1,20,0,0
151158,-100,3,2,1,10,0,0
151521,-100,3,2,1,20,0,0
152249,-100,3,2,1,10,0,0
152612,-100,3,2,1,20,0,0
153339,-100,3,2,1,10,0,0
153703,-100,3,2,1,20,0,0
154430,-100,3,2,1,10,0,0
154794,-100,3,2,1,20,0,0
161521,-100,3,2,1,50,0,1
162430,-100,3,2,1,35,0,1
162794,-100,3,2,1,50,0,1
163521,-100,3,2,1,35,0,1
163885,-100,3,2,1,50,0,1
166794,-100,3,2,1,35,0,1
167158,-100,3,2,1,50,0,1
168976,-100,3,2,1,35,0,1
169339,-100,3,2,1,50,0,1
173339,-100,3,2,1,35,0,1
173703,-100,3,2,1,50,0,1
178885,-100,3,2,1,35,0,1
179158,-100,3,2,1,50,0,1
180976,-100,3,2,1,35,0,1
181339,-100,3,2,1,50,0,1
183158,-100,3,2,1,35,0,1
183521,-100,3,2,1,50,0,1
185339,-100,3,2,1,35,0,1
185703,-100,3,2,1,50,0,1
192067,-100,3,2,1,50,0,0
196440,363.636363636364,3,2,1,20,1,0
196440,-142.857142857143,3,2,1,20,0,0
207349,392.156862745098,3,2,1,20,1,0
207741,454.545454545455,3,2,1,20,1,0
208195,517.241379310345,3,2,1,20,1,0
208712,588.235294117647,3,2,1,20,1,0
209300,689.655172413793,3,2,1,20,1,0
209989,1052.63157894737,3,2,1,20,1,0
215252,-100,3,2,1,0,0,0

[Colours]
Combo1 : 163,186,248
Combo2 : 15,106,244
Combo3 : 3,3,126

[HitObjects]
440,44,15340,2,0,B|440:204,1,160,0|2
364,264,16430,2,0,B|364:104,1,160,0|2
308,48,17521,1,0
152,84,18249,1,2
128,160,18612,1,0
360,356,19703,6,0,B|320:280|360:200,1,160,0|2
452,220,20794,1,0
452,220,21521,1,2
448,124,21885,2,0,B|372:164|292:124,1,160,0|2
228,80,22976,1,0
20,292,24067,6,0,B|84:260|108:320|176:284,1,160,0|2
244,244,25158,2,0,B|304:184|280:96,1,160,0|2
192,152,26249,1,4
64,296,26976,2,0,B|24:272|24:228,1,80,0|2
436,336,28430,5,0
464,180,29158,1,2
448,100,29521,1,0
300,36,30249,1,2
284,116,30612,1,0
108,280,31703,6,0,B|80:248|80:204,2,80,2|0|0
176,324,32794,6,0,B|248:368|328:324,1,160
256,260,33885,2,0,B|330:219|332:128,1,160,2|0
240,160,34976,2,0,B|242:75|163:28,1,160
144,124,36067,1,2
460,88,37158,6,0,B|428:164|460:244,1,160,4|0
420,312,38249,1,0
228,288,38976,1,0
168,340,39339,2,0,B|76:324|64:236,1,160,4|0
60,156,40430,1,2
334,36,41521,6,0,B|400:135|346:222|255:259|164:222|110:135|176:36,1,480,0|2
256,112,44430,1,0
256,112,44794,1,0
16,244,45885,6,0,B|28:331|124:348,1,160
116,248,46976,1,2
396,248,47703,5,0
496,243,48067,2,0,B|483:331|391:348,1,160,2|0
312,344,49158,1,2
160,228,49885,1,0
160,228,50249,1,4
88,40,52430,6,0,B|20:88|32:180,1,160
116,132,53521,1,4
404,128,54612,1,4
452,44,54976,5,0
500,128,55339,1,0
452,212,55703,1,2
280,128,56430,1,0
232,212,56794,6,0,B|96:180|96:32,1,240,0|4
288,36,58612,1,0
288,132,58976,1,2
404,284,59703,1,0
404,284,60067,2,0,B|252:336,1,160,4|0
160,368,61158,5,0
44,216,61885,1,2
76,124,62249,2,0,B|228:60,1,160,0|2
308,20,63339,1,0
456,240,64430,6,0,B|377:194|400:104,1,160,4|0
484,152,65521,1,2
320,344,66612,5,2
228,320,66976,1,0
224,224,67340,1,0
140,272,67703,1,2
64,212,68067,1,0
36,120,68430,1,0
84,44,68794,2,0,B|180:36|232:88,1,160,2|0
304,152,69885,5,4
416,308,70612,1,0
488,244,70976,2,0,B|520:156|484:88,1,160,2|0
428,12,72067,1,4
84,52,73158,6,0,B|56:80|48:123|48:123|72:156|116:160,1,160,2|0
172,84,74249,5,4
152,276,74976,1,0
152,276,75340,1,2
320,184,76067,1,0
320,184,76430,1,4
436,336,77158,1,0
436,336,77521,2,0,B|488:276|460:180,1,160,2|0
428,96,78612,5,0
236,120,79340,1,0
212,28,79703,2,0,B|160:38|124:104|152:160,1,160,2|0
236,120,80794,1,0
236,120,81521,1,0
263,212,81885,2,0,B|315:202|351:136|323:80,1,160,2|0
256,192,82976,12,0,87340
120,44,104794,5,0
344,136,105885,2,0,B|432:52|516:52|528:108|492:140,1,240,0|2
372,248,107703,1,0
316,304,108067,2,0,B|228:388|144:388|132:332|168:300,1,240,2|0
236,156,109885,5,0
172,108,110249,2,0,B|100:48,2,80,2|0|0
160,188,111340,1,2
360,320,112430,5,2
436,260,112794,1,0
348,224,113158,1,0
348,224,113521,6,0,B|280:168|304:80,1,160,0|2
228,52,114612,2,0,B|192:136|100:140,1,160,0|2
24,140,115703,1,4
76,292,116430,1,0
148,332,116794,1,2
444,104,117885,6,0,B|404:188|452:256,1,160,0|2
496,320,118976,1,0
496,320,119340,1,0
416,328,119703,1,0
416,328,120067,1,0
212,72,121158,5,2
288,100,121521,1,0
316,176,121885,1,0
320,256,122249,6,0,B|251:307|168:288,1,160
93,260,123340,1,2
299,59,124430,2,0,B|378:22|458:37|414:75,1,160
360,131,125521,1,2
136,72,126249,5,0
60,44,126612,2,0,B|8:160|56:196,1,160,4|0
128,228,127703,1,2
340,344,128794,2,0,B|424:312|416:216,1,160,4|0
409,138,129885,1,2
108,320,130976,5,0
156,168,131703,1,0
132,244,132067,1,2
328,44,133158,6,0,B|423:52|432:144,1,160,0|2
344,132,134249,1,4
456,328,135340,6,0,B|376:352|380:296|300:320,1,160,0|2
222,335,136430,1,0
222,254,136794,1,0
154,210,137158,1,0
80,242,137521,1,2
92,84,138249,1,0
160,40,138612,2,0,B|244:32|233:77|320:72,1,160,2|0
392,56,139703,1,4
88,336,141885,6,0,B|60:304|72:256,2,80,0|2|0
168,320,142976,2,0,B|212:308|248:340,2,80,0|2|0
180,236,144067,2,0,B|160:200|176:160,2,80,0|2|0
260,248,145158,2,0,B|308:236|340:260,2,80,0|2|0
256,168,146249,6,0,B|303:83|401:120|444:26,1,240,0|2
284,32,148067,1,0
284,32,148430,1,0
424,48,150612,6,0,B|452:80|440:128,2,80,0|2|0
344,64,151703,2,0,B|300:76|264:44,2,80,0|2|0
326,145,152794,2,0,B|346:181|330:221,2,80,0|2|0
246,133,153885,2,0,B|198:145|166:121,2,80,0|2|0
250,213,154976,5,0
110,133,155703,1,0
58,73,156067,2,0,B|6:137|54:225,1,160,2|0
256,192,157158,12,0,159340
424,40,161521,6,0,B|492:88|480:180,1,160,2|0
396,132,162612,1,4
108,128,163703,1,4
60,44,164067,5,0
12,128,164430,1,0
60,212,164794,1,2
232,128,165521,1,0
280,212,165885,6,0,B|416:180|416:32,1,240,2|4
224,36,167703,1,0
224,132,168067,1,2
108,284,168794,1,0
108,284,169158,2,0,B|260:336,1,160,4|0
352,368,170249,5,2
468,216,170976,1,0
436,124,171340,2,0,B|284:60,1,160,0|0
204,20,172430,1,2
56,240,173521,6,0,B|135:194|112:104,1,160,4|0
28,152,174612,1,2
192,344,175703,5,2
284,320,176067,1,0
288,224,176431,1,0
372,272,176794,1,2
448,212,177158,1,0
476,120,177521,1,0
428,44,177885,2,0,B|332:36|280:88,1,160,2|0
208,152,178976,5,4
96,308,179703,1,0
24,244,180067,2,0,B|-8:156|28:88,1,160,2|0
84,12,181158,1,4
428,52,182249,6,0,B|456:80|464:123|464:123|440:156|396:160,1,160,2|0
340,84,183340,5,4
360,276,184067,1,0
360,276,184431,1,2
192,184,185158,1,0
192,184,185521,1,4
76,336,186249,1,0
76,336,186612,2,0,B|24:276|52:180,1,160,2|0
84,96,187703,5,2
276,120,188431,1,0
300,28,188794,2,0,B|352:38|388:104|360:160,1,160
276,120,189885,1,2
276,120,190612,1,0
249,212,190976,2,0,B|197:202|161:136|189:80,1,160
256,192,192067,12,0,194249
404,44,196440,6,0,B|436:100|408:152,1,111.999997329712
376,196,197530,1,0
288,128,198258,1,0
252,84,198621,2,0,B|180:52|152:104|84:76,1,167.999995994568,0|2
72,304,200803,6,0,B|176:252,1,111.999997329712
220,228,201894,1,0
344,340,202985,2,0,B|448:328|468:232,1,167.999995994568,0|2
436,76,205167,6,0,B|399:29|336:32,1,111.999997329712
284,48,206258,1,2
64,76,207349,1,0
28,200,208195,2,0,B|28:248|56:272,1,80,0|2
256,192,209903,5,0
256,192,211304,12,0,215252
