osu file format v12

[General]
AudioFilename: Gensou no Satellite.mp3
AudioLeadIn: 0
PreviewTime: 88643
Countdown: 0
SampleSet: Normal
StackLeniency: 0.7
Mode: 1
LetterboxInBreaks: 0
WidescreenStoryboard: 0

[Editor]
Bookmarks: 14296,41296,49643
DistanceSpacing: 0.9
BeatDivisor: 4
GridSize: 32
TimelineZoom: 1.7

[Metadata]
Title:Gensou no Satellite
TitleUnicode:幻想のサテライト
Artist:Comp
ArtistUnicode:コンプ
Creator:Nwolf
Version:Oni
Source:
Tags:幻想ホモ・ルーデンス magical astronomy buta-otome homo ludens greenwich in the sky ranko ZUN team shanghai alice touhou fantasy
BeatmapID:313793
BeatmapSetID:122757

[Difficulty]
HPDrainRate:5
CircleSize:4
OverallDifficulty:5
ApproachRate:7
SliderMultiplier:1.4
SliderTickRate:1

[Events]
//Background and Video events
0,0,"Greenwich.jpg",0,0
//Break Periods
//Storyboard Layer 0 (Background)
//Storyboard Layer 1 (Fail)
//Storyboard Layer 2 (Pass)
//Storyboard Layer 3 (Foreground)
//Storyboard Sound Samples
//Background Colour Transformations
3,100,163,162,255

[TimingPoints]
14296,750,4,1,0,55,1,0
14296,-71.4285714285714,4,1,0,55,0,0
41296,260.869565217391,4,1,0,70,1,0
41296,-125,4,1,0,70,0,0
49122,-111.111111111111,4,1,0,70,0,0
49643,-111.111111111111,4,1,0,85,0,1
57991,-111.111111111111,4,1,0,85,0,0
58056,-117.647058823529,4,1,0,85,0,0
59948,-117.647058823529,4,1,0,50,0,0
62426,-117.647058823529,4,1,0,85,0,0
63730,-116.279069767442,4,1,0,85,0,0
63861,-114.942528735632,4,1,0,85,0,0
63991,-113.636363636364,4,1,0,85,0,0
64122,-112.359550561798,4,1,0,85,0,0
64252,-111.111111111111,4,1,0,85,0,0
87730,-108.695652173913,4,1,0,85,0,0
87991,-106.382978723404,4,1,0,85,0,0
88252,-103.092783505155,4,1,0,85,0,0
88643,-101.010101010101,4,1,0,85,0,0
89295,-100,4,1,0,85,0,1
105991,-100,4,1,0,85,0,0
107948,-125,4,1,0,55,0,0
112122,-111.111111111111,4,1,0,85,0,0
136382,-111.111111111111,4,1,0,40,0,0
136513,-107.52688172043,4,1,0,40,0,0
136774,-105.263157894737,4,1,0,45,0,0
137035,-102.040816326531,4,1,0,50,0,0
137295,-100,4,1,0,85,0,1
153991,-100,4,1,0,85,0,0
170165,-101.010101010101,4,1,0,85,0,0
170295,-102.040816326531,4,1,0,85,0,0
170361,-103.092783505155,4,1,0,85,0,0
170426,-104.166666666667,4,1,0,85,0,0
170556,-106.382978723404,4,1,0,85,0,0
170687,-108.695652173913,4,1,0,85,0,0
170817,-111.111111111111,4,1,0,85,0,0
178904,-111.111111111111,4,1,0,35,0,0
179035,-133.333333333333,4,1,0,35,0,0
187252,-133.333333333333,4,1,0,70,0,0
187382,-111.111111111111,4,1,0,70,0,0
193643,-109.89010989011,4,1,0,70,0,0
193774,-108.695652173913,4,1,0,70,0,0
193904,-107.52688172043,4,1,0,70,0,0
194035,-106.382978723404,4,1,0,70,0,0
194165,-105.263157894737,4,1,0,70,0,0
194426,-102.040816326531,4,1,0,70,0,0
194687,-99.009900990099,4,1,0,80,0,0
194817,-98.0392156862745,4,1,0,80,0,0
195078,-97.0873786407767,4,1,0,80,0,0
195339,-96.1538461538461,4,1,0,80,0,0
195730,-95.2380952380952,4,1,0,85,0,1
212426,-95.2380952380952,4,1,0,65,0,0
212556,-133.333333333333,4,1,0,35,0,0
218687,-100,4,1,0,85,0,0

[HitObjects]
288,224,14296,5,12,0:0:0:0:
224,160,14671,1,0,0:0:0:0:
224,160,14796,1,0,0:0:0:0:
224,160,14921,1,0,0:0:0:0:
288,160,15046,1,8,0:0:0:0:
224,160,15421,1,0,0:0:0:0:
224,160,15546,1,0,0:0:0:0:
224,160,15671,1,0,0:0:0:0:
288,160,15796,1,8,0:0:0:0:
288,160,16171,1,8,0:0:0:0:
288,160,16546,1,8,0:0:0:0:
224,160,16921,1,0,0:0:0:0:
288,160,17296,1,8,0:0:0:0:
224,160,17671,1,0,0:0:0:0:
224,160,17796,1,0,0:0:0:0:
224,160,17921,1,0,0:0:0:0:
288,160,18046,1,8,0:0:0:0:
224,160,18421,1,0,0:0:0:0:
224,160,18546,1,0,0:0:0:0:
224,160,18671,1,0,0:0:0:0:
288,160,18796,1,8,0:0:0:0:
224,160,19171,1,0,0:0:0:0:
288,160,19358,1,8,0:0:0:0:
288,160,19546,1,8,0:0:0:0:
224,160,19733,1,0,0:0:0:0:
288,224,20296,1,12,0:0:0:0:
224,160,20671,1,0,0:0:0:0:
288,160,21046,1,8,0:0:0:0:
224,160,21233,1,0,0:0:0:0:
288,160,21421,1,8,0:0:0:0:
288,160,21796,1,8,0:0:0:0:
224,160,22171,1,0,0:0:0:0:
288,160,22358,1,8,0:0:0:0:
288,160,22546,1,8,0:0:0:0:
288,160,22733,1,8,0:0:0:0:
224,160,22921,1,0,0:0:0:0:
288,160,23296,1,8,0:0:0:0:
288,160,23858,1,8,0:0:0:0:
288,160,24046,1,8,0:0:0:0:
224,160,24233,1,0,0:0:0:0:
288,160,24796,1,8,0:0:0:0:
288,160,25358,1,8,0:0:0:0:
224,160,25546,1,0,0:0:0:0:
224,160,25733,1,0,0:0:0:0:
288,224,26296,1,12,0:0:0:0:
288,160,26858,1,8,0:0:0:0:
224,160,27046,1,0,0:0:0:0:
288,160,27421,1,8,0:0:0:0:
288,160,27796,1,8,0:0:0:0:
288,160,28358,1,8,0:0:0:0:
224,160,28546,1,0,0:0:0:0:
288,160,28921,1,8,0:0:0:0:
224,160,29296,1,0,0:0:0:0:
224,160,29858,1,0,0:0:0:0:
224,160,30046,1,0,0:0:0:0:
288,160,30421,1,8,0:0:0:0:
288,160,30796,1,8,0:0:0:0:
224,160,31171,1,0,0:0:0:0:
224,160,31546,1,0,0:0:0:0:
288,224,32296,1,12,0:0:0:0:
224,160,32483,1,0,0:0:0:0:
288,160,32671,1,8,0:0:0:0:
288,160,32858,1,8,0:0:0:0:
288,160,33046,1,8,0:0:0:0:
224,160,33233,1,0,0:0:0:0:
288,160,33421,1,8,0:0:0:0:
288,160,33796,1,8,0:0:0:0:
224,160,33983,1,0,0:0:0:0:
288,160,34171,1,8,0:0:0:0:
288,160,34358,1,8,0:0:0:0:
288,160,34546,1,8,0:0:0:0:
224,160,34733,1,0,0:0:0:0:
288,160,34921,1,8,0:0:0:0:
224,160,35296,1,0,0:0:0:0:
288,160,35483,1,8,0:0:0:0:
224,160,35671,1,0,0:0:0:0:
224,160,35858,1,8,0:0:0:0:
224,160,36046,1,8,0:0:0:0:
224,160,36233,1,0,0:0:0:0:
288,160,36421,1,8,0:0:0:0:
224,160,36608,1,0,0:0:0:0:
256,192,36796,12,8,38296,0:0:0:0:
256,192,41296,5,12,0:0:0:0:
256,192,43382,1,8,0:0:0:0:
256,192,45209,1,0,0:0:0:0:
256,192,45469,1,8,0:0:0:0:
256,192,47295,1,0,0:0:0:0:
256,192,47556,1,8,0:0:0:0:
288,224,49122,1,12,0:0:0:0:
224,160,49382,1,0,0:0:0:0:
288,224,49643,1,12,0:0:0:0:
224,160,49904,1,0,0:0:0:0:
288,160,50035,1,8,0:0:0:0:
224,160,50295,1,0,0:0:0:0:
288,160,50426,1,8,0:0:0:0:
288,160,50687,1,8,0:0:0:0:
288,160,50861,1,8,0:0:0:0:
288,160,51035,1,8,0:0:0:0:
288,160,51209,1,0,0:0:0:0:
288,160,51382,1,8,0:0:0:0:
224,160,51556,1,0,0:0:0:0:
288,160,51730,1,8,0:0:0:0:
224,160,51991,1,0,0:0:0:0:
288,160,52122,1,8,0:0:0:0:
224,160,52382,1,0,0:0:0:0:
288,160,52513,1,8,0:0:0:0:
224,160,52774,1,0,0:0:0:0:
288,160,52948,1,8,0:0:0:0:
288,160,53122,1,8,0:0:0:0:
224,160,53295,1,0,0:0:0:0:
288,160,53556,1,8,0:0:0:0:
224,160,53687,1,0,0:0:0:0:
288,160,53817,1,8,0:0:0:0:
224,160,54078,1,0,0:0:0:0:
288,160,54209,1,8,0:0:0:0:
224,160,54469,1,0,0:0:0:0:
288,160,54600,1,8,0:0:0:0:
224,160,54730,1,0,0:0:0:0:
288,160,54861,1,8,0:0:0:0:
224,160,55035,1,0,0:0:0:0:
288,160,55209,1,8,0:0:0:0:
288,160,55382,1,8,0:0:0:0:
288,160,55556,1,8,0:0:0:0:
224,160,55730,1,0,0:0:0:0:
288,160,55904,1,8,0:0:0:0:
224,160,56165,1,0,0:0:0:0:
288,160,56295,1,8,0:0:0:0:
224,160,56426,1,0,0:0:0:0:
288,160,56687,1,8,0:0:0:0:
288,160,56948,1,8,0:0:0:0:
224,160,57209,1,0,0:0:0:0:
288,160,57339,1,8,0:0:0:0:
224,160,57600,1,0,0:0:0:0:
288,160,57730,1,8,0:0:0:0:
224,160,57861,1,0,0:0:0:0:
224,160,57991,1,0,0:0:0:0:
288,160,58252,1,8,0:0:0:0:
288,160,58382,1,8,0:0:0:0:
224,160,58643,1,0,0:0:0:0:
224,160,58904,1,0,0:0:0:0:
224,160,59035,1,0,0:0:0:0:
224,160,59165,1,0,0:0:0:0:
288,160,59295,1,8,0:0:0:0:
224,160,59556,1,0,0:0:0:0:
224,224,60078,1,12,0:0:0:0:
288,160,60861,1,8,0:0:0:0:
224,160,61122,1,0,0:0:0:0:
288,160,61643,1,8,0:0:0:0:
224,160,61904,1,0,0:0:0:0:
288,160,62165,1,8,0:0:0:0:
288,160,63209,1,8,0:0:0:0:
224,160,63339,1,0,0:0:0:0:
224,160,63404,1,0,0:0:0:0:
288,160,63469,1,8,0:0:0:0:
288,160,63730,1,8,0:0:0:0:
224,160,63861,1,0,0:0:0:0:
224,160,63991,1,0,0:0:0:0:
224,160,64122,1,0,0:0:0:0:
224,224,64252,5,4,0:0:0:0:
288,160,64513,1,8,0:0:0:0:
224,160,64643,1,0,0:0:0:0:
224,160,64774,1,0,0:0:0:0:
224,160,64904,1,0,0:0:0:0:
288,160,65035,1,8,0:0:0:0:
224,160,65295,1,0,0:0:0:0:
288,160,65556,1,8,0:0:0:0:
288,160,65687,1,8,0:0:0:0:
224,160,65817,1,0,0:0:0:0:
224,160,65948,1,0,0:0:0:0:
288,160,66078,1,8,0:0:0:0:
224,160,66339,1,0,0:0:0:0:
288,160,66600,1,8,0:0:0:0:
288,160,66730,1,8,0:0:0:0:
224,160,66861,1,0,0:0:0:0:
288,160,67122,1,8,0:0:0:0:
224,160,67382,1,0,0:0:0:0:
288,160,67643,1,8,0:0:0:0:
288,160,67774,1,8,0:0:0:0:
288,160,67904,1,8,0:0:0:0:
224,160,68035,1,0,0:0:0:0:
288,160,68165,1,8,0:0:0:0:
288,160,68295,1,8,0:0:0:0:
224,160,68426,1,0,0:0:0:0:
224,160,68556,1,0,0:0:0:0:
288,160,68687,1,8,0:0:0:0:
224,160,68817,1,0,0:0:0:0:
224,160,68948,1,0,0:0:0:0:
224,160,69078,1,0,0:0:0:0:
288,160,69209,1,8,0:0:0:0:
224,160,69469,1,0,0:0:0:0:
288,160,69730,1,8,0:0:0:0:
288,160,69861,1,8,0:0:0:0:
224,160,69991,1,0,0:0:0:0:
224,160,70122,1,0,0:0:0:0:
288,160,70252,1,8,0:0:0:0:
288,160,70513,1,8,0:0:0:0:
224,160,70774,1,0,0:0:0:0:
288,160,70904,1,8,0:0:0:0:
224,160,71165,1,0,0:0:0:0:
288,160,71295,1,8,0:0:0:0:
224,160,71426,1,0,0:0:0:0:
224,160,71556,1,0,0:0:0:0:
288,160,71687,1,8,0:0:0:0:
288,160,71948,1,8,0:0:0:0:
224,160,72209,1,0,0:0:0:0:
288,160,72339,1,8,0:0:0:0:
288,224,72600,1,12,0:0:0:0:
288,160,72861,1,8,0:0:0:0:
224,160,72991,1,0,0:0:0:0:
224,160,73122,1,0,0:0:0:0:
224,160,73252,1,0,0:0:0:0:
288,160,73382,1,8,0:0:0:0:
224,160,73643,1,0,0:0:0:0:
288,160,73904,1,8,0:0:0:0:
288,160,74035,1,8,0:0:0:0:
288,160,74165,1,8,0:0:0:0:
224,160,74295,1,0,0:0:0:0:
288,160,74426,1,8,0:0:0:0:
224,160,74556,1,0,0:0:0:0:
224,160,74687,1,0,0:0:0:0:
288,160,74948,1,8,0:0:0:0:
224,160,75078,1,0,0:0:0:0:
224,160,75209,1,0,0:0:0:0:
288,160,75469,1,8,0:0:0:0:
224,160,75730,1,0,0:0:0:0:
288,160,75991,1,8,0:0:0:0:
288,160,76122,1,8,0:0:0:0:
288,160,76252,1,8,0:0:0:0:
224,160,76382,1,0,0:0:0:0:
288,160,76513,1,8,0:0:0:0:
288,160,76643,1,8,0:0:0:0:
224,160,76774,1,0,0:0:0:0:
288,160,77035,1,8,0:0:0:0:
224,160,77165,1,0,0:0:0:0:
224,160,77295,1,0,0:0:0:0:
288,160,77556,1,8,0:0:0:0:
288,160,77816,1,0,0:0:0:0:
288,160,78079,1,8,0:0:0:0:
288,160,78209,1,8,0:0:0:0:
288,160,78339,1,8,0:0:0:0:
224,160,78470,1,0,0:0:0:0:
288,160,78600,1,8,0:0:0:0:
224,160,78730,1,0,0:0:0:0:
288,160,78861,1,8,0:0:0:0:
288,160,79122,1,8,0:0:0:0:
288,160,79252,1,8,0:0:0:0:
224,160,79383,1,0,0:0:0:0:
288,160,79643,1,8,0:0:0:0:
224,160,79904,1,0,0:0:0:0:
288,160,80035,1,8,0:0:0:0:
288,160,80295,1,8,0:0:0:0:
288,160,80426,1,8,0:0:0:0:
288,160,80556,1,8,0:0:0:0:
224,160,80687,1,0,0:0:0:0:
224,224,80948,1,4,0:0:0:0:
288,160,81469,1,8,0:0:0:0:
224,160,81730,1,0,0:0:0:0:
224,160,81991,1,0,0:0:0:0:
288,160,82122,1,8,0:0:0:0:
224,160,82252,1,0,0:0:0:0:
224,160,82382,1,0,0:0:0:0:
288,160,82513,1,8,0:0:0:0:
288,160,82774,1,8,0:0:0:0:
224,160,83035,1,0,0:0:0:0:
288,160,83426,1,8,0:0:0:0:
288,160,83817,1,8,0:0:0:0:
224,160,84078,1,0,0:0:0:0:
288,160,84209,1,8,0:0:0:0:
224,160,84339,1,0,0:0:0:0:
224,160,84469,1,0,0:0:0:0:
288,160,84600,1,8,0:0:0:0:
288,160,84861,1,8,0:0:0:0:
288,160,85122,1,8,0:0:0:0:
288,160,85252,1,8,0:0:0:0:
224,160,85513,1,0,0:0:0:0:
288,160,85643,1,8,0:0:0:0:
224,160,85904,1,0,0:0:0:0:
224,160,86165,1,0,0:0:0:0:
288,160,86426,1,8,0:0:0:0:
288,160,86556,1,8,0:0:0:0:
224,160,86687,1,0,0:0:0:0:
288,160,86817,1,8,0:0:0:0:
224,160,86948,1,0,0:0:0:0:
224,224,87209,1,4,0:0:0:0:
288,160,87730,1,8,0:0:0:0:
224,160,87991,1,0,0:0:0:0:
224,160,88252,1,0,0:0:0:0:
288,160,88382,1,8,0:0:0:0:
288,160,88643,1,8,0:0:0:0:
288,160,88774,1,8,0:0:0:0:
224,160,88904,1,0,0:0:0:0:
288,160,89035,1,8,0:0:0:0:
288,224,89295,5,12,0:0:0:0:
224,160,89426,1,0,0:0:0:0:
288,160,89556,1,8,0:0:0:0:
288,160,89687,1,8,0:0:0:0:
224,160,89817,1,0,0:0:0:0:
288,160,89948,1,8,0:0:0:0:
288,160,90078,1,8,0:0:0:0:
288,160,90339,1,8,0:0:0:0:
288,160,90513,1,8,0:0:0:0:
288,160,90687,1,8,0:0:0:0:
288,160,90861,1,0,0:0:0:0:
288,160,91035,1,8,0:0:0:0:
224,160,91209,1,0,0:0:0:0:
288,160,91382,1,8,0:0:0:0:
224,160,91513,1,0,0:0:0:0:
288,160,91643,1,8,0:0:0:0:
288,160,91774,1,8,0:0:0:0:
224,160,91904,1,0,0:0:0:0:
288,160,92165,1,8,0:0:0:0:
224,160,92426,1,0,0:0:0:0:
288,160,92600,1,8,0:0:0:0:
288,160,92774,1,8,0:0:0:0:
224,160,92948,1,0,0:0:0:0:
288,160,93209,1,8,0:0:0:0:
288,160,93469,1,8,0:0:0:0:
224,160,93730,1,0,0:0:0:0:
288,160,93861,1,8,0:0:0:0:
224,160,94122,1,0,0:0:0:0:
288,160,94252,1,8,0:0:0:0:
288,160,94513,1,8,0:0:0:0:
288,160,94687,1,8,0:0:0:0:
288,160,94861,1,8,0:0:0:0:
224,160,95035,1,0,0:0:0:0:
288,160,95209,1,8,0:0:0:0:
224,160,95382,1,0,0:0:0:0:
288,160,95556,1,8,0:0:0:0:
224,160,95687,1,0,0:0:0:0:
288,160,95817,1,8,0:0:0:0:
288,160,95948,1,8,0:0:0:0:
224,160,96078,1,0,0:0:0:0:
288,160,96209,1,8,0:0:0:0:
288,160,96339,1,8,0:0:0:0:
288,160,96600,1,8,0:0:0:0:
224,160,96774,1,0,0:0:0:0:
224,160,96948,1,0,0:0:0:0:
288,160,97122,1,8,0:0:0:0:
288,160,97382,1,8,0:0:0:0:
224,160,97448,1,0,0:0:0:0:
224,160,97513,1,0,0:0:0:0:
288,224,97643,1,12,0:0:0:0:
224,160,97904,1,0,0:0:0:0:
288,160,98035,1,8,0:0:0:0:
224,160,98295,1,0,0:0:0:0:
288,160,98426,1,8,0:0:0:0:
288,160,98687,1,8,0:0:0:0:
288,160,98861,1,8,0:0:0:0:
288,160,99035,1,8,0:0:0:0:
224,160,99209,1,0,0:0:0:0:
288,160,99382,1,8,0:0:0:0:
224,160,99556,1,0,0:0:0:0:
288,160,99730,1,8,0:0:0:0:
224,160,99861,1,0,0:0:0:0:
288,160,99991,1,8,0:0:0:0:
288,160,100122,1,8,0:0:0:0:
224,160,100252,1,0,0:0:0:0:
288,160,100382,1,8,0:0:0:0:
288,160,100513,1,8,0:0:0:0:
224,160,100774,1,0,0:0:0:0:
288,160,100948,1,8,0:0:0:0:
288,160,101122,1,8,0:0:0:0:
224,160,101295,1,0,0:0:0:0:
288,160,101556,1,8,0:0:0:0:
288,160,101817,1,8,0:0:0:0:
224,160,102078,1,0,0:0:0:0:
288,160,102209,1,8,0:0:0:0:
224,160,102469,1,0,0:0:0:0:
288,160,102600,1,8,0:0:0:0:
288,160,102861,1,8,0:0:0:0:
224,160,103035,1,0,0:0:0:0:
288,160,103209,1,8,0:0:0:0:
288,160,103382,1,8,0:0:0:0:
288,160,103556,1,8,0:0:0:0:
224,160,103730,1,0,0:0:0:0:
288,160,103904,1,8,0:0:0:0:
224,160,104165,1,0,0:0:0:0:
288,160,104295,1,8,0:0:0:0:
224,160,104426,1,0,0:0:0:0:
288,160,104687,1,8,0:0:0:0:
288,224,104948,1,12,0:0:0:0:
288,160,105209,1,8,0:0:0:0:
224,160,105339,1,0,0:0:0:0:
288,160,105469,1,8,0:0:0:0:
224,160,105730,1,0,0:0:0:0:
288,160,105991,1,8,0:0:0:0:
224,160,106122,1,0,0:0:0:0:
224,160,106382,1,0,0:0:0:0:
224,160,106643,1,0,0:0:0:0:
224,160,106904,1,0,0:0:0:0:
224,160,107165,1,0,0:0:0:0:
224,160,107426,1,0,0:0:0:0:
288,160,107556,1,8,0:0:0:0:
224,160,107687,1,0,0:0:0:0:
288,160,107817,1,8,0:0:0:0:
224,224,108078,1,4,0:0:0:0:
288,160,108600,1,8,0:0:0:0:
288,160,108861,1,8,0:0:0:0:
224,160,109122,1,0,0:0:0:0:
224,160,109382,1,0,0:0:0:0:
288,160,109643,1,8,0:0:0:0:
288,160,109904,1,0,0:0:0:0:
224,160,110165,1,0,0:0:0:0:
224,160,110426,1,0,0:0:0:0:
288,160,110687,1,8,0:0:0:0:
224,160,111078,1,0,0:0:0:0:
288,160,111209,1,8,0:0:0:0:
288,160,111339,1,0,0:0:0:0:
288,160,111730,1,8,0:0:0:0:
288,160,112252,5,12,0:0:0:0:
288,160,112513,1,8,0:0:0:0:
224,160,112643,1,0,0:0:0:0:
224,160,112774,1,0,0:0:0:0:
288,160,113035,1,8,0:0:0:0:
224,160,113295,1,0,0:0:0:0:
288,160,113556,1,8,0:0:0:0:
288,160,113687,1,8,0:0:0:0:
288,160,113817,1,8,0:0:0:0:
224,160,113948,1,0,0:0:0:0:
288,160,114078,1,8,0:0:0:0:
224,160,114339,1,0,0:0:0:0:
288,160,114600,1,8,0:0:0:0:
288,160,114730,1,8,0:0:0:0:
224,160,114861,1,0,0:0:0:0:
288,160,115122,1,8,0:0:0:0:
224,160,115382,1,0,0:0:0:0:
288,160,115643,1,8,0:0:0:0:
288,160,115774,1,8,0:0:0:0:
288,160,115904,1,8,0:0:0:0:
224,160,116035,1,0,0:0:0:0:
288,160,116165,1,8,0:0:0:0:
288,160,116295,1,8,0:0:0:0:
224,160,116426,1,0,0:0:0:0:
288,160,116687,1,8,0:0:0:0:
224,160,116817,1,0,0:0:0:0:
224,160,116948,1,0,0:0:0:0:
288,160,117209,1,8,0:0:0:0:
224,160,117469,1,0,0:0:0:0:
288,160,117730,1,8,0:0:0:0:
288,160,117861,1,8,0:0:0:0:
288,160,117991,1,8,0:0:0:0:
224,160,118122,1,0,0:0:0:0:
288,160,118252,1,8,0:0:0:0:
224,160,118382,1,0,0:0:0:0:
288,160,118513,1,8,0:0:0:0:
288,160,118774,1,8,0:0:0:0:
288,160,118904,1,8,0:0:0:0:
224,160,119165,1,0,0:0:0:0:
288,160,119295,1,8,0:0:0:0:
224,160,119556,1,0,0:0:0:0:
288,160,119687,1,8,0:0:0:0:
288,160,119948,1,8,0:0:0:0:
224,160,120209,1,0,0:0:0:0:
288,160,120339,1,8,0:0:0:0:
224,224,120600,1,4,0:0:0:0:
288,160,120861,1,8,0:0:0:0:
224,160,120991,1,0,0:0:0:0:
224,160,121122,1,0,0:0:0:0:
288,160,121382,1,8,0:0:0:0:
224,160,121643,1,0,0:0:0:0:
288,160,121904,1,8,0:0:0:0:
288,160,122035,1,8,0:0:0:0:
288,160,122165,1,8,0:0:0:0:
224,160,122295,1,0,0:0:0:0:
288,160,122426,1,8,0:0:0:0:
224,160,122556,1,0,0:0:0:0:
224,160,122687,1,0,0:0:0:0:
288,160,122948,1,8,0:0:0:0:
288,160,123078,1,8,0:0:0:0:
224,160,123209,1,0,0:0:0:0:
288,160,123469,1,8,0:0:0:0:
224,160,123730,1,0,0:0:0:0:
288,160,123991,1,8,0:0:0:0:
288,160,124122,1,8,0:0:0:0:
288,160,124252,1,8,0:0:0:0:
224,160,124382,1,0,0:0:0:0:
288,160,124513,1,8,0:0:0:0:
288,160,124643,1,8,0:0:0:0:
224,160,124774,1,0,0:0:0:0:
288,160,125035,1,8,0:0:0:0:
288,160,125165,1,8,0:0:0:0:
224,160,125295,1,0,0:0:0:0:
288,160,125556,1,8,0:0:0:0:
224,160,125817,1,0,0:0:0:0:
288,160,126078,1,8,0:0:0:0:
288,160,126209,1,8,0:0:0:0:
288,160,126339,1,8,0:0:0:0:
224,160,126469,1,0,0:0:0:0:
224,160,126600,1,0,0:0:0:0:
224,160,126861,1,0,0:0:0:0:
288,160,127122,1,8,0:0:0:0:
224,160,127382,1,0,0:0:0:0:
288,160,127643,1,8,0:0:0:0:
224,160,127904,1,0,0:0:0:0:
288,160,128035,1,8,0:0:0:0:
224,160,128295,1,0,0:0:0:0:
288,160,128426,1,8,0:0:0:0:
288,160,128556,1,8,0:0:0:0:
224,160,128687,1,0,0:0:0:0:
224,224,128948,1,4,0:0:0:0:
224,160,129339,1,0,0:0:0:0:
288,160,129469,1,8,0:0:0:0:
224,160,129730,1,0,0:0:0:0:
224,160,129991,1,0,0:0:0:0:
288,160,130122,1,8,0:0:0:0:
224,160,130252,1,0,0:0:0:0:
224,160,130382,1,0,0:0:0:0:
288,160,130513,1,8,0:0:0:0:
288,160,130774,1,8,0:0:0:0:
224,160,131035,1,0,0:0:0:0:
224,160,131426,1,0,0:0:0:0:
288,160,131557,1,8,0:0:0:0:
224,160,131818,1,0,0:0:0:0:
224,160,132078,1,0,0:0:0:0:
288,160,132209,1,8,0:0:0:0:
224,160,132339,1,0,0:0:0:0:
224,160,132469,1,0,0:0:0:0:
288,160,132600,1,8,0:0:0:0:
288,160,132861,1,8,0:0:0:0:
288,160,133122,1,8,0:0:0:0:
288,160,133252,1,8,0:0:0:0:
224,160,133513,1,0,0:0:0:0:
288,160,133643,1,8,0:0:0:0:
224,160,133904,1,0,0:0:0:0:
224,160,134165,1,0,0:0:0:0:
288,160,134426,1,8,0:0:0:0:
288,160,134556,1,8,0:0:0:0:
224,160,134687,1,0,0:0:0:0:
288,160,134817,1,8,0:0:0:0:
224,160,134948,1,0,0:0:0:0:
224,224,135209,1,4,0:0:0:0:
224,160,135469,1,0,0:0:0:0:
288,160,135730,1,8,0:0:0:0:
224,160,135991,1,0,0:0:0:0:
224,160,136122,1,0,0:0:0:0:
288,160,136252,1,8,0:0:0:0:
224,160,136513,1,0,0:0:0:0:
224,160,136774,1,0,0:0:0:0:
224,160,137035,1,0,0:0:0:0:
288,224,137295,5,12,0:0:0:0:
224,160,137426,1,0,0:0:0:0:
288,160,137556,1,8,0:0:0:0:
288,160,137687,1,8,0:0:0:0:
224,160,137817,1,0,0:0:0:0:
288,160,137948,1,8,0:0:0:0:
288,160,138078,1,8,0:0:0:0:
288,160,138339,1,8,0:0:0:0:
288,160,138513,1,8,0:0:0:0:
288,160,138687,1,8,0:0:0:0:
224,160,138861,1,0,0:0:0:0:
288,160,139035,1,8,0:0:0:0:
224,160,139209,1,0,0:0:0:0:
288,160,139382,1,8,0:0:0:0:
224,160,139513,1,0,0:0:0:0:
288,160,139643,1,8,0:0:0:0:
288,160,139774,1,8,0:0:0:0:
224,160,139904,1,0,0:0:0:0:
288,160,140165,1,8,0:0:0:0:
224,160,140426,1,0,0:0:0:0:
288,160,140600,1,8,0:0:0:0:
288,160,140774,1,8,0:0:0:0:
224,160,140948,1,0,0:0:0:0:
224,160,141078,1,0,0:0:0:0:
288,160,141209,1,8,0:0:0:0:
288,160,141469,1,8,0:0:0:0:
224,160,141730,1,0,0:0:0:0:
288,160,141861,1,8,0:0:0:0:
224,160,142122,1,0,0:0:0:0:
288,160,142252,1,8,0:0:0:0:
288,160,142513,1,8,0:0:0:0:
288,160,142687,1,8,0:0:0:0:
288,160,142861,1,8,0:0:0:0:
224,160,143035,1,0,0:0:0:0:
288,160,143209,1,8,0:0:0:0:
224,160,143382,1,0,0:0:0:0:
288,160,143556,1,8,0:0:0:0:
224,160,143687,1,0,0:0:0:0:
288,160,143817,1,8,0:0:0:0:
288,160,143948,1,8,0:0:0:0:
224,160,144078,1,0,0:0:0:0:
288,160,144209,1,8,0:0:0:0:
288,160,144339,1,8,0:0:0:0:
288,160,144600,1,8,0:0:0:0:
224,160,144774,1,0,0:0:0:0:
224,160,144948,1,0,0:0:0:0:
288,160,145122,1,8,0:0:0:0:
288,160,145382,1,8,0:0:0:0:
224,160,145448,1,0,0:0:0:0:
224,160,145513,1,0,0:0:0:0:
288,224,145643,1,12,0:0:0:0:
224,160,145904,1,0,0:0:0:0:
288,160,146035,1,8,0:0:0:0:
224,160,146295,1,0,0:0:0:0:
288,160,146426,1,8,0:0:0:0:
288,160,146687,1,8,0:0:0:0:
288,160,146861,1,8,0:0:0:0:
288,160,147035,1,8,0:0:0:0:
288,160,147209,1,0,0:0:0:0:
288,160,147382,1,8,0:0:0:0:
224,160,147556,1,0,0:0:0:0:
288,160,147730,1,8,0:0:0:0:
224,160,147861,1,0,0:0:0:0:
288,160,147991,1,8,0:0:0:0:
288,160,148122,1,8,0:0:0:0:
224,160,148252,1,0,0:0:0:0:
288,160,148382,1,8,0:0:0:0:
288,160,148513,1,8,0:0:0:0:
224,160,148774,1,0,0:0:0:0:
288,160,148948,1,8,0:0:0:0:
288,160,149122,1,8,0:0:0:0:
224,160,149295,1,0,0:0:0:0:
224,160,149426,1,0,0:0:0:0:
288,160,149556,1,8,0:0:0:0:
288,160,149817,1,8,0:0:0:0:
224,160,150078,1,0,0:0:0:0:
288,160,150209,1,8,0:0:0:0:
224,160,150469,1,0,0:0:0:0:
288,160,150600,1,8,0:0:0:0:
288,160,150861,1,8,0:0:0:0:
224,160,151035,1,0,0:0:0:0:
288,160,151209,1,8,0:0:0:0:
288,160,151382,1,8,0:0:0:0:
288,160,151556,1,8,0:0:0:0:
224,160,151730,1,0,0:0:0:0:
288,160,151904,1,8,0:0:0:0:
224,160,152165,1,0,0:0:0:0:
288,160,152295,1,8,0:0:0:0:
224,160,152426,1,0,0:0:0:0:
288,160,152687,1,8,0:0:0:0:
288,224,152948,1,12,0:0:0:0:
288,160,153078,1,8,0:0:0:0:
288,160,153339,1,8,0:0:0:0:
288,160,153469,1,8,0:0:0:0:
224,160,153730,1,0,0:0:0:0:
288,160,153991,1,12,0:0:0:0:
224,160,154122,1,0,0:0:0:0:
224,160,154252,1,0,0:0:0:0:
288,160,154382,1,8,0:0:0:0:
288,160,154643,1,8,0:0:0:0:
288,160,154774,1,8,0:0:0:0:
288,160,154904,1,8,0:0:0:0:
224,160,155035,1,0,0:0:0:0:
224,160,155165,1,0,0:0:0:0:
224,160,155295,1,0,0:0:0:0:
288,160,155426,1,8,0:0:0:0:
224,160,155687,1,0,0:0:0:0:
288,160,155817,1,8,0:0:0:0:
288,160,155948,1,8,0:0:0:0:
224,160,156078,1,0,0:0:0:0:
288,160,156339,1,8,0:0:0:0:
224,160,156469,1,0,0:0:0:0:
224,160,156730,1,0,0:0:0:0:
288,160,156861,1,8,0:0:0:0:
288,160,156991,1,8,0:0:0:0:
224,160,157122,1,0,0:0:0:0:
288,160,157252,1,8,0:0:0:0:
288,160,157382,1,8,0:0:0:0:
288,160,157513,1,8,0:0:0:0:
224,160,157643,1,0,0:0:0:0:
288,160,157904,1,8,0:0:0:0:
288,160,158165,1,8,0:0:0:0:
224,160,158295,1,0,0:0:0:0:
224,160,158426,1,0,0:0:0:0:
288,160,158556,1,8,0:0:0:0:
288,160,158817,1,8,0:0:0:0:
288,160,158948,1,8,0:0:0:0:
288,160,159078,1,8,0:0:0:0:
224,160,159209,1,0,0:0:0:0:
288,160,159339,1,8,0:0:0:0:
288,160,159469,1,8,0:0:0:0:
224,160,159600,1,0,0:0:0:0:
224,160,159861,1,0,0:0:0:0:
224,160,159991,1,0,0:0:0:0:
288,160,160122,1,8,0:0:0:0:
224,160,160252,1,0,0:0:0:0:
288,160,160513,1,8,0:0:0:0:
224,160,160643,1,0,0:0:0:0:
288,160,160904,1,8,0:0:0:0:
288,160,161035,1,8,0:0:0:0:
288,160,161295,1,8,0:0:0:0:
288,160,161426,1,8,0:0:0:0:
288,160,161556,1,8,0:0:0:0:
224,160,161687,1,0,0:0:0:0:
288,160,161817,1,8,0:0:0:0:
224,160,161948,1,0,0:0:0:0:
288,160,162078,1,8,0:0:0:0:
288,224,162339,1,12,0:0:0:0:
288,160,162469,1,8,0:0:0:0:
224,160,162600,1,0,0:0:0:0:
288,160,162730,1,8,0:0:0:0:
224,160,162991,1,0,0:0:0:0:
288,160,163122,1,8,0:0:0:0:
224,160,163252,1,0,0:0:0:0:
224,160,163382,1,0,0:0:0:0:
288,160,163513,1,8,0:0:0:0:
288,160,163578,1,8,0:0:0:0:
224,160,163643,1,0,0:0:0:0:
288,160,163774,1,8,0:0:0:0:
288,160,164035,1,8,0:0:0:0:
288,160,164165,1,8,0:0:0:0:
224,160,164295,1,0,0:0:0:0:
224,224,164426,1,4,0:0:0:0:
288,160,164687,1,8,0:0:0:0:
224,160,164817,1,0,0:0:0:0:
224,160,165078,1,0,0:0:0:0:
288,160,165209,1,8,0:0:0:0:
224,160,165339,1,0,0:0:0:0:
224,160,165404,1,0,0:0:0:0:
224,160,165469,1,0,0:0:0:0:
288,160,165730,1,8,0:0:0:0:
224,160,165861,1,0,0:0:0:0:
224,160,166122,1,0,0:0:0:0:
288,160,166252,1,8,0:0:0:0:
224,160,166382,1,0,0:0:0:0:
288,224,166513,1,12,0:0:0:0:
224,160,166643,1,0,0:0:0:0:
288,160,166774,1,8,0:0:0:0:
288,160,166904,1,8,0:0:0:0:
224,160,167165,1,0,0:0:0:0:
224,160,167426,1,0,0:0:0:0:
288,160,167556,1,8,0:0:0:0:
288,160,167687,1,8,0:0:0:0:
224,160,167817,1,0,0:0:0:0:
288,160,167948,1,8,0:0:0:0:
288,160,168209,1,8,0:0:0:0:
224,160,168339,1,0,0:0:0:0:
224,160,168469,1,0,0:0:0:0:
288,160,168600,1,8,0:0:0:0:
224,160,168861,1,0,0:0:0:0:
288,160,168991,1,8,0:0:0:0:
224,160,169252,1,0,0:0:0:0:
288,160,169382,1,8,0:0:0:0:
224,160,169643,1,0,0:0:0:0:
288,160,169774,1,8,0:0:0:0:
224,160,169904,1,0,0:0:0:0:
224,160,170035,1,0,0:0:0:0:
288,160,170165,1,8,0:0:0:0:
224,160,170295,1,0,0:0:0:0:
224,160,170361,1,0,0:0:0:0:
288,160,170426,1,8,0:0:0:0:
224,160,170556,1,0,0:0:0:0:
224,160,170687,5,0,0:0:0:0:
224,160,170948,1,0,0:0:0:0:
288,160,171209,1,8,0:0:0:0:
288,160,171469,1,8,0:0:0:0:
224,160,171730,1,0,0:0:0:0:
288,160,171991,1,8,0:0:0:0:
288,160,172122,1,8,0:0:0:0:
288,160,172252,1,8,0:0:0:0:
288,160,172382,1,8,0:0:0:0:
224,160,172513,1,0,0:0:0:0:
224,160,172774,1,0,0:0:0:0:
288,160,172904,1,8,0:0:0:0:
224,160,173295,1,0,0:0:0:0:
288,160,173556,1,8,0:0:0:0:
224,160,173817,1,0,0:0:0:0:
224,160,174078,1,0,0:0:0:0:
288,160,174209,1,8,0:0:0:0:
288,160,174339,1,8,0:0:0:0:
288,160,174469,1,8,0:0:0:0:
224,160,174600,1,0,0:0:0:0:
224,160,174861,1,0,0:0:0:0:
288,160,174991,1,8,0:0:0:0:
224,160,175382,1,0,0:0:0:0:
288,160,175643,1,8,0:0:0:0:
224,160,175904,1,0,0:0:0:0:
288,160,176165,1,8,0:0:0:0:
288,160,176295,1,8,0:0:0:0:
224,160,176426,1,0,0:0:0:0:
288,160,176687,1,8,0:0:0:0:
288,160,176948,1,8,0:0:0:0:
224,160,177209,1,0,0:0:0:0:
288,160,177469,1,8,0:0:0:0:
288,160,177730,1,8,0:0:0:0:
224,160,177861,1,0,0:0:0:0:
288,160,177991,1,8,0:0:0:0:
288,160,179035,1,8,0:0:0:0:
224,160,179295,1,0,0:0:0:0:
224,160,179556,1,0,0:0:0:0:
288,160,179817,1,8,0:0:0:0:
224,160,180078,1,0,0:0:0:0:
288,160,180339,1,8,0:0:0:0:
288,160,180600,1,8,0:0:0:0:
224,160,180861,1,0,0:0:0:0:
224,160,181122,1,0,0:0:0:0:
288,160,181382,1,8,0:0:0:0:
288,160,181643,1,8,0:0:0:0:
224,160,181904,1,0,0:0:0:0:
288,160,182165,1,8,0:0:0:0:
288,160,182426,1,8,0:0:0:0:
224,160,182687,1,0,0:0:0:0:
288,160,182948,1,8,0:0:0:0:
288,160,183209,1,8,0:0:0:0:
224,160,183469,1,0,0:0:0:0:
224,160,183730,1,0,0:0:0:0:
288,160,183991,1,8,0:0:0:0:
288,160,184252,1,8,0:0:0:0:
288,160,184513,1,8,0:0:0:0:
224,160,184774,1,0,0:0:0:0:
224,160,185035,1,0,0:0:0:0:
288,160,185295,1,8,0:0:0:0:
288,160,186339,1,8,0:0:0:0:
288,160,186513,1,8,0:0:0:0:
288,160,186687,1,8,0:0:0:0:
224,160,186861,1,0,0:0:0:0:
288,224,187382,1,12,0:0:0:0:
224,160,187513,1,0,0:0:0:0:
224,160,187643,1,0,0:0:0:0:
288,160,187774,1,8,0:0:0:0:
224,160,187904,1,0,0:0:0:0:
224,160,188034,1,0,0:0:0:0:
288,160,188165,1,8,0:0:0:0:
288,160,188426,1,8,0:0:0:0:
288,160,188600,1,8,0:0:0:0:
288,160,188774,1,8,0:0:0:0:
288,160,188948,1,0,0:0:0:0:
288,160,189121,1,8,0:0:0:0:
224,160,189295,1,0,0:0:0:0:
288,160,189469,1,8,0:0:0:0:
224,160,189600,1,0,0:0:0:0:
224,160,189730,1,0,0:0:0:0:
288,160,189861,1,8,0:0:0:0:
224,160,189991,1,0,0:0:0:0:
224,160,190121,1,0,0:0:0:0:
288,160,190252,1,8,0:0:0:0:
224,160,190513,1,0,0:0:0:0:
288,160,190687,1,8,0:0:0:0:
288,160,190861,1,8,0:0:0:0:
224,160,191034,1,0,0:0:0:0:
288,160,191295,1,8,0:0:0:0:
224,160,191426,1,0,0:0:0:0:
288,160,191556,1,8,0:0:0:0:
224,160,191817,1,0,0:0:0:0:
288,160,191948,1,8,0:0:0:0:
224,160,192208,1,0,0:0:0:0:
288,160,192339,1,8,0:0:0:0:
224,160,192469,1,0,0:0:0:0:
288,160,192600,1,8,0:0:0:0:
224,160,192774,1,0,0:0:0:0:
288,160,192948,1,8,0:0:0:0:
288,160,193121,1,8,0:0:0:0:
288,160,193295,1,8,0:0:0:0:
224,160,193469,1,0,0:0:0:0:
288,160,193643,1,8,0:0:0:0:
224,160,193774,1,0,0:0:0:0:
224,160,193904,1,0,0:0:0:0:
288,160,194034,1,8,0:0:0:0:
224,160,194165,1,0,0:0:0:0:
288,160,194426,1,8,0:0:0:0:
288,160,194687,1,8,0:0:0:0:
224,160,194817,1,0,0:0:0:0:
288,160,194948,1,8,0:0:0:0:
224,160,195078,1,0,0:0:0:0:
288,160,195209,1,8,0:0:0:0:
224,160,195339,1,0,0:0:0:0:
288,160,195469,1,8,0:0:0:0:
224,160,195535,1,0,0:0:0:0:
224,160,195600,1,0,0:0:0:0:
288,224,195730,1,12,0:0:0:0:
288,160,195991,1,8,0:0:0:0:
288,160,196122,1,8,0:0:0:0:
224,160,196252,1,0,0:0:0:0:
288,160,196383,1,8,0:0:0:0:
288,160,196513,1,8,0:0:0:0:
288,160,196774,1,8,0:0:0:0:
288,160,196948,1,8,0:0:0:0:
288,160,197122,1,8,0:0:0:0:
288,160,197296,1,0,0:0:0:0:
288,160,197470,1,8,0:0:0:0:
224,160,197644,1,0,0:0:0:0:
288,160,197817,1,8,0:0:0:0:
224,160,197948,1,0,0:0:0:0:
288,160,198078,1,8,0:0:0:0:
288,160,198209,1,8,0:0:0:0:
224,160,198339,1,0,0:0:0:0:
288,160,198600,1,8,0:0:0:0:
224,160,198861,1,0,0:0:0:0:
288,160,199035,1,8,0:0:0:0:
288,160,199209,1,8,0:0:0:0:
224,160,199383,1,0,0:0:0:0:
224,160,199513,1,0,0:0:0:0:
288,160,199644,1,8,0:0:0:0:
224,160,199774,1,0,0:0:0:0:
288,160,199904,1,8,0:0:0:0:
224,160,200165,1,0,0:0:0:0:
288,160,200296,1,8,0:0:0:0:
224,160,200557,1,0,0:0:0:0:
288,160,200687,1,8,0:0:0:0:
288,160,200948,1,8,0:0:0:0:
288,160,201122,1,8,0:0:0:0:
288,160,201296,1,8,0:0:0:0:
224,160,201469,1,0,0:0:0:0:
288,160,201644,1,8,0:0:0:0:
224,160,201817,1,0,0:0:0:0:
288,160,201991,1,8,0:0:0:0:
224,160,202122,1,0,0:0:0:0:
288,160,202252,1,8,0:0:0:0:
288,160,202383,1,8,0:0:0:0:
224,160,202513,1,0,0:0:0:0:
288,160,202644,1,8,0:0:0:0:
288,160,202774,1,8,0:0:0:0:
288,160,203035,1,8,0:0:0:0:
224,160,203209,1,0,0:0:0:0:
224,160,203383,1,0,0:0:0:0:
288,160,203557,1,8,0:0:0:0:
288,160,203817,1,8,0:0:0:0:
224,160,203883,1,0,0:0:0:0:
224,160,203948,1,0,0:0:0:0:
288,224,204078,1,12,0:0:0:0:
224,160,204339,1,0,0:0:0:0:
288,160,204470,1,8,0:0:0:0:
224,160,204730,1,0,0:0:0:0:
288,160,204861,1,8,0:0:0:0:
288,160,205122,1,8,0:0:0:0:
288,160,205296,1,8,0:0:0:0:
288,160,205470,1,8,0:0:0:0:
288,160,205644,1,0,0:0:0:0:
288,160,205817,1,8,0:0:0:0:
224,160,205991,1,0,0:0:0:0:
288,160,206165,1,8,0:0:0:0:
224,160,206296,1,0,0:0:0:0:
288,160,206426,1,8,0:0:0:0:
288,160,206557,1,8,0:0:0:0:
224,160,206687,1,0,0:0:0:0:
288,160,206817,1,8,0:0:0:0:
288,160,206948,1,8,0:0:0:0:
224,160,207209,1,0,0:0:0:0:
288,160,207383,1,8,0:0:0:0:
288,160,207557,1,8,0:0:0:0:
224,160,207730,1,0,0:0:0:0:
224,160,207861,1,0,0:0:0:0:
288,160,207991,1,8,0:0:0:0:
224,160,208122,1,0,0:0:0:0:
288,160,208252,1,8,0:0:0:0:
224,160,208513,1,0,0:0:0:0:
288,160,208644,1,8,0:0:0:0:
224,160,208904,1,0,0:0:0:0:
288,160,209035,1,8,0:0:0:0:
288,160,209296,1,8,0:0:0:0:
224,160,209470,1,0,0:0:0:0:
288,160,209644,1,8,0:0:0:0:
288,160,209817,1,8,0:0:0:0:
288,160,209991,1,8,0:0:0:0:
224,160,210165,1,0,0:0:0:0:
288,160,210339,1,8,0:0:0:0:
224,160,210600,1,0,0:0:0:0:
288,160,210730,1,8,0:0:0:0:
224,160,210861,1,0,0:0:0:0:
288,160,211122,1,8,0:0:0:0:
288,224,211383,1,12,0:0:0:0:
288,160,211644,1,8,0:0:0:0:
224,160,211774,1,0,0:0:0:0:
288,160,211904,1,8,0:0:0:0:
224,160,212165,1,0,0:0:0:0:
288,224,212426,1,12,0:0:0:0:
288,160,213209,1,8,0:0:0:0:
288,160,213469,1,8,0:0:0:0:
224,160,213730,1,0,0:0:0:0:
288,160,213861,1,8,0:0:0:0:
288,160,214122,1,8,0:0:0:0:
224,160,214252,1,0,0:0:0:0:
288,160,214513,1,8,0:0:0:0:
288,160,215295,1,8,0:0:0:0:
288,160,215556,1,8,0:0:0:0:
224,160,215817,1,0,0:0:0:0:
288,160,215948,1,8,0:0:0:0:
288,160,216209,1,8,0:0:0:0:
224,160,216339,1,0,0:0:0:0:
288,160,216600,1,8,0:0:0:0:
288,160,217382,1,8,0:0:0:0:
288,160,217643,1,8,0:0:0:0:
224,160,217904,1,0,0:0:0:0:
288,160,218035,1,8,0:0:0:0:
288,160,218295,1,8,0:0:0:0:
224,160,218426,1,0,0:0:0:0:
288,224,218687,1,12,0:0:0:0:
288,224,218817,1,12,0:0:0:0:
288,224,219078,1,12,0:0:0:0:
288,224,219209,1,12,0:0:0:0:
288,224,219469,1,12,0:0:0:0:
288,224,219600,1,12,0:0:0:0:
288,224,219861,1,12,0:0:0:0:
288,224,219991,1,12,0:0:0:0:
288,224,220252,1,12,0:0:0:0:
288,224,220513,1,12,0:0:0:0:
224,160,220774,1,0,0:0:0:0:
288,160,221035,1,8,0:0:0:0:
224,160,221165,1,0,0:0:0:0:
288,160,221295,1,8,0:0:0:0:
288,160,221426,1,8,0:0:0:0:
224,160,221687,1,0,0:0:0:0:
288,160,221752,1,8,0:0:0:0:
288,160,221948,1,8,0:0:0:0:
224,160,222078,1,0,0:0:0:0:
288,224,222339,1,12,0:0:0:0:
