osu file format v12

[General]
AudioFilename: Gensou no Satellite.mp3
AudioLeadIn: 0
PreviewTime: 88643
Countdown: 0
SampleSet: Normal
StackLeniency: 0.7
Mode: 1
LetterboxInBreaks: 0
WidescreenStoryboard: 0

[Editor]
Bookmarks: 14296,41296,49643
DistanceSpacing: 0.9
BeatDivisor: 4
GridSize: 32
TimelineZoom: 1.7

[Metadata]
Title:Gensou no Satellite
TitleUnicode:幻想のサテライト
Artist:Comp
ArtistUnicode:コンプ
Creator:Nwolf
Version:Futsuu
Source:
Tags:幻想ホモ・ルーデンス magical astronomy buta-otome homo ludens greenwich in the sky ranko ZUN team shanghai alice touhou fantasy
BeatmapID:318444
BeatmapSetID:122757

[Difficulty]
HPDrainRate:4
CircleSize:4
OverallDifficulty:4
ApproachRate:7
SliderMultiplier:1.2
SliderTickRate:1

[Events]
//Background and Video events
0,0,"Greenwich.jpg",0,0
//Break Periods
//Storyboard Layer 0 (Background)
//Storyboard Layer 1 (Fail)
//Storyboard Layer 2 (Pass)
//Storyboard Layer 3 (Foreground)
//Storyboard Sound Samples
//Background Colour Transformations
3,100,163,162,255

[TimingPoints]
14296,750,4,1,0,55,1,0
14296,-61.3496932515337,4,1,0,55,0,0
41296,260.869565217391,4,1,0,70,1,0
49643,-100,4,1,0,85,0,1
57991,-100,4,1,0,85,0,0
59948,-100,4,1,0,50,0,0
62426,-100,4,1,0,85,0,0
89295,-100,4,1,0,85,0,1
105991,-100,4,1,0,85,0,0
107948,-100,4,1,0,50,0,0
112122,-100,4,1,0,85,0,0
137295,-100,4,1,0,85,0,1
153991,-100,4,1,0,85,0,0
178904,-100,4,1,0,35,0,0
187252,-100,4,1,0,70,0,0
194687,-100,4,1,0,80,0,0
195730,-100,4,1,0,85,0,1
212426,-100,4,1,0,65,0,0
212556,-100,4,1,0,35,0,0
218687,-100,4,1,0,85,0,0

[HitObjects]
288,224,14296,5,12,0:0:0:0:
288,160,15046,1,8,0:0:0:0:
288,160,15796,1,8,0:0:0:0:
288,160,16546,1,8,0:0:0:0:
288,160,16921,1,8,0:0:0:0:
224,160,17296,1,0,0:0:0:0:
288,160,18046,1,8,0:0:0:0:
288,160,18796,1,8,0:0:0:0:
288,160,19546,1,8,0:0:0:0:
224,160,19921,1,0,0:0:0:0:
288,224,20296,1,12,0:0:0:0:
288,160,21046,1,8,0:0:0:0:
288,160,21796,1,8,0:0:0:0:
288,160,22546,1,8,0:0:0:0:
224,160,22921,1,0,0:0:0:0:
288,160,23296,1,8,0:0:0:0:
288,160,24046,1,8,0:0:0:0:
288,160,24796,1,8,0:0:0:0:
288,160,25546,1,8,0:0:0:0:
288,160,25921,1,8,0:0:0:0:
224,224,26296,1,4,0:0:0:0:
224,160,27046,1,0,0:0:0:0:
288,160,27796,1,8,0:0:0:0:
288,160,28546,1,8,0:0:0:0:
288,160,28921,1,8,0:0:0:0:
224,160,29296,1,0,0:0:0:0:
288,160,30046,1,8,0:0:0:0:
288,160,30421,1,8,0:0:0:0:
224,160,30796,1,0,0:0:0:0:
224,160,31546,1,0,0:0:0:0:
288,224,32296,1,12,0:0:0:0:
288,160,33046,1,8,0:0:0:0:
288,160,33796,1,8,0:0:0:0:
288,160,34171,1,8,0:0:0:0:
288,160,34546,1,8,0:0:0:0:
288,160,34921,1,8,0:0:0:0:
224,160,35296,1,0,0:0:0:0:
288,160,36046,1,8,0:0:0:0:
256,192,36796,12,8,38296,0:0:0:0:
256,192,41296,5,12,0:0:0:0:
256,192,43382,1,8,0:0:0:0:
256,192,45209,1,0,0:0:0:0:
256,192,45469,1,8,0:0:0:0:
256,192,47295,1,0,0:0:0:0:
256,192,47556,1,8,0:0:0:0:
224,224,49122,1,4,0:0:0:0:
288,224,49643,1,12,0:0:0:0:
288,160,50035,1,8,0:0:0:0:
288,160,50426,1,8,0:0:0:0:
224,160,50687,1,0,0:0:0:0:
224,160,51209,1,0,0:0:0:0:
288,160,51730,1,8,0:0:0:0:
288,160,52122,1,8,0:0:0:0:
288,160,52513,1,8,0:0:0:0:
224,160,52774,1,0,0:0:0:0:
288,160,53295,1,8,0:0:0:0:
288,160,53817,1,8,0:0:0:0:
288,160,54209,1,8,0:0:0:0:
288,160,54600,1,8,0:0:0:0:
224,160,54861,1,0,0:0:0:0:
224,160,55382,1,0,0:0:0:0:
288,160,55904,1,8,0:0:0:0:
224,160,56426,1,0,0:0:0:0:
288,160,56948,1,8,0:0:0:0:
288,160,57469,1,8,0:0:0:0:
288,160,57991,1,0,0:0:0:0:
288,160,59035,1,8,0:0:0:0:
288,160,59295,1,8,0:0:0:0:
288,160,59556,1,8,0:0:0:0:
288,224,60078,1,12,0:0:0:0:
224,160,61122,1,0,0:0:0:0:
288,160,63209,1,8,0:0:0:0:
288,160,63730,1,8,0:0:0:0:
224,224,64252,1,4,0:0:0:0:
288,160,64513,1,8,0:0:0:0:
288,160,64774,1,8,0:0:0:0:
288,160,65035,1,8,0:0:0:0:
288,160,65556,1,8,0:0:0:0:
224,160,65817,1,0,0:0:0:0:
224,160,66339,1,0,0:0:0:0:
288,160,66600,1,8,0:0:0:0:
288,160,66861,1,8,0:0:0:0:
288,160,67122,1,8,0:0:0:0:
224,160,67643,1,0,0:0:0:0:
224,160,67904,1,0,0:0:0:0:
224,160,68426,1,0,0:0:0:0:
288,160,68687,1,8,0:0:0:0:
288,160,68948,1,8,0:0:0:0:
288,160,69209,1,8,0:0:0:0:
288,160,69730,1,8,0:0:0:0:
224,160,69991,1,0,0:0:0:0:
288,160,70513,1,8,0:0:0:0:
288,160,70774,1,8,0:0:0:0:
224,160,71035,1,0,0:0:0:0:
288,160,71556,1,8,0:0:0:0:
224,160,72600,1,0,0:0:0:0:
288,160,72861,1,8,0:0:0:0:
288,160,73122,1,8,0:0:0:0:
288,160,73382,1,8,0:0:0:0:
288,160,73904,1,8,0:0:0:0:
224,160,74165,1,0,0:0:0:0:
224,160,74687,1,0,0:0:0:0:
288,160,74948,1,8,0:0:0:0:
288,160,75209,1,8,0:0:0:0:
288,160,75469,1,8,0:0:0:0:
224,160,75991,1,0,0:0:0:0:
224,160,76252,1,0,0:0:0:0:
224,160,76774,1,0,0:0:0:0:
288,160,77035,1,8,0:0:0:0:
288,160,77295,1,8,0:0:0:0:
288,160,77556,1,8,0:0:0:0:
288,160,78078,1,8,0:0:0:0:
224,160,78339,1,0,0:0:0:0:
224,160,78861,1,0,0:0:0:0:
288,160,79122,1,8,0:0:0:0:
288,160,79382,1,8,0:0:0:0:
288,160,79643,1,8,0:0:0:0:
288,160,80165,1,8,0:0:0:0:
224,160,80426,1,0,0:0:0:0:
224,160,80687,1,0,0:0:0:0:
288,224,80948,1,12,0:0:0:0:
288,160,81469,1,8,0:0:0:0:
224,160,81991,1,0,0:0:0:0:
288,160,82513,1,8,0:0:0:0:
288,160,83035,1,8,0:0:0:0:
288,160,83556,1,8,0:0:0:0:
224,160,84078,1,0,0:0:0:0:
224,160,84861,1,0,0:0:0:0:
224,160,85122,1,0,0:0:0:0:
288,160,85643,1,8,0:0:0:0:
288,160,85904,1,8,0:0:0:0:
224,160,86165,1,0,0:0:0:0:
288,160,86687,1,8,0:0:0:0:
224,160,87209,1,0,0:0:0:0:
288,160,88252,1,8,0:0:0:0:
288,160,88774,1,8,0:0:0:0:
288,224,89295,5,12,0:0:0:0:
288,160,89687,1,8,0:0:0:0:
288,160,90078,1,8,0:0:0:0:
224,160,90339,1,0,0:0:0:0:
224,160,90861,1,0,0:0:0:0:
288,160,91382,1,8,0:0:0:0:
288,160,91774,1,8,0:0:0:0:
288,160,92165,1,8,0:0:0:0:
224,160,92426,1,0,0:0:0:0:
288,160,92948,1,8,0:0:0:0:
288,160,93469,1,8,0:0:0:0:
288,160,93861,1,8,0:0:0:0:
288,160,94252,1,8,0:0:0:0:
224,160,94513,1,0,0:0:0:0:
224,160,95035,1,0,0:0:0:0:
288,160,95556,1,8,0:0:0:0:
288,160,95948,1,8,0:0:0:0:
288,160,96339,1,8,0:0:0:0:
224,160,96600,1,0,0:0:0:0:
288,160,97122,1,8,0:0:0:0:
288,224,97643,1,12,0:0:0:0:
288,160,98035,1,8,0:0:0:0:
288,160,98426,1,8,0:0:0:0:
224,160,98687,1,0,0:0:0:0:
224,160,99209,1,0,0:0:0:0:
288,160,99730,1,8,0:0:0:0:
288,160,100122,1,8,0:0:0:0:
288,160,100513,1,8,0:0:0:0:
224,160,100774,1,0,0:0:0:0:
288,160,101295,1,8,0:0:0:0:
288,160,101817,1,8,0:0:0:0:
288,160,102209,1,8,0:0:0:0:
288,160,102600,1,8,0:0:0:0:
224,160,102861,1,0,0:0:0:0:
224,160,103382,1,0,0:0:0:0:
288,160,103904,1,8,0:0:0:0:
224,160,104426,1,0,0:0:0:0:
288,160,104948,1,8,0:0:0:0:
256,192,105991,12,0,107556,0:0:0:0:
288,224,108078,5,12,0:0:0:0:
288,160,108600,1,8,0:0:0:0:
288,160,109643,1,8,0:0:0:0:
288,160,110687,1,8,0:0:0:0:
288,160,111730,1,8,0:0:0:0:
224,224,112252,1,4,0:0:0:0:
288,160,112513,1,8,0:0:0:0:
288,160,112774,1,8,0:0:0:0:
288,160,113035,1,8,0:0:0:0:
288,160,113556,1,8,0:0:0:0:
224,160,113817,1,0,0:0:0:0:
224,160,114339,1,0,0:0:0:0:
288,160,114600,1,8,0:0:0:0:
288,160,114861,1,8,0:0:0:0:
288,160,115122,1,8,0:0:0:0:
224,160,115643,1,0,0:0:0:0:
224,160,115904,1,0,0:0:0:0:
224,160,116426,1,0,0:0:0:0:
288,160,116687,1,8,0:0:0:0:
288,160,116948,1,8,0:0:0:0:
288,160,117209,1,8,0:0:0:0:
288,160,117730,1,8,0:0:0:0:
224,160,117991,1,0,0:0:0:0:
288,160,118513,1,8,0:0:0:0:
288,160,118774,1,8,0:0:0:0:
224,160,119035,1,0,0:0:0:0:
288,160,119556,1,8,0:0:0:0:
224,160,120600,1,0,0:0:0:0:
288,160,120861,1,8,0:0:0:0:
288,160,121122,1,8,0:0:0:0:
288,160,121382,1,8,0:0:0:0:
288,160,121904,1,8,0:0:0:0:
224,160,122165,1,0,0:0:0:0:
224,160,122687,1,0,0:0:0:0:
288,160,122948,1,8,0:0:0:0:
288,160,123209,1,8,0:0:0:0:
288,160,123469,1,8,0:0:0:0:
224,160,123991,1,0,0:0:0:0:
224,160,124252,1,0,0:0:0:0:
224,160,124774,1,0,0:0:0:0:
288,160,125035,1,8,0:0:0:0:
288,160,125295,1,8,0:0:0:0:
288,160,125556,1,8,0:0:0:0:
288,160,126078,1,8,0:0:0:0:
224,160,126339,1,0,0:0:0:0:
224,160,126861,1,0,0:0:0:0:
288,160,127122,1,8,0:0:0:0:
288,160,127382,1,8,0:0:0:0:
288,160,127643,1,8,0:0:0:0:
288,160,128165,1,8,0:0:0:0:
224,160,128426,1,0,0:0:0:0:
224,160,128687,1,0,0:0:0:0:
288,224,128948,1,12,0:0:0:0:
288,160,129469,1,8,0:0:0:0:
224,160,129991,1,0,0:0:0:0:
288,160,130513,1,8,0:0:0:0:
288,160,131035,1,8,0:0:0:0:
288,160,131556,1,8,0:0:0:0:
224,160,132078,1,0,0:0:0:0:
224,160,132600,1,0,0:0:0:0:
288,160,132861,1,8,0:0:0:0:
288,160,133122,1,8,0:0:0:0:
224,160,133643,1,0,0:0:0:0:
224,160,133904,1,0,0:0:0:0:
288,160,134165,1,8,0:0:0:0:
288,160,134687,1,8,0:0:0:0:
224,224,135209,1,4,0:0:0:0:
288,160,136252,1,8,0:0:0:0:
288,224,137295,5,12,0:0:0:0:
288,160,137687,1,8,0:0:0:0:
288,160,138078,1,8,0:0:0:0:
224,160,138339,1,0,0:0:0:0:
224,160,138861,1,0,0:0:0:0:
288,160,139382,1,8,0:0:0:0:
288,160,139774,1,8,0:0:0:0:
288,160,140165,1,8,0:0:0:0:
224,160,140426,1,0,0:0:0:0:
288,160,140948,1,8,0:0:0:0:
288,160,141469,1,8,0:0:0:0:
288,160,141861,1,8,0:0:0:0:
288,160,142252,1,8,0:0:0:0:
224,160,142513,1,0,0:0:0:0:
224,160,143035,1,0,0:0:0:0:
288,160,143556,1,8,0:0:0:0:
288,160,143948,1,8,0:0:0:0:
288,160,144339,1,8,0:0:0:0:
224,160,144600,1,0,0:0:0:0:
288,160,145122,1,8,0:0:0:0:
288,160,145643,1,8,0:0:0:0:
288,160,146035,1,8,0:0:0:0:
288,160,146426,1,8,0:0:0:0:
224,160,146687,1,0,0:0:0:0:
224,160,147209,1,0,0:0:0:0:
288,160,147730,1,8,0:0:0:0:
288,160,148122,1,8,0:0:0:0:
288,160,148513,1,8,0:0:0:0:
224,160,148774,1,0,0:0:0:0:
288,160,149295,1,8,0:0:0:0:
288,160,149817,1,8,0:0:0:0:
288,160,150209,1,8,0:0:0:0:
288,160,150600,1,8,0:0:0:0:
224,160,150861,1,0,0:0:0:0:
224,160,151382,1,0,0:0:0:0:
288,160,151904,1,8,0:0:0:0:
224,160,152426,1,0,0:0:0:0:
288,160,152948,1,8,0:0:0:0:
224,224,153991,1,4,0:0:0:0:
288,160,154382,1,8,0:0:0:0:
288,160,154774,1,8,0:0:0:0:
224,160,155035,1,0,0:0:0:0:
288,160,155426,1,8,0:0:0:0:
288,160,155817,1,8,0:0:0:0:
224,160,156078,1,0,0:0:0:0:
288,160,156600,1,8,0:0:0:0:
224,160,157122,1,0,0:0:0:0:
288,160,157643,1,8,0:0:0:0:
224,160,158165,1,0,0:0:0:0:
288,160,158556,1,8,0:0:0:0:
288,160,158948,1,8,0:0:0:0:
224,160,159209,1,0,0:0:0:0:
288,160,159600,1,8,0:0:0:0:
288,160,159991,1,8,0:0:0:0:
224,160,160252,1,0,0:0:0:0:
288,160,160774,1,8,0:0:0:0:
288,160,161295,1,0,0:0:0:0:
288,160,161817,1,8,0:0:0:0:
288,224,162339,1,12,0:0:0:0:
288,160,162730,1,8,0:0:0:0:
224,160,163122,1,0,0:0:0:0:
288,160,163382,1,8,0:0:0:0:
288,160,163774,1,8,0:0:0:0:
288,160,164165,1,8,0:0:0:0:
288,224,164426,1,12,0:0:0:0:
288,160,164817,1,8,0:0:0:0:
288,160,165209,1,8,0:0:0:0:
224,160,165469,1,0,0:0:0:0:
288,160,165861,1,8,0:0:0:0:
288,160,166252,1,8,0:0:0:0:
224,224,166513,1,4,0:0:0:0:
288,160,167035,1,8,0:0:0:0:
224,160,167556,1,0,0:0:0:0:
288,160,168078,1,8,0:0:0:0:
224,160,168600,1,0,0:0:0:0:
224,160,169122,1,0,0:0:0:0:
224,160,169643,1,0,0:0:0:0:
224,160,169904,1,0,0:0:0:0:
224,160,170165,1,0,0:0:0:0:
288,224,170687,5,12,0:0:0:0:
288,160,171730,1,8,0:0:0:0:
224,160,172252,1,0,0:0:0:0:
224,160,172774,1,0,0:0:0:0:
288,160,173035,1,8,0:0:0:0:
288,160,173556,1,8,0:0:0:0:
224,160,173817,1,0,0:0:0:0:
224,160,174339,1,0,0:0:0:0:
224,160,174861,1,0,0:0:0:0:
288,160,175122,1,8,0:0:0:0:
288,160,175643,1,8,0:0:0:0:
224,160,175904,1,0,0:0:0:0:
288,160,176426,1,8,0:0:0:0:
288,160,176948,1,8,0:0:0:0:
288,160,177469,1,8,0:0:0:0:
288,160,177991,1,8,0:0:0:0:
288,160,179035,1,8,0:0:0:0:
224,160,179556,1,0,0:0:0:0:
224,160,180078,1,0,0:0:0:0:
224,160,181122,1,0,0:0:0:0:
288,160,181643,1,8,0:0:0:0:
288,160,182165,1,8,0:0:0:0:
224,160,182687,1,0,0:0:0:0:
288,160,183209,1,8,0:0:0:0:
224,160,183730,1,0,0:0:0:0:
224,160,184252,1,0,0:0:0:0:
288,160,185295,1,8,0:0:0:0:
288,160,186339,1,8,0:0:0:0:
224,160,186861,1,0,0:0:0:0:
288,224,187382,1,12,0:0:0:0:
224,160,188165,1,0,0:0:0:0:
224,160,188426,1,0,0:0:0:0:
288,160,189209,1,8,0:0:0:0:
288,160,189469,1,8,0:0:0:0:
224,160,190252,1,0,0:0:0:0:
224,160,190513,1,0,0:0:0:0:
288,160,191295,1,8,0:0:0:0:
288,160,191556,1,8,0:0:0:0:
224,160,192339,1,0,0:0:0:0:
224,160,192600,1,0,0:0:0:0:
288,160,193382,1,8,0:0:0:0:
288,160,193643,1,8,0:0:0:0:
224,160,194165,1,0,0:0:0:0:
288,160,194687,1,8,0:0:0:0:
288,160,195209,1,8,0:0:0:0:
288,224,195730,5,12,0:0:0:0:
288,160,196122,1,8,0:0:0:0:
288,160,196513,1,8,0:0:0:0:
224,160,196774,1,0,0:0:0:0:
288,160,197296,1,0,0:0:0:0:
288,160,197817,1,8,0:0:0:0:
288,160,198209,1,8,0:0:0:0:
288,160,198600,1,8,0:0:0:0:
224,160,198861,1,0,0:0:0:0:
288,160,199383,1,8,0:0:0:0:
288,160,199904,1,8,0:0:0:0:
288,160,200296,1,8,0:0:0:0:
288,160,200687,1,8,0:0:0:0:
224,160,200948,1,0,0:0:0:0:
224,160,201470,1,0,0:0:0:0:
288,160,201991,1,8,0:0:0:0:
288,160,202383,1,8,0:0:0:0:
288,160,202774,1,8,0:0:0:0:
224,160,203035,1,0,0:0:0:0:
288,160,203557,1,8,0:0:0:0:
288,224,204078,1,12,0:0:0:0:
288,160,204470,1,8,0:0:0:0:
288,160,204861,1,8,0:0:0:0:
224,160,205122,1,0,0:0:0:0:
224,160,205643,1,0,0:0:0:0:
288,160,206165,1,8,0:0:0:0:
288,160,206557,1,8,0:0:0:0:
288,160,206948,1,8,0:0:0:0:
224,160,207209,1,0,0:0:0:0:
288,160,207730,1,8,0:0:0:0:
288,160,208252,1,8,0:0:0:0:
288,160,208644,1,8,0:0:0:0:
288,160,209035,1,8,0:0:0:0:
224,160,209295,1,0,0:0:0:0:
224,160,209817,1,0,0:0:0:0:
288,160,210339,1,8,0:0:0:0:
224,160,210861,1,0,0:0:0:0:
288,160,211383,1,8,0:0:0:0:
288,224,212426,1,12,0:0:0:0:
288,160,214513,1,8,0:0:0:0:
288,160,216600,1,8,0:0:0:0:
288,224,218687,1,12,0:0:0:0:
288,160,219078,1,8,0:0:0:0:
288,160,219469,1,8,0:0:0:0:
288,160,219861,1,8,0:0:0:0:
288,160,220252,1,8,0:0:0:0:
288,160,220513,1,8,0:0:0:0:
224,160,220774,1,0,0:0:0:0:
288,160,221295,1,8,0:0:0:0:
288,160,221687,1,8,0:0:0:0:
224,160,222078,1,0,0:0:0:0:
224,224,222339,1,4,0:0:0:0:
