osu file format v9

[General]
AudioFilename: Commercial Club Crew vs Clubhunter - Sakura Girl.mp3
AudioLeadIn: 0
PreviewTime: 98465
Countdown: 1
SampleSet: Soft
StackLeniency: 0.4
Mode: 0
LetterboxInBreaks: 1

[Editor]
DistanceSpacing: 1
BeatDivisor: 4
GridSize: 8

[Metadata]
Title:Sakura Girl
Artist:Commercial Club Crew vs Clubmaster
Creator:ztrot
Version:Hard
Source:
Tags:Rokodo Roko-Don Zelos

[Difficulty]
HPDrainRate:8
CircleSize:4
OverallDifficulty:8
ApproachRate:8
SliderMultiplier:2
SliderTickRate:2

[Events]
//Background and Video events
0,0,"BG.png"
//Break Periods
2,30626,43187
2,70713,83750
//Storyboard Layer 0 (Background)
//Storyboard Layer 1 (Fail)
//Storyboard Layer 2 (Pass)
//Storyboard Layer 3 (Foreground)
//Storyboard Sound Samples
//Background Colour Transformations
3,100,163,162,255

[TimingPoints]
3382,422.535211267606,4,2,1,85,1,0
9931,-100,4,2,2,86,0,0
10670,-100,4,2,0,85,0,0
10882,-100,4,2,2,86,0,0
11515,-100,4,2,0,86,0,0
11727,-100,4,2,2,85,0,0
12360,-100,4,2,0,100,0,0
12572,-100,4,2,2,85,0,0
13205,-100,4,2,0,85,0,0
13417,-100,4,2,2,86,0,0
28628,-100,4,1,0,85,0,0
28945,-100,4,2,0,85,0,0
30318,-100,4,1,1,87,0,0
84510,-100,4,1,1,86,0,1
98241,-100,4,2,1,85,0,0
111445,-100,4,2,2,0,0,0
112712,-100,4,1,0,64,0,0
113241,-100,4,1,0,85,0,1
119790,-100,4,1,2,85,0,1
126656,-100,4,1,2,100,0,0
126762,-100,4,1,2,100,0,1
140177,-100,4,1,2,100,0,0
140283,-100,4,1,2,100,0,1
140389,-100,4,1,2,100,0,0

[Colours]
Combo1 : 157,255,255
Combo2 : 255,164,209
Combo3 : 88,88,252
Combo4 : 52,233,7

[HitObjects]
256,48,3382,2,0,B|136:48|136:176,1,200,0|8
256,152,4015,1,2
256,256,4227,2,0,B|376:256|376:128,1,200,0|8
312,56,4860,1,2
200,56,5072,1,0
104,320,5494,5,8
152,232,5705,2,0,B|200:200|248:232,1,100,2|0
200,320,6128,1,0
296,320,6339,2,0,B|344:352|396:316,1,100,8|2
344,232,6762,2,0,B|440:176|416:56,1,200,0|8
416,61,7396,1,0
208,64,7818,5,0
304,64,8029,1,8
176,152,8241,1,2
336,152,8452,1,0
256,336,8874,5,8
328,264,9086,1,2
184,264,9297,1,0
256,80,9720,1,8
144,264,10142,6,0,B|144:176|240:232|256:112,1,200,0|8
256,16,10776,1,2
256,113,10987,2,0,B|272:232|368:176|368:264,1,200,0|8
256,296,11621,1,2
256,296,11832,1,0
88,192,12255,5,8
136,104,12466,2,0,B|184:72|248:112,1,100,2|0
184,192,12889,2,0,B|232:224|288:192,1,100,0|8
328,104,13311,1,2
328,104,13522,2,0,B|440:112|472:232,1,200,0|8
360,208,14156,2,0,B|248:224|248:360,1,200
192,168,15001,6,0,B|240:168,5,25,0|0|0|0|0|0
320,168,15424,2,0,B|280:168,4,25
256,48,15846,1,0
256,48,16058,1,0
256,280,16480,1,0
176,96,16903,6,0,B|136:208|136:208|152:248|208:240,1,200,6|8
256,152,17536,1,0
336,96,17748,2,0,B|376:208|376:208|360:248|304:240,1,200,2|8
256,328,18381,1,0
256,328,18593,1,2
216,64,19015,6,0,B|128:144,1,100,8|2
296,64,19438,2,0,B|384:144,1,100,0|2
256,176,19860,1,8
256,176,20072,1,0
344,223,20283,2,0,B|256:306|165:223,1,200,2|8
256,344,20917,1,0
192,152,21339,5,2
200,40,21551,1,8
320,152,21762,1,2
312,40,21973,1,0
256,344,22396,5,8
256,344,22607,1,0
160,256,22818,1,2
352,256,23241,1,10
256,40,23663,6,0,B|312:80|360:16|456:72,1,200,0|8
376,136,24297,1,2
304,200,24508,2,0,B|216:176|208:256|112:232,1,200,0|8
56,144,25142,1,2
56,48,25353,1,0
256,40,25776,5,8
208,128,25987,1,2
304,128,26198,1,0
256,216,26410,1,2
163,263,26621,5,8
163,263,26832,1,0
163,262,27043,2,0,B|257:325|350:261,1,200,0|8
256,216,27677,1,0
376,72,28100,1,0
304,144,28311,1,0
208,144,28522,1,0
136,72,28734,1,4
256,280,29156,5,0
304,192,29367,1,0
208,192,29579,1,2
304,192,29790,1,0
208,96,30001,1,2
304,192,30212,1,0
304,96,30424,1,4
256,352,43945,5,4
440,280,44367,1,8
472,184,44579,1,0
376,208,44790,1,0
136,208,45212,1,8
72,280,45424,1,0
40,184,45635,1,4
256,32,46058,5,8
256,128,46269,1,0
160,96,46480,1,0
256,128,46691,1,0
352,96,46903,1,8
256,128,47114,1,0
160,192,47325,2,0,B|257:244|353:191,1,200,4|8
352,296,47959,2,0,B|256:344|160:296,1,200
160,296,48593,1,8
160,296,48804,1,0
56,192,49015,5,4
256,24,49438,1,0
456,192,49860,1,4
256,360,50283,1,0
256,192,50705,5,0
80,88,51128,1,8
64,184,51339,1,0
160,152,51551,1,0
352,152,51973,1,8
432,88,52184,1,0
448,184,52396,1,0
256,344,52818,5,8
336,280,53029,1,0
256,224,53241,1,0
176,280,53452,1,0
168,184,53663,1,8
256,224,53874,1,0
344,184,54086,2,0,B|256:96|160:192,1,200,4|8
168,80,54720,2,0,B|255:-8|343:79,1,200,4|0
256,144,55353,1,8
256,248,55565,1,0
256,344,55776,5,0
480,192,56198,1,0
256,40,56621,1,0
32,192,57043,1,0
256,344,57466,6,0,B|160:368|160:288|64:344,1,200,0|8
256,248,58100,1,0
256,344,58311,2,0,B|352:368|352:288|448:344,1,200,0|8
256,248,58945,1,0
256,152,59156,1,4
448,192,59579,5,8
400,104,59790,1,0
304,64,60001,1,0
208,64,60212,1,0
112,104,60424,1,8
64,192,60635,1,0
64,288,60846,6,0,B|160:240|160:336|264:272,1,200,4|8
255,278,61480,2,0,B|350:336|350:240|446:288,1,200
256,176,62114,1,8
256,176,62325,1,0
216,8,62748,5,0
296,8,62959,1,8
176,80,63170,1,4
336,80,63382,1,0
216,144,63593,1,0
296,144,63804,1,8
256,80,64015,1,8
176,80,64227,5,0
112,272,64649,1,8
112,272,64860,1,0
112,272,65072,1,0
400,272,65494,1,8
400,272,65705,1,0
400,272,65917,1,4
312,96,66339,5,8
200,96,66551,1,0
352,96,66762,1,0
160,96,66973,1,0
256,168,67184,1,8
256,168,67396,1,0
168,216,67607,2,0,B|256:304|352:216,1,200,4|8
256,168,68241,1,0
256,368,68663,1,0
256,368,68874,1,0
256,368,69086,1,0
208,280,69297,5,0
304,280,69508,2,0,B|336:280,4,25
208,200,69931,2,0,B|184:200,4,25
304,200,70353,2,0,B|328:200,3,25
256,56,84508,5,0
192,136,84720,1,0
256,216,84931,1,8
320,136,85142,1,0
360,232,85353,5,0
256,328,85565,1,0
152,232,85776,1,8
256,160,85987,5,0
256,160,86093,1,2
256,160,86198,1,2
192,88,86410,1,0
256,160,86621,1,2
328,88,86832,1,0
256,16,87043,2,2,B|144:-40|80:88,1,200
88,176,87677,1,0
88,280,87889,5,2
256,104,88311,1,8
424,280,88734,1,2
424,280,89156,1,10
208,344,89473,5,2
208,344,89579,1,2
304,344,89790,1,0
160,336,90001,1,10
352,336,90212,1,0
152,288,90424,1,2
360,288,90635,1,0
256,240,90846,1,10
256,240,91058,1,2
336,176,91269,5,4
176,176,91691,1,8
376,88,92114,5,0
136,88,92536,1,8
256,32,92853,5,2
256,32,92959,2,2,B|320:32|328:96,1,100
232,120,93381,2,2,B|238:176|302:176,1,100
400,144,93804,2,2,B|464:144|472:208,1,100
376,240,94227,2,2,B|382:296|446:296,1,100,8|2
472,200,94649,5,0
472,200,95072,1,8
40,200,95494,5,0
40,200,95917,1,8
200,320,96339,5,2
320,272,96551,1,0
184,208,96762,1,2
320,144,96973,1,0
256,192,97184,12,4,98029
256,40,98452,5,0
208,128,98663,1,0
304,128,98874,1,0
256,320,99297,1,0
256,120,99720,6,0,B|336:120|376:224|312:272,1,200,0|8
256,208,100353,1,2
256,120,100565,2,0,B|176:120|136:224|200:272,1,200,0|8
256,344,101198,1,2
321,264,101410,2,0,B|379:198|316:112|256:120,1,200,0|8
208,32,102043,5,2
304,32,102255,1,0
192,32,102466,1,0
320,32,102677,1,8
176,32,102889,1,2
344,32,103100,2,0,B|392:88|344:176|240:152,1,200,0|8
257,155,103734,1,2
256,352,104156,5,0
200,264,104367,1,8
312,264,104579,1,2
40,40,105212,5,10
256,176,105635,1,0
472,40,106058,1,10
256,264,106480,6,0,B|176:264|136:160|200:112,1,200,0|8
256,176,107114,1,2
256,264,107325,2,0,B|336:264|376:160|312:112,1,200,0|8
256,40,107959,1,2
190,119,108170,2,0,B|133:186|196:272|256:264,1,200,0|8
304,352,108804,5,2
208,352,109015,1,0
320,352,109227,1,0
192,352,109438,1,8
336,352,109649,1,2
168,352,109860,6,0,B|120:296|168:208|272:232,1,200,0|8
254,228,110494,1,2
256,32,110917,1,0
304,120,111128,1,8
208,120,111339,1,2
256,192,111551,12,4,112818
256,336,113241,6,0,B|376:336|376:208,1,200,0|8
256,232,113874,1,0
256,128,114086,2,0,B|136:128|136:256,1,200,0|8
200,328,114720,1,0
312,328,114931,1,4
408,64,115353,5,8
360,152,115565,2,0,B|312:184|264:152,1,100
312,64,115987,1,0
216,64,116198,2,0,B|168:32|116:68,1,100,8|0
168,152,116621,2,0,B|72:208|96:328,1,200,0|8
96,323,117255,1,0
304,320,117677,5,0
208,320,117889,1,8
336,232,118100,1,0
176,232,118311,1,4
256,48,118734,5,8
184,120,118945,1,0
328,120,119156,1,0
256,304,119579,1,8
368,120,120001,6,0,B|368:208|272:152|256:272,1,200,0|8
256,368,120635,1,0
256,271,120846,2,0,B|240:152|144:208|144:120,1,200,0|8
256,88,121480,1,0
256,88,121691,1,0
424,192,122114,5,8
376,280,122325,2,0,B|328:312|264:272,1,100
328,192,122748,2,0,B|280:160|224:192,1,100,0|8
184,280,123170,1,0
184,280,123381,2,0,B|72:272|40:152,1,200,0|8
152,176,124015,2,0,B|264:160|264:24,1,200
320,216,124860,6,0,B|272:216,5,25
192,216,125283,2,0,B|232:216,4,25
256,336,125705,1,0
256,336,125917,1,0
256,104,126339,1,4
336,288,126762,6,0,B|376:176|376:176|360:136|304:144,1,200,4|8
256,232,127396,1,0
176,288,127607,2,0,B|136:176|136:176|152:136|208:144,1,200,0|8
256,56,128241,1,0
256,56,128452,1,4
296,320,128874,6,0,B|384:240,1,100,8|0
216,320,129297,2,0,B|128:240,1,100
256,208,129720,1,8
256,208,129931,1,0
168,161,130142,2,0,B|256:78|347:161,1,200,4|8
256,40,130776,1,0
320,232,131198,5,0
312,344,131410,1,8
192,232,131621,1,0
200,344,131832,1,0
256,40,132255,5,8
256,40,132466,1,0
352,128,132677,1,4
160,128,133100,1,4
256,344,133522,6,0,B|200:304|152:368|56:312,1,200,0|8
136,248,134156,1,4
208,184,134367,2,0,B|296:208|304:128|400:152,1,200,0|8
456,240,135001,1,0
456,336,135212,1,4
256,344,135635,5,8
304,256,135846,1,0
208,256,136058,1,0
256,168,136269,1,0
349,121,136480,5,8
349,121,136691,1,0
349,122,136903,2,0,B|255:59|162:123,1,200,4|8
256,168,137536,1,0
136,312,137959,1,0
208,240,138170,1,8
304,240,138381,1,8
376,312,138593,1,0
256,192,139015,12,4,140283
