osu file format v5

[General]
AudioFilename: Eyeshield_21_-_Breakthrough_TV_Size.mp3
AudioLeadIn: 0
PreviewTime: -1
Countdown: 1
SampleSet: Normal
StackLeniency: 0.7
Mode: 0
EditorBookmarks: 23443,24677,61607,69582

[Metadata]
Title:Breakthrough
Artist:Coming Century
Creator:jmaeshawn
Version:Hard

[Difficulty]
HPDrainRate:5
CircleSize:5
OverallDifficulty:5
SliderMultiplier:1.4
SliderTickRate:2

[Events]
//Background and Video events
1,0,"eyeshield.avi"
//Break Periods
//Storyboard Layer 0 (Background)
//Storyboard Layer 1 (Failing)
//Storyboard Layer 2 (Passing)
//Storyboard Layer 3 (Foreground)
//Storyboard Sound Samples
//Background Colour Transformations
3,100,163,162,255

[TimingPoints]
870,379.746835443038,4,1,0,100

[Colours]
Combo1 : 236,236,0
Combo2 : 0,248,37
Combo3 : 255,128,0
Combo4 : 248,40,0

[HitObjects]
104,48,13022,2,0,B|416:48,1,280
392,296,14351,1,0
392,208,14541,1,0
248,296,14921,1,0
248,208,15111,1,0
80,208,15491,1,0
104,352,15870,2,0,B|416:352,1,280
200,96,17389,5,0
136,152,17579,1,0
296,96,17959,1,0
360,152,18149,1,0
200,240,18529,1,0
200,368,18908,2,0,B|264:263|352:172|416:152,1,280
64,120,21377,1,0
144,120,21567,1,0
312,120,21946,1,0
392,120,22136,1,0
432,280,22516,1,0
344,280,22706,1,0
192,280,23086,1,0
32,344,23465,2,0,B|456:88,1,490
256,32,25174,6,0,B|256:320,1,280
0,312,26503,1,0
64,256,26693,1,0
232,256,27073,1,0
296,312,27263,1,0
464,312,27643,1,0
296,312,28022,2,0,B|568:64,1,350
304,120,29541,5,0
232,120,29731,1,0
88,232,30111,1,0
160,232,30301,1,0
336,232,30681,1,0
440,360,31060,2,0,B|128:144,1,350
48,112,33529,1,0
176,112,33813,1,0
304,112,34098,1,0
384,112,34288,1,0
304,264,34668,1,0
384,264,34858,1,0
488,136,35238,1,0
432,32,35617,2,0,B|48:32,1,350
48,168,37706,5,0
128,168,37896,1,0
296,168,38276,1,0
464,168,38655,1,0
464,336,39035,1,0
296,336,39415,1,0
128,336,39794,1,0
40,336,39984,1,0
376,376,40744,1,0
376,288,40934,1,0
376,200,41124,1,0
376,112,41313,1,0
504,8,41693,2,0,B|216:8,2,280
248,48,43782,5,0
184,96,43972,1,0
120,144,44162,1,0
56,192,44351,1,0
224,192,44731,1,0
392,192,45111,1,0
400,360,45491,1,0
392,192,45870,1,0
304,192,46060,1,0
216,48,46440,2,0,B|456:48,1,210
432,128,47200,1,0
432,376,47769,1,0
376,312,47959,1,0
208,304,48339,1,0
120,304,48529,1,0
120,136,48908,1,0
312,64,49478,6,0,L|2:65|2:320|304:320,1,840
112,24,52516,2,0,L|352:24,1,210
320,104,53276,2,0,L|88:104,1,210
112,184,54035,2,0,L|424:184,1,280
144,128,55364,5,0
224,128,55554,1,0
304,128,55744,1,0
472,128,56124,1,0
472,296,56503,1,0
384,296,56693,2,0,L|80:296,1,280
104,40,58022,1,0
184,40,58212,1,0
264,40,58402,1,0
344,40,58592,1,0
424,40,58782,1,0
432,208,59162,1,0
360,360,59541,1,0
272,360,59731,2,0,L|272:72,1,280
128,48,61630,6,0,L|129:358|384:358|384:56,1,840
232,40,64668,2,0,L|232:280,1,210
144,248,65427,2,0,L|144:16,1,210
56,40,66187,2,0,L|56:280,1,210
56,336,66946,1,0
304,328,67516,5,0
360,264,67706,1,0
416,200,67896,1,0
408,32,68276,1,0
240,32,68655,1,0
152,32,68845,2,0,L|352:248,1,280
96,192,70174,2,0,L|176:192|168:192,4,70
40,352,71313,1,0
208,352,71693,1,0
120,352,71883,2,0,L|472:96,1,420
208,72,73592,5,0
288,72,73782,1,0
456,72,74162,1,0
456,152,74351,1,0
128,232,75111,1,0
128,160,75301,1,0
144,72,75681,1,0
232,72,75870,1,0
376,72,76250,1,0
432,232,76630,2,0,L|80:232,1,350
240,288,77959,6,0,L|168:288,2,70
256,192,78719,12,4,79289
