osu file format v5

[General]
AudioFilename: Comcast Song.mp3
AudioLeadIn: 3000
PreviewTime: -1
Countdown: 1
SampleSet: Normal
StackLeniency: 0.7
Mode: 0
LetterboxInBreaks: 1
EditorBookmarks: 42662,43162,43662,44162

[Metadata]
Title:Comcast Song
Artist:Comast
Creator:Azu
Version:Hard
Source:
Tags:

[Difficulty]
HPDrainRate:5
CircleSize:5
OverallDifficulty:5
SliderMultiplier:1.2
SliderTickRate:2

[Events]
//Background and Video events
1,0,"Comcast Song.avi"
0,0,"comcast_logo.jpg"
//Break Periods
//Storyboard Layer 0 (Background)
//Storyboard Layer 1 (Failing)
//Storyboard Layer 2 (Passing)
//Storyboard Layer 3 (Foreground)
//Storyboard Sound Samples
//Background Colour Transformations
3,100,0,0,0

[TimingPoints]
2662.71680789664,500,4,1,0,100,1,0
42662,-100,4,1,0,100,0,1

[Colours]
Combo1 : 255,0,128
Combo2 : 0,255,64
Combo3 : 0,0,128
Combo4 : 64,0,64
Combo5 : 128,0,128

[HitObjects]
56,344,2662,2,0,B|32:304|48:264,1,60
72,264,3162,1,8
120,232,3412,2,0,B|168:176|96:112,1,120
64,80,4162,5,0
64,112,4412,1,0
64,144,4662,1,0
64,176,4912,1,0
112,176,5162,6,8,B|208:176,4,60
208,176,6662,5,8
304,176,7162,1,8
400,176,7662,1,8
400,80,8162,1,8
400,80,8412,1,8
352,80,8662,5,0
320,112,8912,1,0
288,80,9162,1,0
288,80,9287,1,0
288,80,9412,1,0
256,112,9662,1,0
224,80,9912,1,0
192,112,10162,1,0
224,144,10412,5,8
224,192,10662,6,0,B|224:264,1,60
224,288,11162,2,0,B|144:288,1,60,0|0
128,288,11662,6,0,B|128:208,1,60
128,192,12162,2,0,B|176:144,1,60
208,152,12662,6,0,B|272:152,1,60
304,152,13162,1,0
336,152,13412,1,0
368,152,13662,6,0,B|368:232,3,60
368,248,14662,5,0
368,248,14912,1,0
328,248,15162,2,0,B|192:248,1,120
168,248,15912,5,0
128,248,16162,1,0
128,208,16412,1,0
128,168,16662,1,8
128,128,16912,5,8
88,128,17162,1,8
88,88,17412,1,8
88,48,17662,1,8
120,48,17912,5,8
120,48,18037,1,8
120,48,18162,1,8
136,80,18412,1,8
168,88,18662,6,0,B|224:136|168:208,1,120
112,192,19412,5,4
40,192,19662,6,0,B|16:256|48:320,1,120
42,308,20412,1,0
80,312,20662,6,4,B|152:312,2,60
80,312,21412,1,8
144,312,21662,6,8,B|296:312,1,150
312,168,22662,1,0
312,48,23162,5,0
433,109,23662,1,0
312,108,24162,1,0
240,112,24662,5,8
200,112,24912,1,8
160,112,25162,1,8
120,112,25412,1,8
32,112,25662,6,8,B|32:200,1,60
32,172,26162,1,8
32,172,26412,1,0
32,264,26662,2,0,B|104:264,1,60
152,264,27162,6,0,B|160:296|216:296,1,60
256,296,27662,2,2,B|296:296|304:256,1,60
304,208,28162,6,0,B|280:176|232:176,1,60
199,179,28662,2,0,B|167:179|151:211,1,60
149,273,29162,6,0,B|144:312|80:312,1,60
50,310,29662,2,0,B|16:296|16:256,1,60
16,200,30162,6,2,B|16:128,1,60
16,80,30662,2,0,B|24:48|72:48,1,60,0|0
120,48,31162,5,8
120,48,31412,1,8
176,48,31662,6,0,B|224:88,1,60
272,112,32162,2,0,B|296:128|336:128,1,60
392,128,32662,1,0
464,128,33162,5,8
464,200,33662,1,8
464,200,33912,1,8
464,232,34162,1,8
464,232,34287,1,8
464,232,34412,1,8
464,304,34662,6,0,B|328:304,1,120
344,304,35412,1,4
288,304,35662,6,0,B|160:304,1,120
168,304,36412,1,4
112,304,36662,5,0
112,304,36787,1,0
112,304,36912,1,0
57,304,37162,1,0
57,304,37412,6,0,B|57:227,1,60
59,188,37912,6,0,B|120:128,1,60
101,145,38412,1,4
162,143,38662,6,0,B|172:176|214:176,6,60
160,81,40412,5,8
233,80,40662,6,0,B|255:104|255:142,5,60
256,193,42162,5,8
255,255,42412,1,8
256,320,42662,6,0,B|168:320,1,60
140,321,43162,1,0
80,320,43412,1,0
80,256,43662,6,0,B|80:176|88:144|104:112,1,120
93,137,44412,1,8
140,65,44662,5,0
240,64,45162,1,0
344,64,45662,1,0
448,64,46162,1,0
448,136,46662,6,8,B|448:208,1,60
389,194,47162,2,8,B|389:122,1,60,8|8
328,132,47662,6,8,B|328:204,1,60
264,192,48162,2,8,B|264:128,1,60
200,192,48662,5,0
144,248,49162,1,0
72,248,49662,1,8
72,248,49912,2,8,B|72:176,1,60
72,188,50412,1,8
72,96,50662,5,8
152,24,51162,1,8
256,24,51662,1,8
368,24,52162,1,8
456,96,52662,5,8
456,168,53162,1,8
456,240,53662,1,8
312,240,54662,6,8,B|312:168|256:128|200:168|200:280,3,240
