osu file format v5

[General]
AudioFilename: Comcast Song.mp3
AudioLeadIn: 3000
PreviewTime: -1
Countdown: 1
SampleSet: Normal
StackLeniency: 0.7
Mode: 0
LetterboxInBreaks: 1
EditorBookmarks: 58912

[Metadata]
Title:Comcast Song
Artist:Comast
Creator:Azu
Version:Easy
Source:
Tags:

[Difficulty]
HPDrainRate:1
CircleSize:3
OverallDifficulty:1
SliderMultiplier:0.8
SliderTickRate:1

[Events]
//Background and Video events
1,0,"Comcast Song.avi"
0,0,"comcast_logo.jpg"
//Break Periods
//Storyboard Layer 0 (Background)
//Storyboard Layer 1 (Failing)
//Storyboard Layer 2 (Passing)
//Storyboard Layer 3 (Foreground)
//Storyboard Sound Samples
5,58912,3,"done.mp3"
//Background Colour Transformations
3,100,0,0,0

[TimingPoints]
2662.71680789664,500,4,1,0,100,1,0
42662,-100,4,1,0,100,0,1

[Colours]
Combo1 : 255,0,128
Combo2 : 0,255,64
Combo3 : 0,0,128
Combo4 : 64,0,64
Combo5 : 128,0,128

[HitObjects]
40,120,2662,1,0
136,120,3162,1,0
232,120,3662,1,0
328,120,4162,1,8
328,216,4662,5,8
232,216,5162,1,8
136,216,5662,1,8
40,216,6162,1,8
40,312,6662,6,0,B|296:312,1,240
376,312,8662,6,2,B|376:200,3,80
376,136,10662,5,0
376,40,11162,1,0
280,80,11662,1,0
280,176,12162,1,0
280,272,12662,6,2,B|168:272,1,80
119,272,13662,2,2,B|223:272,1,80,2|2
296,272,14662,5,0
392,272,15162,1,0
392,176,15662,1,0
392,80,16162,1,0
296,80,16662,6,8,B|232:152,1,80
242,139,17662,2,8,B|168:56,1,80
88,80,18662,6,0,B|88:184|128:232|176:248|248:248,1,240
312,248,20662,5,0
408,248,21162,2,8,B|408:152,1,80
408,72,22162,1,0
312,72,22662,6,8,B|208:72,3,80
136,72,24662,5,0
136,168,25162,1,0
136,264,25662,1,0
232,264,26162,1,8
232,264,26662,6,8,B|232:160,1,80
232,88,27662,1,8
136,88,28162,1,8
40,88,28662,6,0,B|40:192,1,80
40,264,29662,1,0
136,264,30162,1,0
232,264,30662,6,0,B|328:264,1,80
408,256,31662,2,0,B|408:152,1,80
408,80,32662,5,2
304,80,33162,1,2
208,80,33662,1,2
112,80,34162,1,2
112,176,34662,5,0
112,272,35162,1,0
208,272,35662,1,0
208,176,36162,1,0
304,176,36662,5,0
304,272,37162,1,0
400,272,37662,1,0
400,176,38162,1,0
400,176,38662,6,0,B|344:128|288:120|248:120|208:120|152:176,1,240
136,240,40662,6,2,B|112:280|64:296|24:272|24:192|40:144|72:96,1,240
136,72,42662,5,0
224,32,43162,1,0
320,32,43662,1,0
400,80,44162,1,0
400,176,44662,5,0
400,272,45162,2,0,B|296:272,1,80
216,272,46162,1,0
120,272,46662,5,0
120,272,47162,1,0
24,272,47662,1,0
24,272,48162,1,0
24,176,48662,6,4,B|56:120|112:208,3,80
184,200,50662,6,8,B|144:152|200:112,6,80
376,200,54662,6,8,B|416:152|360:96,6,80
