osu file format v14

[General]
AudioFilename: C.S.Port - Fuujin Raijin.mp3
AudioLeadIn: 0
PreviewTime: 133190
Countdown: 0
SampleSet: Soft
StackLeniency: 0.7
Mode: 3
LetterboxInBreaks: 0
SpecialStyle: 0
WidescreenStoryboard: 1

[Editor]
DistanceSpacing: 1.1
BeatDivisor: 4
GridSize: 4
TimelineZoom: 2.799999

[Metadata]
Title:Fuujin Raijin
TitleUnicode:風仁雷仁
Artist:Colorful Sounds Port
ArtistUnicode:カラフル・サウンズ・ポート
Creator:Remillion Cross
Version:8K Extra
Source:
Tags:bms bof 2010 -the revolutionary of war- of fighters groundbreaking long version traditional oriental core shinzo- arzenvald ancul
BeatmapID:615745
BeatmapSetID:270743

[Difficulty]
HPDrainRate:8
CircleSize:8
OverallDifficulty:9
ApproachRate:9
SliderMultiplier:1.4
SliderTickRate:1

[Events]
//Background and Video events
0,0,"bg2.jpg",0,0
//Break Periods
//Storyboard Layer 0 (Background)
//Storyboard Layer 1 (Fail)
//Storyboard Layer 2 (Pass)
//Storyboard Layer 3 (Foreground)
//Storyboard Sound Samples

[TimingPoints]
3050,422.535211267606,4,2,0,5,1,0
3050,-125,4,2,0,5,0,0
8120,-117.647058823529,4,2,0,5,0,0
8965,-111.111111111111,4,2,0,5,0,0
9388,-105.263157894737,4,2,0,5,0,0
9810,-100,4,2,0,5,0,0
14458,-66.6666666666667,4,2,0,5,0,0
14564,-200,4,2,0,5,0,0
14880,-100,4,2,0,5,0,0
57134,-100,4,2,0,5,0,1
74035,-100,4,2,0,5,0,0
116289,-100,4,2,0,5,0,1
133190,-100,4,2,0,5,0,0
161923,-100,4,2,0,5,0,1
178824,-100,4,2,0,5,0,0
192345,452.830188679245,4,2,0,5,1,0
193703,459.770114942529,4,2,0,5,1,0
194162,512.820512820513,4,2,0,5,1,0
194674,476.190476190476,4,2,0,5,1,0
195150,521.739130434783,4,2,0,5,1,0
196193,662.983425414365,4,2,0,5,1,0

[HitObjects]
480,192,3050,128,0,3895:0:0:0:0:
96,192,3050,128,0,3895:0:0:0:0:
160,192,3895,128,0,4740:0:0:0:0:
416,192,3895,128,0,4740:0:0:0:0:
224,192,4740,128,0,5585:0:0:0:0:
352,192,4740,128,0,5585:0:0:0:0:
160,192,5585,128,0,6430:0:0:0:0:
416,192,5585,128,0,6430:0:0:0:0:
96,192,6430,128,0,7275:0:0:0:0:
480,192,6430,128,0,7275:0:0:0:0:
160,192,7275,128,0,8120:0:0:0:0:
416,192,7275,128,0,8120:0:0:0:0:
96,192,8120,128,0,8965:0:0:0:0:
480,192,8120,128,0,8965:0:0:0:0:
224,192,8965,128,0,9810:0:0:0:0:
352,192,8965,128,0,9810:0:0:0:0:
32,192,9810,1,0,0:0:0:0:
96,192,9810,1,0,0:0:0:0:
416,192,9810,1,0,0:0:0:0:
480,192,9810,1,0,0:0:0:0:
288,192,9810,1,0,0:0:0:0:
160,192,10021,1,0,0:0:0:0:
288,192,10021,1,0,0:0:0:0:
480,192,10233,1,0,0:0:0:0:
352,192,10233,1,0,0:0:0:0:
96,192,10233,1,0,0:0:0:0:
224,192,10444,1,0,0:0:0:0:
416,192,10444,1,0,0:0:0:0:
96,192,10655,1,0,0:0:0:0:
160,192,10655,1,0,0:0:0:0:
352,192,10655,1,0,0:0:0:0:
480,192,10655,1,0,0:0:0:0:
96,192,11078,1,0,0:0:0:0:
480,192,11078,1,0,0:0:0:0:
160,192,11289,1,0,0:0:0:0:
416,192,11289,1,0,0:0:0:0:
288,192,11500,1,0,0:0:0:0:
480,192,11500,1,0,0:0:0:0:
96,192,11711,1,0,0:0:0:0:
224,192,11711,1,0,0:0:0:0:
352,192,11711,1,0,0:0:0:0:
32,192,11923,128,0,12345:0:0:0:0:
224,192,11923,1,0,0:0:0:0:
416,192,11923,1,0,0:0:0:0:
480,192,11923,1,0,0:0:0:0:
96,192,12345,1,0,0:0:0:0:
224,192,12345,1,0,0:0:0:0:
352,192,12345,1,0,0:0:0:0:
480,192,12345,1,0,0:0:0:0:
96,192,12979,1,0,0:0:0:0:
416,192,12979,1,0,0:0:0:0:
480,192,12979,1,0,0:0:0:0:
96,192,13190,1,0,0:0:0:0:
160,192,13190,1,0,0:0:0:0:
480,192,13190,1,0,0:0:0:0:
96,192,13613,1,0,0:0:0:0:
416,192,13613,1,0,0:0:0:0:
288,192,13613,1,0,0:0:0:0:
352,192,13824,1,0,0:0:0:0:
160,192,13824,1,0,0:0:0:0:
96,192,14035,1,0,0:0:0:0:
224,192,14035,1,0,0:0:0:0:
288,192,14035,1,0,0:0:0:0:
480,192,14035,1,0,0:0:0:0:
32,192,14458,128,0,14880:0:0:0:0:
480,192,14458,1,0,0:0:0:0:
96,192,14880,1,0,0:0:0:0:
224,192,14880,1,0,0:0:0:0:
288,192,14880,1,0,0:0:0:0:
352,192,14880,1,0,0:0:0:0:
480,192,14880,1,0,0:0:0:0:
160,192,15092,1,0,0:0:0:0:
416,192,15092,1,0,0:0:0:0:
288,192,15092,1,0,0:0:0:0:
224,192,15197,1,0,0:0:0:0:
480,192,15197,1,0,0:0:0:0:
416,192,15303,1,0,0:0:0:0:
352,192,15303,1,0,0:0:0:0:
96,192,15303,1,0,0:0:0:0:
160,192,15303,1,0,0:0:0:0:
224,192,15514,1,0,0:0:0:0:
480,192,15514,1,0,0:0:0:0:
288,192,15514,1,0,0:0:0:0:
416,192,15620,1,0,0:0:0:0:
160,192,15620,1,0,0:0:0:0:
96,192,15726,1,0,0:0:0:0:
224,192,15726,1,0,0:0:0:0:
352,192,15726,1,0,0:0:0:0:
160,192,15937,1,0,0:0:0:0:
480,192,15937,1,0,0:0:0:0:
416,192,15937,1,0,0:0:0:0:
352,192,16042,1,0,0:0:0:0:
224,192,16042,1,0,0:0:0:0:
96,192,16148,1,0,0:0:0:0:
160,192,16148,1,0,0:0:0:0:
416,192,16148,1,0,0:0:0:0:
288,192,16148,1,0,0:0:0:0:
480,192,16359,1,0,0:0:0:0:
224,192,16359,1,0,0:0:0:0:
352,192,16359,1,0,0:0:0:0:
416,192,16465,1,0,0:0:0:0:
160,192,16465,1,0,0:0:0:0:
224,192,16571,1,0,0:0:0:0:
96,192,16571,1,0,0:0:0:0:
352,192,16571,1,0,0:0:0:0:
288,192,16782,1,0,0:0:0:0:
96,192,16782,1,0,0:0:0:0:
480,192,16782,1,0,0:0:0:0:
160,192,16888,1,0,0:0:0:0:
416,192,16888,1,0,0:0:0:0:
480,192,16993,1,0,0:0:0:0:
352,192,16993,1,0,0:0:0:0:
224,192,16993,1,0,0:0:0:0:
96,192,16993,1,0,0:0:0:0:
160,192,17204,1,0,0:0:0:0:
288,192,17204,1,0,0:0:0:0:
416,192,17204,1,0,0:0:0:0:
352,192,17310,1,0,0:0:0:0:
224,192,17310,1,0,0:0:0:0:
96,192,17416,1,0,0:0:0:0:
288,192,17416,1,0,0:0:0:0:
480,192,17416,1,0,0:0:0:0:
160,192,17627,1,0,0:0:0:0:
288,192,17627,1,0,0:0:0:0:
416,192,17627,1,0,0:0:0:0:
224,192,17733,1,0,0:0:0:0:
96,192,17733,1,0,0:0:0:0:
32,192,17838,1,0,0:0:0:0:
160,192,17838,1,0,0:0:0:0:
480,192,17838,1,0,0:0:0:0:
352,192,17838,1,0,0:0:0:0:
32,192,18050,1,0,0:0:0:0:
160,192,18050,1,0,0:0:0:0:
352,192,18050,1,0,0:0:0:0:
480,192,18050,1,0,0:0:0:0:
32,192,18261,1,0,0:0:0:0:
160,192,18261,1,0,0:0:0:0:
352,192,18261,1,0,0:0:0:0:
480,192,18261,1,0,0:0:0:0:
96,192,18472,1,0,0:0:0:0:
224,192,18472,1,0,0:0:0:0:
416,192,18472,1,0,0:0:0:0:
352,192,18578,1,0,0:0:0:0:
160,192,18578,1,0,0:0:0:0:
224,192,18683,1,0,0:0:0:0:
480,192,18683,1,0,0:0:0:0:
288,192,18683,1,0,0:0:0:0:
96,192,18683,1,0,0:0:0:0:
416,192,18895,1,0,0:0:0:0:
160,192,18895,1,0,0:0:0:0:
352,192,18895,1,0,0:0:0:0:
288,192,19000,1,0,0:0:0:0:
96,192,19000,1,0,0:0:0:0:
224,192,19106,1,0,0:0:0:0:
480,192,19106,1,0,0:0:0:0:
416,192,19106,1,0,0:0:0:0:
96,192,19317,1,0,0:0:0:0:
352,192,19317,1,0,0:0:0:0:
288,192,19317,1,0,0:0:0:0:
160,192,19423,1,0,0:0:0:0:
416,192,19423,1,0,0:0:0:0:
96,192,19528,1,0,0:0:0:0:
224,192,19528,1,0,0:0:0:0:
352,192,19528,1,0,0:0:0:0:
480,192,19528,1,0,0:0:0:0:
160,192,19740,1,0,0:0:0:0:
352,192,19740,1,0,0:0:0:0:
480,192,19740,1,0,0:0:0:0:
224,192,19845,1,0,0:0:0:0:
416,192,19845,1,0,0:0:0:0:
96,192,19951,1,0,0:0:0:0:
288,192,19951,1,0,0:0:0:0:
480,192,19951,1,0,0:0:0:0:
160,192,20162,1,0,0:0:0:0:
416,192,20162,1,0,0:0:0:0:
288,192,20162,1,0,0:0:0:0:
96,192,20268,1,0,0:0:0:0:
352,192,20268,1,0,0:0:0:0:
224,192,20373,1,0,0:0:0:0:
480,192,20373,1,0,0:0:0:0:
160,192,20373,1,0,0:0:0:0:
416,192,20373,1,0,0:0:0:0:
224,192,20585,1,0,0:0:0:0:
480,192,20585,1,0,0:0:0:0:
352,192,20585,1,0,0:0:0:0:
160,192,20690,1,0,0:0:0:0:
416,192,20690,1,0,0:0:0:0:
96,192,20796,1,0,0:0:0:0:
352,192,20796,1,0,0:0:0:0:
224,192,20796,1,0,0:0:0:0:
96,192,21007,1,0,0:0:0:0:
480,192,21007,1,0,0:0:0:0:
288,192,21007,1,0,0:0:0:0:
160,192,21078,1,0,0:0:0:0:
416,192,21113,1,0,0:0:0:0:
224,192,21148,1,0,0:0:0:0:
288,192,21219,1,0,0:0:0:0:
480,192,21219,1,0,0:0:0:0:
352,192,21219,1,0,0:0:0:0:
96,192,21219,1,0,0:0:0:0:
416,192,21430,1,0,0:0:0:0:
480,192,21430,1,0,0:0:0:0:
96,192,21430,1,0,0:0:0:0:
352,192,21500,1,0,0:0:0:0:
160,192,21535,1,0,0:0:0:0:
288,192,21571,1,0,0:0:0:0:
224,192,21641,1,0,0:0:0:0:
32,192,21641,1,0,0:0:0:0:
96,192,21641,1,0,0:0:0:0:
480,192,21641,1,0,0:0:0:0:
416,192,21641,1,0,0:0:0:0:
352,192,21747,1,0,0:0:0:0:
160,192,21852,1,0,0:0:0:0:
288,192,21852,1,0,0:0:0:0:
480,192,21852,1,0,0:0:0:0:
416,192,21958,1,0,0:0:0:0:
224,192,21958,1,0,0:0:0:0:
96,192,22064,1,0,0:0:0:0:
352,192,22064,1,0,0:0:0:0:
160,192,22064,1,0,0:0:0:0:
480,192,22064,1,0,0:0:0:0:
224,192,22169,1,0,0:0:0:0:
416,192,22275,1,0,0:0:0:0:
160,192,22275,1,0,0:0:0:0:
288,192,22275,1,0,0:0:0:0:
96,192,22380,1,0,0:0:0:0:
480,192,22380,1,0,0:0:0:0:
160,192,22486,1,0,0:0:0:0:
224,192,22486,1,0,0:0:0:0:
416,192,22486,1,0,0:0:0:0:
352,192,22592,1,0,0:0:0:0:
96,192,22697,1,0,0:0:0:0:
224,192,22697,1,0,0:0:0:0:
480,192,22697,1,0,0:0:0:0:
416,192,22803,1,0,0:0:0:0:
288,192,22803,1,0,0:0:0:0:
160,192,22909,1,0,0:0:0:0:
224,192,22909,1,0,0:0:0:0:
352,192,22909,1,0,0:0:0:0:
480,192,22909,1,0,0:0:0:0:
416,192,23014,1,0,0:0:0:0:
288,192,23120,1,0,0:0:0:0:
96,192,23120,1,0,0:0:0:0:
224,192,23120,1,0,0:0:0:0:
160,192,23226,1,0,0:0:0:0:
416,192,23226,1,0,0:0:0:0:
352,192,23331,1,0,0:0:0:0:
96,192,23331,1,0,0:0:0:0:
480,192,23331,1,0,0:0:0:0:
288,192,23437,1,0,0:0:0:0:
416,192,23542,1,0,0:0:0:0:
224,192,23542,1,0,0:0:0:0:
160,192,23542,1,0,0:0:0:0:
352,192,23648,1,0,0:0:0:0:
96,192,23648,1,0,0:0:0:0:
160,192,23754,1,0,0:0:0:0:
288,192,23754,1,0,0:0:0:0:
480,192,23754,1,0,0:0:0:0:
224,192,23754,1,0,0:0:0:0:
416,192,23859,1,0,0:0:0:0:
352,192,23965,1,0,0:0:0:0:
96,192,23965,1,0,0:0:0:0:
224,192,23965,1,0,0:0:0:0:
160,192,24071,1,0,0:0:0:0:
416,192,24071,1,0,0:0:0:0:
224,192,24176,1,0,0:0:0:0:
352,192,24176,1,0,0:0:0:0:
480,192,24176,1,0,0:0:0:0:
96,192,24388,1,0,0:0:0:0:
224,192,24388,1,0,0:0:0:0:
352,192,24493,1,0,0:0:0:0:
480,192,24493,1,0,0:0:0:0:
160,192,24599,1,0,0:0:0:0:
288,192,24599,1,0,0:0:0:0:
96,192,24599,1,0,0:0:0:0:
416,192,24599,1,0,0:0:0:0:
224,192,24704,1,0,0:0:0:0:
352,192,24704,1,0,0:0:0:0:
480,192,24810,1,0,0:0:0:0:
288,192,24810,1,0,0:0:0:0:
96,192,24916,1,0,0:0:0:0:
224,192,24916,1,0,0:0:0:0:
352,192,25021,1,0,0:0:0:0:
160,192,25021,1,0,0:0:0:0:
480,192,25021,1,0,0:0:0:0:
96,192,25233,1,0,0:0:0:0:
416,192,25233,1,0,0:0:0:0:
352,192,25233,1,0,0:0:0:0:
224,192,25338,1,0,0:0:0:0:
480,192,25338,1,0,0:0:0:0:
416,192,25444,1,0,0:0:0:0:
160,192,25444,1,0,0:0:0:0:
352,192,25444,1,0,0:0:0:0:
96,192,25444,1,0,0:0:0:0:
224,192,25655,1,0,0:0:0:0:
480,192,25655,1,0,0:0:0:0:
416,192,25655,1,0,0:0:0:0:
352,192,25726,1,0,0:0:0:0:
160,192,25761,1,0,0:0:0:0:
288,192,25796,1,0,0:0:0:0:
96,192,25866,1,0,0:0:0:0:
224,192,25866,1,0,0:0:0:0:
416,192,25866,1,0,0:0:0:0:
160,192,26078,1,0,0:0:0:0:
480,192,26078,1,0,0:0:0:0:
352,192,26078,1,0,0:0:0:0:
224,192,26148,1,0,0:0:0:0:
416,192,26183,1,0,0:0:0:0:
288,192,26219,1,0,0:0:0:0:
352,192,26289,1,0,0:0:0:0:
96,192,26289,1,0,0:0:0:0:
480,192,26289,1,0,0:0:0:0:
96,192,26500,1,0,0:0:0:0:
416,192,26500,1,0,0:0:0:0:
480,192,26500,1,0,0:0:0:0:
160,192,26535,1,0,0:0:0:0:
224,192,26571,1,0,0:0:0:0:
288,192,26606,1,0,0:0:0:0:
352,192,26641,1,0,0:0:0:0:
416,192,26676,1,0,0:0:0:0:
480,192,26711,1,0,0:0:0:0:
96,192,26711,1,0,0:0:0:0:
224,192,26711,1,0,0:0:0:0:
32,192,26711,1,0,0:0:0:0:
288,192,26764,1,0,0:0:0:0:
416,192,26817,1,0,0:0:0:0:
352,192,26870,1,0,0:0:0:0:
160,192,26923,1,0,0:0:0:0:
224,192,26976,1,0,0:0:0:0:
96,192,27028,1,0,0:0:0:0:
160,192,27081,1,0,0:0:0:0:
32,192,27134,1,0,0:0:0:0:
480,192,27134,1,0,0:0:0:0:
352,192,27134,1,0,0:0:0:0:
32,192,27486,1,0,0:0:0:0:
288,192,27486,1,0,0:0:0:0:
416,192,27486,1,0,0:0:0:0:
32,192,27768,1,0,0:0:0:0:
224,192,27768,1,0,0:0:0:0:
352,192,27768,1,0,0:0:0:0:
288,192,28085,1,0,0:0:0:0:
224,192,28120,1,0,0:0:0:0:
160,192,28155,1,0,0:0:0:0:
96,192,28190,1,0,0:0:0:0:
480,192,28226,1,0,0:0:0:0:
416,192,28261,1,0,0:0:0:0:
352,192,28296,1,0,0:0:0:0:
288,192,28331,1,0,0:0:0:0:
224,192,28366,1,0,0:0:0:0:
160,192,28402,1,0,0:0:0:0:
96,192,28402,1,0,0:0:0:0:
32,192,28402,1,0,0:0:0:0:
480,192,28402,1,0,0:0:0:0:
224,192,28613,1,0,0:0:0:0:
352,192,28613,1,0,0:0:0:0:
288,192,28824,1,0,0:0:0:0:
96,192,28824,1,0,0:0:0:0:
480,192,28824,1,0,0:0:0:0:
416,192,28824,1,0,0:0:0:0:
160,192,29035,1,0,0:0:0:0:
352,192,29035,1,0,0:0:0:0:
224,192,29247,1,0,0:0:0:0:
416,192,29247,1,0,0:0:0:0:
480,192,29247,1,0,0:0:0:0:
352,192,29458,1,0,0:0:0:0:
160,192,29458,1,0,0:0:0:0:
96,192,29669,1,0,0:0:0:0:
224,192,29669,1,0,0:0:0:0:
352,192,29880,1,0,0:0:0:0:
480,192,29880,1,0,0:0:0:0:
96,192,30303,1,0,0:0:0:0:
224,192,30303,1,0,0:0:0:0:
160,192,30514,1,0,0:0:0:0:
288,192,30514,1,0,0:0:0:0:
416,192,30514,1,0,0:0:0:0:
480,192,30514,1,0,0:0:0:0:
352,192,30726,1,0,0:0:0:0:
224,192,30726,1,0,0:0:0:0:
96,192,30937,1,0,0:0:0:0:
416,192,30937,1,0,0:0:0:0:
480,192,30937,1,0,0:0:0:0:
160,192,31148,1,0,0:0:0:0:
352,192,31148,1,0,0:0:0:0:
224,192,31359,1,0,0:0:0:0:
480,192,31359,1,0,0:0:0:0:
96,192,31571,1,0,0:0:0:0:
288,192,31571,1,0,0:0:0:0:
96,192,31993,1,0,0:0:0:0:
224,192,31993,1,0,0:0:0:0:
352,192,32204,1,0,0:0:0:0:
480,192,32204,1,0,0:0:0:0:
160,192,32204,1,0,0:0:0:0:
288,192,32416,1,0,0:0:0:0:
96,192,32416,1,0,0:0:0:0:
160,192,32627,1,0,0:0:0:0:
224,192,32627,1,0,0:0:0:0:
416,192,32627,1,0,0:0:0:0:
480,192,32838,1,0,0:0:0:0:
288,192,32838,1,0,0:0:0:0:
416,192,33050,1,0,0:0:0:0:
224,192,33050,1,0,0:0:0:0:
96,192,33050,1,0,0:0:0:0:
160,192,33261,1,0,0:0:0:0:
352,192,33261,1,0,0:0:0:0:
160,192,33683,1,0,0:0:0:0:
352,192,33683,1,0,0:0:0:0:
480,192,33895,1,0,0:0:0:0:
288,192,33895,1,0,0:0:0:0:
96,192,33895,1,0,0:0:0:0:
224,192,33895,1,0,0:0:0:0:
160,192,34106,1,0,0:0:0:0:
352,192,34106,1,0,0:0:0:0:
480,192,34317,1,0,0:0:0:0:
288,192,34317,1,0,0:0:0:0:
96,192,34317,1,0,0:0:0:0:
352,192,34528,1,0,0:0:0:0:
160,192,34528,1,0,0:0:0:0:
96,192,34740,1,0,0:0:0:0:
416,192,34740,1,0,0:0:0:0:
352,192,34740,1,0,0:0:0:0:
32,192,34951,1,0,0:0:0:0:
288,192,34951,1,0,0:0:0:0:
480,192,34951,1,0,0:0:0:0:
416,192,34986,1,0,0:0:0:0:
352,192,35021,1,0,0:0:0:0:
288,192,35057,1,0,0:0:0:0:
224,192,35092,1,0,0:0:0:0:
160,192,35127,1,0,0:0:0:0:
32,192,35162,1,0,0:0:0:0:
416,192,35162,1,0,0:0:0:0:
480,192,35162,1,0,0:0:0:0:
96,192,35162,1,0,0:0:0:0:
352,192,35162,1,0,0:0:0:0:
288,192,35373,1,0,0:0:0:0:
96,192,35373,1,0,0:0:0:0:
160,192,35585,1,0,0:0:0:0:
416,192,35585,1,0,0:0:0:0:
224,192,35585,1,0,0:0:0:0:
480,192,35796,1,0,0:0:0:0:
96,192,35796,1,0,0:0:0:0:
160,192,36007,1,0,0:0:0:0:
288,192,36007,1,0,0:0:0:0:
416,192,36007,1,0,0:0:0:0:
96,192,36219,1,0,0:0:0:0:
224,192,36219,1,0,0:0:0:0:
288,192,36430,1,0,0:0:0:0:
416,192,36430,1,0,0:0:0:0:
480,192,36430,1,0,0:0:0:0:
224,192,36641,1,0,0:0:0:0:
160,192,36641,1,0,0:0:0:0:
96,192,36852,1,0,0:0:0:0:
288,192,36852,1,0,0:0:0:0:
416,192,36852,1,0,0:0:0:0:
224,192,37064,1,0,0:0:0:0:
480,192,37064,1,0,0:0:0:0:
416,192,37275,1,0,0:0:0:0:
288,192,37275,1,0,0:0:0:0:
160,192,37275,1,0,0:0:0:0:
96,192,37486,1,0,0:0:0:0:
352,192,37486,1,0,0:0:0:0:
224,192,37697,1,0,0:0:0:0:
288,192,37697,1,0,0:0:0:0:
480,192,37697,1,0,0:0:0:0:
160,192,37909,1,0,0:0:0:0:
416,192,37909,1,0,0:0:0:0:
288,192,38120,1,0,0:0:0:0:
480,192,38120,1,0,0:0:0:0:
224,192,38120,1,0,0:0:0:0:
224,192,38331,1,0,0:0:0:0:
416,192,38331,1,0,0:0:0:0:
160,192,38331,1,0,0:0:0:0:
160,192,38542,1,0,0:0:0:0:
352,192,38542,1,0,0:0:0:0:
96,192,38542,1,0,0:0:0:0:
224,192,38754,1,0,0:0:0:0:
416,192,38754,1,0,0:0:0:0:
96,192,38965,1,0,0:0:0:0:
288,192,38965,1,0,0:0:0:0:
480,192,38965,1,0,0:0:0:0:
416,192,39176,1,0,0:0:0:0:
160,192,39176,1,0,0:0:0:0:
288,192,39282,1,0,0:0:0:0:
480,192,39282,1,0,0:0:0:0:
96,192,39388,1,0,0:0:0:0:
224,192,39388,1,0,0:0:0:0:
352,192,39388,1,0,0:0:0:0:
160,192,39599,1,0,0:0:0:0:
288,192,39599,1,0,0:0:0:0:
96,192,39810,5,0,0:0:0:0:
352,192,39810,1,0,0:0:0:0:
480,192,39810,1,0,0:0:0:0:
288,192,40021,1,0,0:0:0:0:
160,192,40021,1,0,0:0:0:0:
224,192,40233,5,0,0:0:0:0:
480,192,40233,1,0,0:0:0:0:
352,192,40233,1,0,0:0:0:0:
224,192,40373,1,0,0:0:0:0:
352,192,40373,1,0,0:0:0:0:
480,192,40373,1,0,0:0:0:0:
32,192,40444,128,0,41078:0:0:0:0:
288,192,40514,1,0,0:0:0:0:
160,192,40514,1,0,0:0:0:0:
416,192,40514,1,0,0:0:0:0:
160,192,40655,1,0,0:0:0:0:
288,192,40655,1,0,0:0:0:0:
416,192,40655,1,0,0:0:0:0:
480,192,40866,1,0,0:0:0:0:
416,192,40972,1,0,0:0:0:0:
352,192,41078,1,0,0:0:0:0:
480,192,41183,1,0,0:0:0:0:
288,192,41289,1,0,0:0:0:0:
416,192,41395,1,0,0:0:0:0:
224,192,41500,1,0,0:0:0:0:
32,192,41500,1,0,0:0:0:0:
352,192,41606,1,0,0:0:0:0:
160,192,41711,1,0,0:0:0:0:
32,192,41711,128,0,41923:0:0:0:0:
288,192,41817,1,0,0:0:0:0:
96,192,41923,1,0,0:0:0:0:
352,192,41923,1,0,0:0:0:0:
480,192,41923,1,0,0:0:0:0:
160,192,42134,1,0,0:0:0:0:
352,192,42134,1,0,0:0:0:0:
224,192,42134,1,0,0:0:0:0:
288,192,42240,1,0,0:0:0:0:
416,192,42240,1,0,0:0:0:0:
160,192,42345,1,0,0:0:0:0:
96,192,42345,1,0,0:0:0:0:
352,192,42345,1,0,0:0:0:0:
480,192,42345,1,0,0:0:0:0:
224,192,42557,1,0,0:0:0:0:
480,192,42557,1,0,0:0:0:0:
352,192,42557,1,0,0:0:0:0:
160,192,42662,1,0,0:0:0:0:
288,192,42662,1,0,0:0:0:0:
416,192,42662,1,0,0:0:0:0:
96,192,42768,1,0,0:0:0:0:
224,192,42768,1,0,0:0:0:0:
352,192,42768,1,0,0:0:0:0:
160,192,42979,1,0,0:0:0:0:
416,192,42979,1,0,0:0:0:0:
288,192,42979,1,0,0:0:0:0:
224,192,43085,1,0,0:0:0:0:
352,192,43085,1,0,0:0:0:0:
96,192,43190,1,0,0:0:0:0:
288,192,43190,1,0,0:0:0:0:
416,192,43190,1,0,0:0:0:0:
480,192,43190,1,0,0:0:0:0:
160,192,43402,1,0,0:0:0:0:
352,192,43402,1,0,0:0:0:0:
480,192,43402,1,0,0:0:0:0:
224,192,43507,1,0,0:0:0:0:
416,192,43507,1,0,0:0:0:0:
352,192,43613,1,0,0:0:0:0:
96,192,43613,1,0,0:0:0:0:
160,192,43613,1,0,0:0:0:0:
160,192,43824,1,0,0:0:0:0:
480,192,43824,1,0,0:0:0:0:
352,192,43824,1,0,0:0:0:0:
288,192,43930,1,0,0:0:0:0:
96,192,43930,1,0,0:0:0:0:
160,192,44035,1,0,0:0:0:0:
224,192,44035,1,0,0:0:0:0:
352,192,44035,1,0,0:0:0:0:
480,192,44035,1,0,0:0:0:0:
96,192,44247,1,0,0:0:0:0:
224,192,44247,1,0,0:0:0:0:
416,192,44247,1,0,0:0:0:0:
160,192,44352,1,0,0:0:0:0:
352,192,44352,1,0,0:0:0:0:
224,192,44458,1,0,0:0:0:0:
416,192,44458,1,0,0:0:0:0:
480,192,44458,1,0,0:0:0:0:
160,192,44564,1,0,0:0:0:0:
352,192,44564,1,0,0:0:0:0:
96,192,44669,1,0,0:0:0:0:
288,192,44669,1,0,0:0:0:0:
480,192,44669,1,0,0:0:0:0:
96,192,44880,1,0,0:0:0:0:
160,192,44880,1,0,0:0:0:0:
416,192,44880,1,0,0:0:0:0:
480,192,44880,1,0,0:0:0:0:
480,192,45092,1,0,0:0:0:0:
288,192,45092,1,0,0:0:0:0:
96,192,45092,1,0,0:0:0:0:
160,192,45197,1,0,0:0:0:0:
416,192,45197,1,0,0:0:0:0:
224,192,45197,1,0,0:0:0:0:
352,192,45303,1,0,0:0:0:0:
96,192,45303,1,0,0:0:0:0:
480,192,45303,1,0,0:0:0:0:
160,192,45409,1,0,0:0:0:0:
288,192,45514,1,0,0:0:0:0:
416,192,45514,1,0,0:0:0:0:
480,192,45514,1,0,0:0:0:0:
224,192,45620,1,0,0:0:0:0:
352,192,45620,1,0,0:0:0:0:
96,192,45726,1,0,0:0:0:0:
160,192,45726,1,0,0:0:0:0:
480,192,45726,1,0,0:0:0:0:
288,192,45726,1,0,0:0:0:0:
416,192,45831,1,0,0:0:0:0:
224,192,45937,1,0,0:0:0:0:
352,192,45937,1,0,0:0:0:0:
288,192,46042,1,0,0:0:0:0:
416,192,46042,1,0,0:0:0:0:
480,192,46148,1,0,0:0:0:0:
224,192,46148,1,0,0:0:0:0:
96,192,46148,1,0,0:0:0:0:
160,192,46359,1,0,0:0:0:0:
352,192,46359,1,0,0:0:0:0:
224,192,46359,1,0,0:0:0:0:
288,192,46465,1,0,0:0:0:0:
480,192,46465,1,0,0:0:0:0:
96,192,46571,1,0,0:0:0:0:
224,192,46571,1,0,0:0:0:0:
416,192,46571,1,0,0:0:0:0:
352,192,46571,1,0,0:0:0:0:
160,192,46782,1,0,0:0:0:0:
352,192,46782,1,0,0:0:0:0:
416,192,46782,1,0,0:0:0:0:
288,192,46888,1,0,0:0:0:0:
480,192,46888,1,0,0:0:0:0:
96,192,46993,1,0,0:0:0:0:
224,192,46993,1,0,0:0:0:0:
416,192,46993,1,0,0:0:0:0:
160,192,47099,1,0,0:0:0:0:
352,192,47099,1,0,0:0:0:0:
416,192,47204,1,0,0:0:0:0:
224,192,47204,1,0,0:0:0:0:
480,192,47310,1,0,0:0:0:0:
96,192,47310,1,0,0:0:0:0:
416,192,47416,1,0,0:0:0:0:
224,192,47416,1,0,0:0:0:0:
160,192,47416,1,0,0:0:0:0:
352,192,47416,1,0,0:0:0:0:
288,192,47521,1,0,0:0:0:0:
96,192,47521,1,0,0:0:0:0:
160,192,47627,1,0,0:0:0:0:
352,192,47627,1,0,0:0:0:0:
480,192,47733,1,0,0:0:0:0:
288,192,47733,1,0,0:0:0:0:
416,192,47838,1,0,0:0:0:0:
224,192,47838,1,0,0:0:0:0:
96,192,47838,1,0,0:0:0:0:
288,192,47944,1,0,0:0:0:0:
352,192,47944,1,0,0:0:0:0:
96,192,48050,1,0,0:0:0:0:
224,192,48050,1,0,0:0:0:0:
416,192,48050,1,0,0:0:0:0:
160,192,48155,1,0,0:0:0:0:
352,192,48155,1,0,0:0:0:0:
224,192,48261,1,0,0:0:0:0:
288,192,48261,1,0,0:0:0:0:
480,192,48261,1,0,0:0:0:0:
416,192,48366,1,0,0:0:0:0:
160,192,48366,1,0,0:0:0:0:
96,192,48472,1,0,0:0:0:0:
224,192,48472,1,0,0:0:0:0:
480,192,48472,1,0,0:0:0:0:
416,192,48578,1,0,0:0:0:0:
160,192,48578,1,0,0:0:0:0:
32,192,48683,1,0,0:0:0:0:
96,192,48683,1,0,0:0:0:0:
352,192,48683,1,0,0:0:0:0:
288,192,48683,1,0,0:0:0:0:
480,192,48683,1,0,0:0:0:0:
160,192,48895,1,0,0:0:0:0:
416,192,48895,1,0,0:0:0:0:
288,192,48895,1,0,0:0:0:0:
224,192,49000,1,0,0:0:0:0:
96,192,49000,1,0,0:0:0:0:
160,192,49106,1,0,0:0:0:0:
352,192,49106,1,0,0:0:0:0:
288,192,49106,1,0,0:0:0:0:
480,192,49106,1,0,0:0:0:0:
224,192,49317,1,0,0:0:0:0:
96,192,49317,1,0,0:0:0:0:
352,192,49317,1,0,0:0:0:0:
160,192,49423,1,0,0:0:0:0:
416,192,49423,1,0,0:0:0:0:
288,192,49423,1,0,0:0:0:0:
224,192,49528,1,0,0:0:0:0:
480,192,49528,1,0,0:0:0:0:
352,192,49528,1,0,0:0:0:0:
160,192,49740,1,0,0:0:0:0:
288,192,49740,1,0,0:0:0:0:
480,192,49740,1,0,0:0:0:0:
416,192,49845,1,0,0:0:0:0:
224,192,49845,1,0,0:0:0:0:
352,192,49951,1,0,0:0:0:0:
288,192,49951,1,0,0:0:0:0:
96,192,49951,1,0,0:0:0:0:
160,192,49951,1,0,0:0:0:0:
160,192,50162,1,0,0:0:0:0:
352,192,50162,1,0,0:0:0:0:
480,192,50162,1,0,0:0:0:0:
416,192,50268,1,0,0:0:0:0:
224,192,50268,1,0,0:0:0:0:
288,192,50373,1,0,0:0:0:0:
96,192,50373,1,0,0:0:0:0:
352,192,50373,1,0,0:0:0:0:
160,192,50585,1,0,0:0:0:0:
416,192,50585,1,0,0:0:0:0:
224,192,50585,1,0,0:0:0:0:
352,192,50690,1,0,0:0:0:0:
480,192,50690,1,0,0:0:0:0:
416,192,50796,1,0,0:0:0:0:
288,192,50796,1,0,0:0:0:0:
160,192,50796,1,0,0:0:0:0:
96,192,50796,1,0,0:0:0:0:
96,192,51007,1,0,0:0:0:0:
224,192,51007,1,0,0:0:0:0:
352,192,51007,1,0,0:0:0:0:
160,192,51113,1,0,0:0:0:0:
288,192,51113,1,0,0:0:0:0:
416,192,51113,1,0,0:0:0:0:
224,192,51219,1,0,0:0:0:0:
352,192,51219,1,0,0:0:0:0:
480,192,51219,1,0,0:0:0:0:
96,192,51430,1,0,0:0:0:0:
352,192,51430,1,0,0:0:0:0:
288,192,51430,1,0,0:0:0:0:
224,192,51535,1,0,0:0:0:0:
416,192,51535,1,0,0:0:0:0:
160,192,51641,1,0,0:0:0:0:
96,192,51641,1,0,0:0:0:0:
352,192,51641,1,0,0:0:0:0:
480,192,51641,1,0,0:0:0:0:
96,192,51852,1,0,0:0:0:0:
160,192,51852,1,0,0:0:0:0:
352,192,51852,1,0,0:0:0:0:
224,192,51958,1,0,0:0:0:0:
480,192,51958,1,0,0:0:0:0:
160,192,52064,1,0,0:0:0:0:
96,192,52064,1,0,0:0:0:0:
352,192,52064,1,0,0:0:0:0:
224,192,52169,1,0,0:0:0:0:
480,192,52275,1,0,0:0:0:0:
288,192,52275,1,0,0:0:0:0:
96,192,52275,1,0,0:0:0:0:
416,192,52380,1,0,0:0:0:0:
160,192,52380,1,0,0:0:0:0:
288,192,52486,1,0,0:0:0:0:
224,192,52486,1,0,0:0:0:0:
480,192,52486,1,0,0:0:0:0:
96,192,52486,1,0,0:0:0:0:
416,192,52592,1,0,0:0:0:0:
352,192,52697,1,0,0:0:0:0:
160,192,52697,1,0,0:0:0:0:
480,192,52697,1,0,0:0:0:0:
288,192,52803,1,0,0:0:0:0:
96,192,52803,1,0,0:0:0:0:
160,192,52909,1,0,0:0:0:0:
352,192,52909,1,0,0:0:0:0:
416,192,52909,1,0,0:0:0:0:
224,192,53014,1,0,0:0:0:0:
480,192,53014,1,0,0:0:0:0:
416,192,53120,1,0,0:0:0:0:
96,192,53120,1,0,0:0:0:0:
352,192,53120,1,0,0:0:0:0:
288,192,53226,1,0,0:0:0:0:
160,192,53226,1,0,0:0:0:0:
96,192,53331,1,0,0:0:0:0:
352,192,53331,1,0,0:0:0:0:
224,192,53331,1,0,0:0:0:0:
480,192,53331,1,0,0:0:0:0:
160,192,53542,1,0,0:0:0:0:
352,192,53542,1,0,0:0:0:0:
96,192,53542,1,0,0:0:0:0:
416,192,53648,1,0,0:0:0:0:
288,192,53648,1,0,0:0:0:0:
96,192,53754,1,0,0:0:0:0:
224,192,53754,1,0,0:0:0:0:
480,192,53754,1,0,0:0:0:0:
352,192,53965,1,0,0:0:0:0:
480,192,53965,1,0,0:0:0:0:
224,192,54071,1,0,0:0:0:0:
96,192,54071,1,0,0:0:0:0:
288,192,54176,1,0,0:0:0:0:
416,192,54176,1,0,0:0:0:0:
160,192,54176,1,0,0:0:0:0:
480,192,54176,1,0,0:0:0:0:
224,192,54282,1,0,0:0:0:0:
352,192,54282,1,0,0:0:0:0:
288,192,54388,1,0,0:0:0:0:
160,192,54388,1,0,0:0:0:0:
224,192,54493,1,0,0:0:0:0:
96,192,54493,1,0,0:0:0:0:
480,192,54599,1,0,0:0:0:0:
352,192,54599,1,0,0:0:0:0:
160,192,54599,1,0,0:0:0:0:
416,192,54704,1,0,0:0:0:0:
224,192,54704,1,0,0:0:0:0:
288,192,54810,1,0,0:0:0:0:
480,192,54810,1,0,0:0:0:0:
96,192,54810,1,0,0:0:0:0:
352,192,54916,1,0,0:0:0:0:
160,192,54916,1,0,0:0:0:0:
96,192,55021,1,0,0:0:0:0:
224,192,55021,1,0,0:0:0:0:
416,192,55021,1,0,0:0:0:0:
32,192,55021,1,0,0:0:0:0:
288,192,55127,1,0,0:0:0:0:
480,192,55127,1,0,0:0:0:0:
160,192,55233,1,0,0:0:0:0:
352,192,55233,1,0,0:0:0:0:
32,192,55233,1,0,0:0:0:0:
416,192,55338,1,0,0:0:0:0:
224,192,55338,1,0,0:0:0:0:
288,192,55444,1,0,0:0:0:0:
32,192,55444,1,0,0:0:0:0:
96,192,55444,1,0,0:0:0:0:
480,192,55444,1,0,0:0:0:0:
224,192,55550,1,0,0:0:0:0:
160,192,55655,1,0,0:0:0:0:
96,192,55761,1,0,0:0:0:0:
288,192,55866,1,0,0:0:0:0:
224,192,55972,1,0,0:0:0:0:
160,192,56078,1,0,0:0:0:0:
288,192,56183,1,0,0:0:0:0:
224,192,56289,1,0,0:0:0:0:
416,192,56395,1,0,0:0:0:0:
288,192,56500,1,0,0:0:0:0:
352,192,56606,1,0,0:0:0:0:
224,192,56711,1,0,0:0:0:0:
32,192,56711,128,0,57134:0:0:0:0:
288,192,56817,1,0,0:0:0:0:
480,192,56923,1,0,0:0:0:0:
352,192,56923,1,0,0:0:0:0:
160,192,57028,1,0,0:0:0:0:
96,192,57134,1,0,0:0:0:0:
352,192,57134,1,0,0:0:0:0:
480,192,57134,1,0,0:0:0:0:
224,192,57134,1,0,0:0:0:0:
160,192,57345,1,0,0:0:0:0:
416,192,57345,1,0,0:0:0:0:
288,192,57345,1,0,0:0:0:0:
224,192,57451,1,0,0:0:0:0:
352,192,57451,1,0,0:0:0:0:
96,192,57557,1,0,0:0:0:0:
160,192,57557,1,0,0:0:0:0:
480,192,57557,1,0,0:0:0:0:
416,192,57557,1,0,0:0:0:0:
480,192,57768,1,0,0:0:0:0:
288,192,57768,1,0,0:0:0:0:
160,192,57768,1,0,0:0:0:0:
352,192,57873,1,0,0:0:0:0:
224,192,57873,1,0,0:0:0:0:
96,192,57979,1,0,0:0:0:0:
160,192,57979,1,0,0:0:0:0:
416,192,57979,1,0,0:0:0:0:
224,192,58085,1,0,0:0:0:0:
288,192,58190,1,0,0:0:0:0:
480,192,58190,1,0,0:0:0:0:
96,192,58190,1,0,0:0:0:0:
416,192,58296,1,0,0:0:0:0:
160,192,58296,1,0,0:0:0:0:
352,192,58402,1,0,0:0:0:0:
96,192,58402,1,0,0:0:0:0:
224,192,58402,1,0,0:0:0:0:
480,192,58402,1,0,0:0:0:0:
288,192,58507,1,0,0:0:0:0:
96,192,58613,1,0,0:0:0:0:
352,192,58613,1,0,0:0:0:0:
416,192,58613,1,0,0:0:0:0:
160,192,58719,1,0,0:0:0:0:
288,192,58719,1,0,0:0:0:0:
224,192,58824,1,0,0:0:0:0:
416,192,58824,1,0,0:0:0:0:
480,192,58824,1,0,0:0:0:0:
352,192,59035,1,0,0:0:0:0:
96,192,59035,1,0,0:0:0:0:
416,192,59035,1,0,0:0:0:0:
160,192,59141,1,0,0:0:0:0:
480,192,59141,1,0,0:0:0:0:
416,192,59247,1,0,0:0:0:0:
288,192,59247,1,0,0:0:0:0:
96,192,59247,1,0,0:0:0:0:
224,192,59247,1,0,0:0:0:0:
160,192,59352,1,0,0:0:0:0:
480,192,59458,1,0,0:0:0:0:
288,192,59458,1,0,0:0:0:0:
224,192,59458,1,0,0:0:0:0:
416,192,59564,1,0,0:0:0:0:
160,192,59564,1,0,0:0:0:0:
96,192,59669,1,0,0:0:0:0:
288,192,59669,1,0,0:0:0:0:
480,192,59669,1,0,0:0:0:0:
160,192,59775,1,0,0:0:0:0:
224,192,59880,1,0,0:0:0:0:
352,192,59880,1,0,0:0:0:0:
416,192,59880,1,0,0:0:0:0:
96,192,59986,1,0,0:0:0:0:
480,192,60092,1,0,0:0:0:0:
288,192,60092,1,0,0:0:0:0:
416,192,60092,1,0,0:0:0:0:
32,192,60092,1,0,0:0:0:0:
32,192,60303,1,0,0:0:0:0:
224,192,60303,1,0,0:0:0:0:
352,192,60303,1,0,0:0:0:0:
416,192,60303,1,0,0:0:0:0:
96,192,60409,1,0,0:0:0:0:
480,192,60409,1,0,0:0:0:0:
32,192,60514,1,0,0:0:0:0:
160,192,60514,1,0,0:0:0:0:
288,192,60514,1,0,0:0:0:0:
352,192,60514,1,0,0:0:0:0:
96,192,60726,1,0,0:0:0:0:
352,192,60726,1,0,0:0:0:0:
480,192,60726,1,0,0:0:0:0:
416,192,60831,1,0,0:0:0:0:
160,192,60831,1,0,0:0:0:0:
224,192,60937,1,0,0:0:0:0:
288,192,60937,1,0,0:0:0:0:
96,192,60937,1,0,0:0:0:0:
480,192,60937,1,0,0:0:0:0:
416,192,61042,1,0,0:0:0:0:
160,192,61042,1,0,0:0:0:0:
352,192,61148,1,0,0:0:0:0:
288,192,61148,1,0,0:0:0:0:
96,192,61148,1,0,0:0:0:0:
160,192,61254,1,0,0:0:0:0:
416,192,61254,1,0,0:0:0:0:
224,192,61359,1,0,0:0:0:0:
96,192,61359,1,0,0:0:0:0:
480,192,61359,1,0,0:0:0:0:
416,192,61571,1,0,0:0:0:0:
352,192,61571,1,0,0:0:0:0:
96,192,61571,1,0,0:0:0:0:
288,192,61676,1,0,0:0:0:0:
160,192,61676,1,0,0:0:0:0:
480,192,61782,1,0,0:0:0:0:
416,192,61782,1,0,0:0:0:0:
96,192,61782,1,0,0:0:0:0:
224,192,61782,1,0,0:0:0:0:
352,192,61888,1,0,0:0:0:0:
160,192,61888,1,0,0:0:0:0:
96,192,61993,1,0,0:0:0:0:
480,192,61993,1,0,0:0:0:0:
288,192,61993,1,0,0:0:0:0:
352,192,62099,1,0,0:0:0:0:
224,192,62099,1,0,0:0:0:0:
160,192,62204,1,0,0:0:0:0:
288,192,62204,1,0,0:0:0:0:
480,192,62204,1,0,0:0:0:0:
96,192,62416,1,0,0:0:0:0:
288,192,62416,1,0,0:0:0:0:
160,192,62521,1,0,0:0:0:0:
480,192,62521,1,0,0:0:0:0:
416,192,62627,1,0,0:0:0:0:
352,192,62627,1,0,0:0:0:0:
224,192,62627,1,0,0:0:0:0:
96,192,62627,1,0,0:0:0:0:
288,192,62733,1,0,0:0:0:0:
480,192,62733,1,0,0:0:0:0:
416,192,62838,1,0,0:0:0:0:
160,192,62838,1,0,0:0:0:0:
352,192,62838,1,0,0:0:0:0:
224,192,62944,1,0,0:0:0:0:
96,192,62944,1,0,0:0:0:0:
160,192,63050,1,0,0:0:0:0:
288,192,63050,1,0,0:0:0:0:
480,192,63050,1,0,0:0:0:0:
416,192,63155,1,0,0:0:0:0:
96,192,63155,1,0,0:0:0:0:
352,192,63261,1,0,0:0:0:0:
160,192,63261,1,0,0:0:0:0:
480,192,63261,1,0,0:0:0:0:
288,192,63331,1,0,0:0:0:0:
416,192,63366,1,0,0:0:0:0:
224,192,63402,1,0,0:0:0:0:
160,192,63472,1,0,0:0:0:0:
480,192,63472,1,0,0:0:0:0:
96,192,63472,1,0,0:0:0:0:
352,192,63472,1,0,0:0:0:0:
288,192,63578,1,0,0:0:0:0:
96,192,63683,1,0,0:0:0:0:
416,192,63683,1,0,0:0:0:0:
480,192,63683,1,0,0:0:0:0:
160,192,63754,1,0,0:0:0:0:
352,192,63789,1,0,0:0:0:0:
224,192,63824,1,0,0:0:0:0:
288,192,63895,1,0,0:0:0:0:
416,192,63895,1,0,0:0:0:0:
96,192,63895,1,0,0:0:0:0:
32,192,63895,1,0,0:0:0:0:
480,192,63895,1,0,0:0:0:0:
224,192,64106,1,0,0:0:0:0:
160,192,64106,1,0,0:0:0:0:
416,192,64106,1,0,0:0:0:0:
352,192,64211,1,0,0:0:0:0:
96,192,64211,1,0,0:0:0:0:
160,192,64317,1,0,0:0:0:0:
480,192,64317,1,0,0:0:0:0:
416,192,64317,1,0,0:0:0:0:
288,192,64317,1,0,0:0:0:0:
96,192,64528,1,0,0:0:0:0:
352,192,64528,1,0,0:0:0:0:
480,192,64528,1,0,0:0:0:0:
416,192,64634,1,0,0:0:0:0:
288,192,64634,1,0,0:0:0:0:
160,192,64740,1,0,0:0:0:0:
224,192,64740,1,0,0:0:0:0:
480,192,64740,1,0,0:0:0:0:
352,192,64951,1,0,0:0:0:0:
288,192,64951,1,0,0:0:0:0:
96,192,64951,1,0,0:0:0:0:
160,192,65057,1,0,0:0:0:0:
480,192,65057,1,0,0:0:0:0:
416,192,65162,1,0,0:0:0:0:
352,192,65162,1,0,0:0:0:0:
96,192,65162,1,0,0:0:0:0:
224,192,65162,1,0,0:0:0:0:
288,192,65268,1,0,0:0:0:0:
480,192,65268,1,0,0:0:0:0:
416,192,65373,1,0,0:0:0:0:
160,192,65373,1,0,0:0:0:0:
224,192,65373,1,0,0:0:0:0:
288,192,65479,1,0,0:0:0:0:
96,192,65479,1,0,0:0:0:0:
160,192,65585,1,0,0:0:0:0:
352,192,65585,1,0,0:0:0:0:
416,192,65585,1,0,0:0:0:0:
96,192,65796,1,0,0:0:0:0:
480,192,65796,1,0,0:0:0:0:
288,192,65796,1,0,0:0:0:0:
416,192,65902,1,0,0:0:0:0:
224,192,65902,1,0,0:0:0:0:
96,192,66007,1,0,0:0:0:0:
160,192,66007,1,0,0:0:0:0:
288,192,66007,1,0,0:0:0:0:
480,192,66007,1,0,0:0:0:0:
160,192,66219,1,0,0:0:0:0:
480,192,66219,1,0,0:0:0:0:
416,192,66219,1,0,0:0:0:0:
224,192,66324,1,0,0:0:0:0:
288,192,66324,1,0,0:0:0:0:
416,192,66430,1,0,0:0:0:0:
352,192,66430,1,0,0:0:0:0:
96,192,66430,1,0,0:0:0:0:
160,192,66535,1,0,0:0:0:0:
480,192,66535,1,0,0:0:0:0:
416,192,66641,1,0,0:0:0:0:
288,192,66641,1,0,0:0:0:0:
96,192,66641,1,0,0:0:0:0:
224,192,66747,1,0,0:0:0:0:
352,192,66747,1,0,0:0:0:0:
32,192,66852,1,0,0:0:0:0:
160,192,66852,1,0,0:0:0:0:
416,192,66852,1,0,0:0:0:0:
288,192,66852,1,0,0:0:0:0:
32,192,67064,1,0,0:0:0:0:
160,192,67064,1,0,0:0:0:0:
288,192,67064,1,0,0:0:0:0:
416,192,67064,1,0,0:0:0:0:
32,192,67275,1,0,0:0:0:0:
96,192,67275,1,0,0:0:0:0:
480,192,67275,1,0,0:0:0:0:
352,192,67275,1,0,0:0:0:0:
224,192,67275,1,0,0:0:0:0:
160,192,67380,1,0,0:0:0:0:
288,192,67380,1,0,0:0:0:0:
224,192,67486,1,0,0:0:0:0:
480,192,67486,1,0,0:0:0:0:
352,192,67486,1,0,0:0:0:0:
416,192,67592,1,0,0:0:0:0:
160,192,67592,1,0,0:0:0:0:
288,192,67697,1,0,0:0:0:0:
96,192,67697,1,0,0:0:0:0:
224,192,67697,1,0,0:0:0:0:
480,192,67697,1,0,0:0:0:0:
416,192,67803,1,0,0:0:0:0:
160,192,67803,1,0,0:0:0:0:
352,192,67909,1,0,0:0:0:0:
224,192,67909,1,0,0:0:0:0:
480,192,67909,1,0,0:0:0:0:
416,192,68014,1,0,0:0:0:0:
160,192,68014,1,0,0:0:0:0:
96,192,68120,1,0,0:0:0:0:
224,192,68120,1,0,0:0:0:0:
352,192,68120,1,0,0:0:0:0:
480,192,68226,1,0,0:0:0:0:
288,192,68226,1,0,0:0:0:0:
160,192,68331,1,0,0:0:0:0:
224,192,68331,1,0,0:0:0:0:
416,192,68331,1,0,0:0:0:0:
352,192,68437,1,0,0:0:0:0:
96,192,68437,1,0,0:0:0:0:
160,192,68542,1,0,0:0:0:0:
288,192,68542,1,0,0:0:0:0:
416,192,68542,1,0,0:0:0:0:
480,192,68542,1,0,0:0:0:0:
224,192,68648,1,0,0:0:0:0:
352,192,68648,1,0,0:0:0:0:
96,192,68754,1,0,0:0:0:0:
480,192,68754,1,0,0:0:0:0:
416,192,68754,1,0,0:0:0:0:
288,192,68859,1,0,0:0:0:0:
160,192,68965,1,0,0:0:0:0:
352,192,68965,1,0,0:0:0:0:
480,192,68965,1,0,0:0:0:0:
352,192,69176,1,0,0:0:0:0:
96,192,69176,1,0,0:0:0:0:
480,192,69176,1,0,0:0:0:0:
160,192,69282,1,0,0:0:0:0:
416,192,69282,1,0,0:0:0:0:
224,192,69388,1,0,0:0:0:0:
480,192,69388,1,0,0:0:0:0:
288,192,69388,1,0,0:0:0:0:
96,192,69388,1,0,0:0:0:0:
352,192,69493,1,0,0:0:0:0:
160,192,69493,1,0,0:0:0:0:
416,192,69599,1,0,0:0:0:0:
288,192,69599,1,0,0:0:0:0:
96,192,69599,1,0,0:0:0:0:
480,192,69704,1,0,0:0:0:0:
352,192,69704,1,0,0:0:0:0:
416,192,69810,1,0,0:0:0:0:
224,192,69810,1,0,0:0:0:0:
160,192,69810,1,0,0:0:0:0:
32,192,69810,1,0,0:0:0:0:
352,192,69916,1,0,0:0:0:0:
96,192,69916,1,0,0:0:0:0:
160,192,70021,1,0,0:0:0:0:
224,192,70021,1,0,0:0:0:0:
416,192,70021,1,0,0:0:0:0:
32,192,70021,1,0,0:0:0:0:
288,192,70127,1,0,0:0:0:0:
480,192,70127,1,0,0:0:0:0:
160,192,70233,1,0,0:0:0:0:
224,192,70233,1,0,0:0:0:0:
416,192,70233,1,0,0:0:0:0:
32,192,70233,1,0,0:0:0:0:
352,192,70338,1,0,0:0:0:0:
96,192,70338,1,0,0:0:0:0:
160,192,70444,1,0,0:0:0:0:
224,192,70444,1,0,0:0:0:0:
416,192,70444,1,0,0:0:0:0:
32,192,70444,1,0,0:0:0:0:
288,192,70550,1,0,0:0:0:0:
96,192,70550,1,0,0:0:0:0:
32,192,70655,1,0,0:0:0:0:
160,192,70655,1,0,0:0:0:0:
352,192,70655,1,0,0:0:0:0:
480,192,70655,1,0,0:0:0:0:
224,192,70761,1,0,0:0:0:0:
416,192,70761,1,0,0:0:0:0:
352,192,70866,1,0,0:0:0:0:
96,192,70866,1,0,0:0:0:0:
288,192,70866,1,0,0:0:0:0:
160,192,70972,1,0,0:0:0:0:
480,192,70972,1,0,0:0:0:0:
416,192,71078,1,0,0:0:0:0:
352,192,71078,1,0,0:0:0:0:
224,192,71078,1,0,0:0:0:0:
96,192,71078,1,0,0:0:0:0:
32,192,71078,1,0,0:0:0:0:
288,192,71183,1,0,0:0:0:0:
480,192,71183,1,0,0:0:0:0:
416,192,71289,1,0,0:0:0:0:
224,192,71289,1,0,0:0:0:0:
160,192,71289,1,0,0:0:0:0:
32,192,71289,1,0,0:0:0:0:
96,192,71395,1,0,0:0:0:0:
288,192,71395,1,0,0:0:0:0:
160,192,71500,1,0,0:0:0:0:
224,192,71500,1,0,0:0:0:0:
480,192,71500,1,0,0:0:0:0:
352,192,71500,1,0,0:0:0:0:
32,192,71500,128,0,72345:0:0:0:0:
416,192,71711,1,0,0:0:0:0:
288,192,71817,1,0,0:0:0:0:
160,192,71923,1,0,0:0:0:0:
352,192,72028,1,0,0:0:0:0:
224,192,72134,1,0,0:0:0:0:
96,192,72240,1,0,0:0:0:0:
160,192,72345,1,0,0:0:0:0:
288,192,72345,1,0,0:0:0:0:
416,192,72345,1,0,0:0:0:0:
480,192,72345,1,0,0:0:0:0:
352,192,72451,1,0,0:0:0:0:
96,192,72451,1,0,0:0:0:0:
224,192,72557,1,0,0:0:0:0:
416,192,72557,1,0,0:0:0:0:
480,192,72662,1,0,0:0:0:0:
160,192,72662,1,0,0:0:0:0:
416,192,72768,1,0,0:0:0:0:
288,192,72768,1,0,0:0:0:0:
96,192,72768,1,0,0:0:0:0:
160,192,72873,1,0,0:0:0:0:
480,192,72873,1,0,0:0:0:0:
416,192,72979,1,0,0:0:0:0:
224,192,72979,1,0,0:0:0:0:
352,192,73085,1,0,0:0:0:0:
160,192,73085,1,0,0:0:0:0:
96,192,73190,1,0,0:0:0:0:
224,192,73190,1,0,0:0:0:0:
480,192,73190,1,0,0:0:0:0:
416,192,73296,1,0,0:0:0:0:
288,192,73296,1,0,0:0:0:0:
160,192,73402,1,0,0:0:0:0:
480,192,73402,1,0,0:0:0:0:
416,192,73507,1,0,0:0:0:0:
224,192,73507,1,0,0:0:0:0:
288,192,73613,1,0,0:0:0:0:
480,192,73613,1,0,0:0:0:0:
96,192,73613,1,0,0:0:0:0:
416,192,73719,1,0,0:0:0:0:
224,192,73719,1,0,0:0:0:0:
352,192,73824,1,0,0:0:0:0:
160,192,73824,1,0,0:0:0:0:
288,192,73930,1,0,0:0:0:0:
96,192,73930,1,0,0:0:0:0:
32,192,74035,1,0,0:0:0:0:
160,192,74035,1,0,0:0:0:0:
352,192,74035,1,0,0:0:0:0:
416,192,74035,1,0,0:0:0:0:
480,192,74035,1,0,0:0:0:0:
96,192,74247,1,0,0:0:0:0:
224,192,74247,1,0,0:0:0:0:
416,192,74247,1,0,0:0:0:0:
288,192,74352,1,0,0:0:0:0:
480,192,74352,1,0,0:0:0:0:
416,192,74458,1,0,0:0:0:0:
352,192,74458,1,0,0:0:0:0:
160,192,74458,1,0,0:0:0:0:
96,192,74458,1,0,0:0:0:0:
160,192,74669,1,0,0:0:0:0:
352,192,74669,1,0,0:0:0:0:
416,192,74669,1,0,0:0:0:0:
96,192,74775,1,0,0:0:0:0:
288,192,74775,1,0,0:0:0:0:
224,192,74880,1,0,0:0:0:0:
352,192,74880,1,0,0:0:0:0:
480,192,74880,1,0,0:0:0:0:
96,192,75092,1,0,0:0:0:0:
352,192,75092,1,0,0:0:0:0:
288,192,75092,1,0,0:0:0:0:
224,192,75197,1,0,0:0:0:0:
480,192,75197,1,0,0:0:0:0:
160,192,75303,1,0,0:0:0:0:
288,192,75303,1,0,0:0:0:0:
96,192,75303,1,0,0:0:0:0:
416,192,75303,1,0,0:0:0:0:
160,192,75514,1,0,0:0:0:0:
352,192,75514,1,0,0:0:0:0:
416,192,75514,1,0,0:0:0:0:
96,192,75620,1,0,0:0:0:0:
288,192,75620,1,0,0:0:0:0:
160,192,75726,1,0,0:0:0:0:
352,192,75726,1,0,0:0:0:0:
480,192,75726,1,0,0:0:0:0:
288,192,75937,1,0,0:0:0:0:
96,192,75937,1,0,0:0:0:0:
224,192,75937,1,0,0:0:0:0:
416,192,76042,1,0,0:0:0:0:
160,192,76042,1,0,0:0:0:0:
96,192,76148,1,0,0:0:0:0:
224,192,76148,1,0,0:0:0:0:
288,192,76148,1,0,0:0:0:0:
480,192,76148,1,0,0:0:0:0:
160,192,76359,1,0,0:0:0:0:
288,192,76359,1,0,0:0:0:0:
416,192,76359,1,0,0:0:0:0:
224,192,76465,1,0,0:0:0:0:
352,192,76465,1,0,0:0:0:0:
96,192,76571,1,0,0:0:0:0:
288,192,76571,1,0,0:0:0:0:
416,192,76571,1,0,0:0:0:0:
160,192,76782,1,0,0:0:0:0:
352,192,76782,1,0,0:0:0:0:
480,192,76782,1,0,0:0:0:0:
416,192,76888,1,0,0:0:0:0:
288,192,76888,1,0,0:0:0:0:
224,192,76993,1,0,0:0:0:0:
32,192,76993,1,0,0:0:0:0:
480,192,76993,1,0,0:0:0:0:
160,192,76993,1,0,0:0:0:0:
32,192,77204,1,0,0:0:0:0:
224,192,77204,1,0,0:0:0:0:
288,192,77204,1,0,0:0:0:0:
480,192,77204,1,0,0:0:0:0:
32,192,77416,1,0,0:0:0:0:
352,192,77416,1,0,0:0:0:0:
288,192,77416,1,0,0:0:0:0:
480,192,77416,1,0,0:0:0:0:
160,192,77627,1,0,0:0:0:0:
288,192,77627,1,0,0:0:0:0:
416,192,77627,1,0,0:0:0:0:
352,192,77733,1,0,0:0:0:0:
96,192,77733,1,0,0:0:0:0:
160,192,77838,1,0,0:0:0:0:
288,192,77838,1,0,0:0:0:0:
416,192,77838,1,0,0:0:0:0:
480,192,77838,1,0,0:0:0:0:
224,192,78050,1,0,0:0:0:0:
96,192,78050,1,0,0:0:0:0:
416,192,78050,1,0,0:0:0:0:
352,192,78155,1,0,0:0:0:0:
160,192,78155,1,0,0:0:0:0:
224,192,78261,1,0,0:0:0:0:
480,192,78261,1,0,0:0:0:0:
96,192,78261,1,0,0:0:0:0:
160,192,78472,1,0,0:0:0:0:
352,192,78472,1,0,0:0:0:0:
480,192,78472,1,0,0:0:0:0:
416,192,78578,1,0,0:0:0:0:
224,192,78578,1,0,0:0:0:0:
288,192,78683,1,0,0:0:0:0:
96,192,78683,1,0,0:0:0:0:
160,192,78683,1,0,0:0:0:0:
480,192,78683,1,0,0:0:0:0:
224,192,78895,1,0,0:0:0:0:
480,192,78895,1,0,0:0:0:0:
352,192,78895,1,0,0:0:0:0:
160,192,79000,1,0,0:0:0:0:
416,192,79000,1,0,0:0:0:0:
96,192,79106,1,0,0:0:0:0:
352,192,79106,1,0,0:0:0:0:
224,192,79106,1,0,0:0:0:0:
160,192,79317,1,0,0:0:0:0:
352,192,79317,1,0,0:0:0:0:
288,192,79317,1,0,0:0:0:0:
224,192,79423,1,0,0:0:0:0:
416,192,79423,1,0,0:0:0:0:
96,192,79528,1,0,0:0:0:0:
288,192,79528,1,0,0:0:0:0:
352,192,79528,1,0,0:0:0:0:
480,192,79528,1,0,0:0:0:0:
160,192,79740,1,0,0:0:0:0:
352,192,79740,1,0,0:0:0:0:
480,192,79740,1,0,0:0:0:0:
224,192,79845,1,0,0:0:0:0:
416,192,79845,1,0,0:0:0:0:
96,192,79951,1,0,0:0:0:0:
288,192,79951,1,0,0:0:0:0:
480,192,79951,1,0,0:0:0:0:
160,192,80162,1,0,0:0:0:0:
352,192,80162,1,0,0:0:0:0:
480,192,80162,1,0,0:0:0:0:
224,192,80233,1,0,0:0:0:0:
416,192,80268,1,0,0:0:0:0:
288,192,80303,1,0,0:0:0:0:
352,192,80373,1,0,0:0:0:0:
480,192,80373,1,0,0:0:0:0:
96,192,80373,1,0,0:0:0:0:
160,192,80373,1,0,0:0:0:0:
288,192,80585,1,0,0:0:0:0:
480,192,80585,1,0,0:0:0:0:
96,192,80585,1,0,0:0:0:0:
224,192,80655,1,0,0:0:0:0:
416,192,80690,1,0,0:0:0:0:
160,192,80726,1,0,0:0:0:0:
96,192,80796,1,0,0:0:0:0:
32,192,80796,1,0,0:0:0:0:
288,192,80796,1,0,0:0:0:0:
352,192,80796,1,0,0:0:0:0:
480,192,80796,1,0,0:0:0:0:
224,192,80902,1,0,0:0:0:0:
416,192,81007,1,0,0:0:0:0:
160,192,81007,1,0,0:0:0:0:
352,192,81007,1,0,0:0:0:0:
288,192,81113,1,0,0:0:0:0:
96,192,81113,1,0,0:0:0:0:
160,192,81219,1,0,0:0:0:0:
352,192,81219,1,0,0:0:0:0:
480,192,81219,1,0,0:0:0:0:
224,192,81219,1,0,0:0:0:0:
416,192,81324,1,0,0:0:0:0:
288,192,81430,1,0,0:0:0:0:
96,192,81430,1,0,0:0:0:0:
480,192,81430,1,0,0:0:0:0:
352,192,81535,1,0,0:0:0:0:
160,192,81535,1,0,0:0:0:0:
224,192,81641,1,0,0:0:0:0:
416,192,81641,1,0,0:0:0:0:
96,192,81641,1,0,0:0:0:0:
288,192,81747,1,0,0:0:0:0:
160,192,81852,1,0,0:0:0:0:
480,192,81852,1,0,0:0:0:0:
352,192,81852,1,0,0:0:0:0:
416,192,81958,1,0,0:0:0:0:
224,192,81958,1,0,0:0:0:0:
96,192,82064,1,0,0:0:0:0:
288,192,82064,1,0,0:0:0:0:
160,192,82064,1,0,0:0:0:0:
480,192,82064,1,0,0:0:0:0:
352,192,82169,1,0,0:0:0:0:
224,192,82275,1,0,0:0:0:0:
96,192,82275,1,0,0:0:0:0:
416,192,82275,1,0,0:0:0:0:
352,192,82380,1,0,0:0:0:0:
160,192,82380,1,0,0:0:0:0:
288,192,82486,1,0,0:0:0:0:
96,192,82486,1,0,0:0:0:0:
480,192,82486,1,0,0:0:0:0:
224,192,82592,1,0,0:0:0:0:
160,192,82697,1,0,0:0:0:0:
416,192,82697,1,0,0:0:0:0:
352,192,82697,1,0,0:0:0:0:
288,192,82803,1,0,0:0:0:0:
224,192,82803,1,0,0:0:0:0:
96,192,82909,1,0,0:0:0:0:
352,192,82909,1,0,0:0:0:0:
480,192,82909,1,0,0:0:0:0:
160,192,82909,1,0,0:0:0:0:
288,192,83014,1,0,0:0:0:0:
96,192,83120,1,0,0:0:0:0:
352,192,83120,1,0,0:0:0:0:
224,192,83120,1,0,0:0:0:0:
160,192,83226,1,0,0:0:0:0:
416,192,83226,1,0,0:0:0:0:
480,192,83331,1,0,0:0:0:0:
352,192,83331,1,0,0:0:0:0:
224,192,83331,1,0,0:0:0:0:
288,192,83542,1,0,0:0:0:0:
480,192,83542,1,0,0:0:0:0:
96,192,83542,1,0,0:0:0:0:
416,192,83648,1,0,0:0:0:0:
224,192,83648,1,0,0:0:0:0:
352,192,83754,1,0,0:0:0:0:
160,192,83754,1,0,0:0:0:0:
96,192,83754,1,0,0:0:0:0:
480,192,83754,1,0,0:0:0:0:
416,192,83859,1,0,0:0:0:0:
224,192,83859,1,0,0:0:0:0:
352,192,83965,1,0,0:0:0:0:
160,192,83965,1,0,0:0:0:0:
480,192,83965,1,0,0:0:0:0:
288,192,84071,1,0,0:0:0:0:
96,192,84071,1,0,0:0:0:0:
224,192,84176,1,0,0:0:0:0:
32,192,84176,1,0,0:0:0:0:
352,192,84176,1,0,0:0:0:0:
480,192,84176,1,0,0:0:0:0:
96,192,84388,1,0,0:0:0:0:
288,192,84388,1,0,0:0:0:0:
416,192,84388,1,0,0:0:0:0:
224,192,84493,1,0,0:0:0:0:
352,192,84493,1,0,0:0:0:0:
96,192,84599,1,0,0:0:0:0:
288,192,84599,1,0,0:0:0:0:
160,192,84599,1,0,0:0:0:0:
480,192,84599,1,0,0:0:0:0:
352,192,84810,1,0,0:0:0:0:
96,192,84810,1,0,0:0:0:0:
480,192,84810,1,0,0:0:0:0:
160,192,84880,1,0,0:0:0:0:
416,192,84916,1,0,0:0:0:0:
224,192,84951,1,0,0:0:0:0:
96,192,85021,1,0,0:0:0:0:
352,192,85021,1,0,0:0:0:0:
480,192,85021,1,0,0:0:0:0:
352,192,85233,1,0,0:0:0:0:
96,192,85233,1,0,0:0:0:0:
160,192,85233,1,0,0:0:0:0:
288,192,85303,1,0,0:0:0:0:
416,192,85338,1,0,0:0:0:0:
224,192,85373,1,0,0:0:0:0:
160,192,85444,1,0,0:0:0:0:
96,192,85444,1,0,0:0:0:0:
352,192,85444,1,0,0:0:0:0:
480,192,85444,1,0,0:0:0:0:
480,192,85655,1,0,0:0:0:0:
160,192,85655,1,0,0:0:0:0:
96,192,85655,1,0,0:0:0:0:
352,192,85690,1,0,0:0:0:0:
224,192,85726,1,0,0:0:0:0:
96,192,85761,1,0,0:0:0:0:
352,192,85796,1,0,0:0:0:0:
288,192,85831,1,0,0:0:0:0:
480,192,85866,1,0,0:0:0:0:
32,192,85866,1,0,0:0:0:0:
416,192,85866,1,0,0:0:0:0:
224,192,85866,1,0,0:0:0:0:
32,192,86007,1,0,0:0:0:0:
224,192,86007,1,0,0:0:0:0:
416,192,86007,1,0,0:0:0:0:
480,192,86007,1,0,0:0:0:0:
32,192,86148,1,0,0:0:0:0:
160,192,86148,1,0,0:0:0:0:
352,192,86148,1,0,0:0:0:0:
288,192,86148,1,0,0:0:0:0:
32,192,86289,1,0,0:0:0:0:
160,192,86289,1,0,0:0:0:0:
288,192,86289,1,0,0:0:0:0:
352,192,86289,1,0,0:0:0:0:
480,192,86289,1,0,0:0:0:0:
32,192,86571,1,0,0:0:0:0:
224,192,86571,1,0,0:0:0:0:
352,192,86571,1,0,0:0:0:0:
160,192,86571,1,0,0:0:0:0:
480,192,86571,1,0,0:0:0:0:
32,192,86852,1,0,0:0:0:0:
480,192,86852,1,0,0:0:0:0:
96,192,86852,1,0,0:0:0:0:
288,192,86852,1,0,0:0:0:0:
416,192,86852,1,0,0:0:0:0:
96,192,87134,1,0,0:0:0:0:
160,192,87134,1,0,0:0:0:0:
288,192,87134,1,0,0:0:0:0:
480,192,87134,1,0,0:0:0:0:
416,192,87134,1,0,0:0:0:0:
96,192,87345,1,0,0:0:0:0:
160,192,87345,1,0,0:0:0:0:
288,192,87345,1,0,0:0:0:0:
416,192,87345,1,0,0:0:0:0:
480,192,87345,1,0,0:0:0:0:
32,192,87557,1,0,0:0:0:0:
160,192,87557,1,0,0:0:0:0:
288,192,87557,1,0,0:0:0:0:
96,192,87557,1,0,0:0:0:0:
480,192,87557,1,0,0:0:0:0:
416,192,87557,1,0,0:0:0:0:
160,192,87873,1,0,0:0:0:0:
416,192,87873,1,0,0:0:0:0:
96,192,87979,1,0,0:0:0:0:
224,192,87979,1,0,0:0:0:0:
352,192,87979,1,0,0:0:0:0:
480,192,87979,1,0,0:0:0:0:
288,192,88190,1,0,0:0:0:0:
416,192,88190,1,0,0:0:0:0:
160,192,88296,1,0,0:0:0:0:
480,192,88296,1,0,0:0:0:0:
224,192,88402,1,0,0:0:0:0:
352,192,88402,1,0,0:0:0:0:
96,192,88402,1,0,0:0:0:0:
160,192,88613,1,0,0:0:0:0:
416,192,88613,1,0,0:0:0:0:
224,192,88719,1,0,0:0:0:0:
352,192,88719,1,0,0:0:0:0:
96,192,88824,1,0,0:0:0:0:
160,192,88824,1,0,0:0:0:0:
416,192,88824,1,0,0:0:0:0:
480,192,88824,1,0,0:0:0:0:
224,192,89035,1,0,0:0:0:0:
96,192,89035,1,0,0:0:0:0:
288,192,89141,1,0,0:0:0:0:
160,192,89141,1,0,0:0:0:0:
96,192,89247,1,0,0:0:0:0:
352,192,89247,1,0,0:0:0:0:
480,192,89247,1,0,0:0:0:0:
160,192,89564,1,0,0:0:0:0:
352,192,89564,1,0,0:0:0:0:
96,192,89669,1,0,0:0:0:0:
288,192,89669,1,0,0:0:0:0:
416,192,89669,1,0,0:0:0:0:
224,192,89669,1,0,0:0:0:0:
160,192,89880,1,0,0:0:0:0:
416,192,89880,1,0,0:0:0:0:
224,192,89986,1,0,0:0:0:0:
352,192,89986,1,0,0:0:0:0:
480,192,90092,1,0,0:0:0:0:
288,192,90092,1,0,0:0:0:0:
96,192,90092,1,0,0:0:0:0:
96,192,90303,1,0,0:0:0:0:
224,192,90303,1,0,0:0:0:0:
160,192,90409,1,0,0:0:0:0:
288,192,90409,1,0,0:0:0:0:
224,192,90514,1,0,0:0:0:0:
96,192,90514,1,0,0:0:0:0:
352,192,90514,1,0,0:0:0:0:
416,192,90514,1,0,0:0:0:0:
480,192,90726,1,0,0:0:0:0:
288,192,90726,1,0,0:0:0:0:
416,192,90831,1,0,0:0:0:0:
224,192,90831,1,0,0:0:0:0:
352,192,90937,1,0,0:0:0:0:
160,192,90937,1,0,0:0:0:0:
96,192,90937,1,0,0:0:0:0:
160,192,91254,1,0,0:0:0:0:
416,192,91254,1,0,0:0:0:0:
96,192,91359,1,0,0:0:0:0:
288,192,91359,1,0,0:0:0:0:
224,192,91359,1,0,0:0:0:0:
480,192,91359,1,0,0:0:0:0:
416,192,91571,1,0,0:0:0:0:
160,192,91571,1,0,0:0:0:0:
352,192,91676,1,0,0:0:0:0:
96,192,91676,1,0,0:0:0:0:
224,192,91782,1,0,0:0:0:0:
288,192,91782,1,0,0:0:0:0:
480,192,91782,1,0,0:0:0:0:
160,192,91993,1,0,0:0:0:0:
352,192,91993,1,0,0:0:0:0:
416,192,92099,1,0,0:0:0:0:
224,192,92099,1,0,0:0:0:0:
96,192,92204,1,0,0:0:0:0:
288,192,92204,1,0,0:0:0:0:
480,192,92204,1,0,0:0:0:0:
160,192,92416,1,0,0:0:0:0:
416,192,92416,1,0,0:0:0:0:
224,192,92521,1,0,0:0:0:0:
352,192,92521,1,0,0:0:0:0:
96,192,92627,1,0,0:0:0:0:
288,192,92627,1,0,0:0:0:0:
480,192,92627,1,0,0:0:0:0:
160,192,92944,1,0,0:0:0:0:
480,192,92944,1,0,0:0:0:0:
352,192,93050,1,0,0:0:0:0:
96,192,93050,1,0,0:0:0:0:
224,192,93050,1,0,0:0:0:0:
416,192,93050,1,0,0:0:0:0:
160,192,93261,1,0,0:0:0:0:
480,192,93261,1,0,0:0:0:0:
416,192,93366,1,0,0:0:0:0:
224,192,93366,1,0,0:0:0:0:
96,192,93472,1,0,0:0:0:0:
288,192,93472,1,0,0:0:0:0:
160,192,93472,1,0,0:0:0:0:
480,192,93683,1,0,0:0:0:0:
224,192,93683,1,0,0:0:0:0:
416,192,93789,1,0,0:0:0:0:
160,192,93789,1,0,0:0:0:0:
96,192,93895,1,0,0:0:0:0:
224,192,93895,1,0,0:0:0:0:
352,192,93895,1,0,0:0:0:0:
480,192,93895,1,0,0:0:0:0:
96,192,94106,1,0,0:0:0:0:
160,192,94141,1,0,0:0:0:0:
224,192,94176,1,0,0:0:0:0:
480,192,94211,1,0,0:0:0:0:
416,192,94247,1,0,0:0:0:0:
352,192,94282,1,0,0:0:0:0:
288,192,94317,1,0,0:0:0:0:
96,192,94317,1,0,0:0:0:0:
160,192,94317,1,0,0:0:0:0:
480,192,94317,1,0,0:0:0:0:
32,192,94317,1,0,0:0:0:0:
160,192,94634,1,0,0:0:0:0:
416,192,94634,1,0,0:0:0:0:
96,192,94740,1,0,0:0:0:0:
224,192,94740,1,0,0:0:0:0:
352,192,94740,1,0,0:0:0:0:
480,192,94740,1,0,0:0:0:0:
160,192,94951,1,0,0:0:0:0:
288,192,94951,1,0,0:0:0:0:
224,192,95057,1,0,0:0:0:0:
352,192,95057,1,0,0:0:0:0:
96,192,95162,1,0,0:0:0:0:
160,192,95162,1,0,0:0:0:0:
416,192,95162,1,0,0:0:0:0:
480,192,95373,1,0,0:0:0:0:
288,192,95373,1,0,0:0:0:0:
416,192,95479,1,0,0:0:0:0:
224,192,95479,1,0,0:0:0:0:
352,192,95585,1,0,0:0:0:0:
160,192,95585,1,0,0:0:0:0:
96,192,95585,1,0,0:0:0:0:
480,192,95585,1,0,0:0:0:0:
96,192,95796,1,0,0:0:0:0:
416,192,95796,1,0,0:0:0:0:
160,192,95902,1,0,0:0:0:0:
352,192,95902,1,0,0:0:0:0:
224,192,96007,1,0,0:0:0:0:
288,192,96007,1,0,0:0:0:0:
480,192,96007,1,0,0:0:0:0:
160,192,96324,1,0,0:0:0:0:
416,192,96324,1,0,0:0:0:0:
96,192,96430,1,0,0:0:0:0:
288,192,96430,1,0,0:0:0:0:
352,192,96430,1,0,0:0:0:0:
480,192,96430,1,0,0:0:0:0:
160,192,96641,1,0,0:0:0:0:
416,192,96641,1,0,0:0:0:0:
224,192,96747,1,0,0:0:0:0:
480,192,96747,1,0,0:0:0:0:
96,192,96852,1,0,0:0:0:0:
352,192,96852,1,0,0:0:0:0:
288,192,96852,1,0,0:0:0:0:
224,192,97064,1,0,0:0:0:0:
352,192,97064,1,0,0:0:0:0:
160,192,97169,1,0,0:0:0:0:
288,192,97169,1,0,0:0:0:0:
96,192,97275,1,0,0:0:0:0:
224,192,97275,1,0,0:0:0:0:
352,192,97275,1,0,0:0:0:0:
416,192,97275,1,0,0:0:0:0:
160,192,97486,1,0,0:0:0:0:
352,192,97486,1,0,0:0:0:0:
224,192,97592,1,0,0:0:0:0:
416,192,97592,1,0,0:0:0:0:
96,192,97697,1,0,0:0:0:0:
352,192,97697,1,0,0:0:0:0:
288,192,97697,1,0,0:0:0:0:
160,192,97909,1,0,0:0:0:0:
416,192,97909,1,0,0:0:0:0:
224,192,98014,1,0,0:0:0:0:
480,192,98014,1,0,0:0:0:0:
96,192,98120,1,0,0:0:0:0:
160,192,98120,1,0,0:0:0:0:
352,192,98120,1,0,0:0:0:0:
416,192,98120,1,0,0:0:0:0:
224,192,98331,1,0,0:0:0:0:
480,192,98331,1,0,0:0:0:0:
96,192,98437,1,0,0:0:0:0:
352,192,98437,1,0,0:0:0:0:
160,192,98542,1,0,0:0:0:0:
288,192,98542,1,0,0:0:0:0:
416,192,98542,1,0,0:0:0:0:
224,192,98754,1,0,0:0:0:0:
480,192,98754,1,0,0:0:0:0:
160,192,98859,1,0,0:0:0:0:
416,192,98859,1,0,0:0:0:0:
96,192,98965,1,0,0:0:0:0:
224,192,98965,1,0,0:0:0:0:
352,192,98965,1,0,0:0:0:0:
480,192,98965,1,0,0:0:0:0:
96,192,99176,1,0,0:0:0:0:
352,192,99176,1,0,0:0:0:0:
160,192,99282,1,0,0:0:0:0:
416,192,99282,1,0,0:0:0:0:
224,192,99388,1,0,0:0:0:0:
480,192,99388,1,0,0:0:0:0:
352,192,99388,1,0,0:0:0:0:
224,192,99528,1,0,0:0:0:0:
352,192,99528,1,0,0:0:0:0:
480,192,99528,1,0,0:0:0:0:
288,192,99669,1,0,0:0:0:0:
160,192,99669,1,0,0:0:0:0:
416,192,99669,1,0,0:0:0:0:
160,192,99810,1,0,0:0:0:0:
288,192,99810,1,0,0:0:0:0:
416,192,99810,1,0,0:0:0:0:
32,192,99810,128,0,100233:0:0:0:0:
288,192,100021,1,0,0:0:0:0:
352,192,100127,1,0,0:0:0:0:
416,192,100233,1,0,0:0:0:0:
160,192,100233,1,0,0:0:0:0:
480,192,100338,1,0,0:0:0:0:
96,192,100444,1,0,0:0:0:0:
352,192,100444,1,0,0:0:0:0:
416,192,100550,1,0,0:0:0:0:
288,192,100655,1,0,0:0:0:0:
96,192,100655,1,0,0:0:0:0:
160,192,100708,1,0,0:0:0:0:
224,192,100761,1,0,0:0:0:0:
480,192,100761,1,0,0:0:0:0:
288,192,100814,1,0,0:0:0:0:
416,192,100866,1,0,0:0:0:0:
96,192,100866,1,0,0:0:0:0:
352,192,100866,1,0,0:0:0:0:
160,192,100902,1,0,0:0:0:0:
224,192,100937,1,0,0:0:0:0:
288,192,100972,1,0,0:0:0:0:
480,192,100972,1,0,0:0:0:0:
352,192,101007,1,0,0:0:0:0:
416,192,101042,1,0,0:0:0:0:
480,192,101078,1,0,0:0:0:0:
96,192,101078,1,0,0:0:0:0:
32,192,101078,1,0,0:0:0:0:
160,192,101078,1,0,0:0:0:0:
288,192,101078,1,0,0:0:0:0:
224,192,101289,1,0,0:0:0:0:
416,192,101289,1,0,0:0:0:0:
96,192,101395,1,0,0:0:0:0:
352,192,101395,1,0,0:0:0:0:
160,192,101500,1,0,0:0:0:0:
288,192,101500,1,0,0:0:0:0:
416,192,101500,1,0,0:0:0:0:
480,192,101500,1,0,0:0:0:0:
96,192,101711,1,0,0:0:0:0:
160,192,101817,1,0,0:0:0:0:
224,192,101923,1,0,0:0:0:0:
480,192,101923,1,0,0:0:0:0:
352,192,101923,1,0,0:0:0:0:
96,192,102134,1,0,0:0:0:0:
160,192,102134,1,0,0:0:0:0:
288,192,102134,1,0,0:0:0:0:
224,192,102345,1,0,0:0:0:0:
160,192,102345,1,0,0:0:0:0:
352,192,102345,1,0,0:0:0:0:
416,192,102345,1,0,0:0:0:0:
288,192,102557,1,0,0:0:0:0:
480,192,102557,1,0,0:0:0:0:
224,192,102662,1,0,0:0:0:0:
416,192,102662,1,0,0:0:0:0:
352,192,102768,1,0,0:0:0:0:
160,192,102768,1,0,0:0:0:0:
96,192,102768,1,0,0:0:0:0:
480,192,102979,1,0,0:0:0:0:
96,192,102979,1,0,0:0:0:0:
224,192,103085,1,0,0:0:0:0:
352,192,103085,1,0,0:0:0:0:
96,192,103190,1,0,0:0:0:0:
160,192,103190,1,0,0:0:0:0:
288,192,103190,1,0,0:0:0:0:
416,192,103190,1,0,0:0:0:0:
96,192,103402,1,0,0:0:0:0:
224,192,103402,1,0,0:0:0:0:
352,192,103402,1,0,0:0:0:0:
160,192,103613,1,0,0:0:0:0:
288,192,103613,1,0,0:0:0:0:
480,192,103613,1,0,0:0:0:0:
416,192,103824,1,0,0:0:0:0:
352,192,103824,1,0,0:0:0:0:
224,192,103824,1,0,0:0:0:0:
160,192,104035,1,0,0:0:0:0:
288,192,104035,1,0,0:0:0:0:
480,192,104035,1,0,0:0:0:0:
96,192,104035,1,0,0:0:0:0:
96,192,104247,1,0,0:0:0:0:
288,192,104247,1,0,0:0:0:0:
160,192,104352,1,0,0:0:0:0:
352,192,104352,1,0,0:0:0:0:
224,192,104458,1,0,0:0:0:0:
416,192,104458,1,0,0:0:0:0:
480,192,104458,1,0,0:0:0:0:
352,192,104669,1,0,0:0:0:0:
480,192,104669,1,0,0:0:0:0:
288,192,104775,1,0,0:0:0:0:
416,192,104775,1,0,0:0:0:0:
96,192,104880,1,0,0:0:0:0:
224,192,104880,1,0,0:0:0:0:
160,192,104880,1,0,0:0:0:0:
352,192,104880,1,0,0:0:0:0:
160,192,105092,1,0,0:0:0:0:
288,192,105197,1,0,0:0:0:0:
224,192,105303,1,0,0:0:0:0:
480,192,105303,1,0,0:0:0:0:
160,192,105514,1,0,0:0:0:0:
288,192,105514,1,0,0:0:0:0:
416,192,105514,1,0,0:0:0:0:
96,192,105726,1,0,0:0:0:0:
224,192,105726,1,0,0:0:0:0:
352,192,105726,1,0,0:0:0:0:
480,192,105726,1,0,0:0:0:0:
160,192,105937,1,0,0:0:0:0:
96,192,105937,1,0,0:0:0:0:
224,192,105937,1,0,0:0:0:0:
352,192,106148,1,0,0:0:0:0:
416,192,106148,1,0,0:0:0:0:
480,192,106148,1,0,0:0:0:0:
96,192,106359,1,0,0:0:0:0:
288,192,106359,1,0,0:0:0:0:
160,192,106465,1,0,0:0:0:0:
352,192,106465,1,0,0:0:0:0:
224,192,106571,1,0,0:0:0:0:
96,192,106571,1,0,0:0:0:0:
416,192,106571,1,0,0:0:0:0:
480,192,106571,1,0,0:0:0:0:
288,192,106676,1,0,0:0:0:0:
160,192,106676,1,0,0:0:0:0:
224,192,106782,1,0,0:0:0:0:
352,192,106782,1,0,0:0:0:0:
480,192,106888,1,0,0:0:0:0:
288,192,106888,1,0,0:0:0:0:
416,192,106993,1,0,0:0:0:0:
160,192,106993,1,0,0:0:0:0:
352,192,107099,1,0,0:0:0:0:
96,192,107099,1,0,0:0:0:0:
160,192,107204,1,0,0:0:0:0:
416,192,107204,1,0,0:0:0:0:
288,192,107204,1,0,0:0:0:0:
480,192,107310,1,0,0:0:0:0:
224,192,107310,1,0,0:0:0:0:
96,192,107416,1,0,0:0:0:0:
160,192,107416,1,0,0:0:0:0:
288,192,107416,1,0,0:0:0:0:
416,192,107416,1,0,0:0:0:0:
224,192,107521,1,0,0:0:0:0:
352,192,107521,1,0,0:0:0:0:
480,192,107627,1,0,0:0:0:0:
288,192,107627,1,0,0:0:0:0:
96,192,107627,1,0,0:0:0:0:
160,192,107733,1,0,0:0:0:0:
352,192,107733,1,0,0:0:0:0:
224,192,107733,1,0,0:0:0:0:
288,192,107838,1,0,0:0:0:0:
32,192,107838,1,0,0:0:0:0:
224,192,107838,1,0,0:0:0:0:
480,192,107838,1,0,0:0:0:0:
96,192,107838,1,0,0:0:0:0:
160,192,108050,1,0,0:0:0:0:
352,192,108050,1,0,0:0:0:0:
416,192,108155,1,0,0:0:0:0:
224,192,108155,1,0,0:0:0:0:
96,192,108261,1,0,0:0:0:0:
480,192,108261,1,0,0:0:0:0:
352,192,108261,1,0,0:0:0:0:
288,192,108261,1,0,0:0:0:0:
224,192,108472,1,0,0:0:0:0:
416,192,108472,1,0,0:0:0:0:
160,192,108578,1,0,0:0:0:0:
352,192,108578,1,0,0:0:0:0:
96,192,108683,1,0,0:0:0:0:
288,192,108683,1,0,0:0:0:0:
480,192,108895,1,0,0:0:0:0:
160,192,108895,1,0,0:0:0:0:
96,192,109000,1,0,0:0:0:0:
416,192,109000,1,0,0:0:0:0:
160,192,109106,1,0,0:0:0:0:
288,192,109106,1,0,0:0:0:0:
352,192,109106,1,0,0:0:0:0:
480,192,109106,1,0,0:0:0:0:
224,192,109317,1,0,0:0:0:0:
352,192,109317,1,0,0:0:0:0:
160,192,109423,1,0,0:0:0:0:
416,192,109423,1,0,0:0:0:0:
96,192,109528,1,0,0:0:0:0:
288,192,109528,1,0,0:0:0:0:
480,192,109528,1,0,0:0:0:0:
160,192,109740,1,0,0:0:0:0:
352,192,109740,1,0,0:0:0:0:
224,192,109845,1,0,0:0:0:0:
416,192,109845,1,0,0:0:0:0:
96,192,109951,1,0,0:0:0:0:
288,192,109951,1,0,0:0:0:0:
352,192,109951,1,0,0:0:0:0:
480,192,109951,1,0,0:0:0:0:
160,192,110162,1,0,0:0:0:0:
416,192,110162,1,0,0:0:0:0:
224,192,110268,1,0,0:0:0:0:
480,192,110268,1,0,0:0:0:0:
96,192,110373,1,0,0:0:0:0:
352,192,110373,1,0,0:0:0:0:
160,192,110585,1,0,0:0:0:0:
224,192,110585,1,0,0:0:0:0:
96,192,110585,1,0,0:0:0:0:
352,192,110796,1,0,0:0:0:0:
160,192,110796,1,0,0:0:0:0:
288,192,110796,1,0,0:0:0:0:
480,192,110796,1,0,0:0:0:0:
96,192,111007,1,0,0:0:0:0:
352,192,111007,1,0,0:0:0:0:
160,192,111113,1,0,0:0:0:0:
416,192,111113,1,0,0:0:0:0:
224,192,111219,1,0,0:0:0:0:
480,192,111219,1,0,0:0:0:0:
288,192,111219,1,0,0:0:0:0:
416,192,111324,1,0,0:0:0:0:
96,192,111430,1,0,0:0:0:0:
352,192,111430,1,0,0:0:0:0:
160,192,111535,1,0,0:0:0:0:
416,192,111535,1,0,0:0:0:0:
224,192,111641,1,0,0:0:0:0:
96,192,111641,1,0,0:0:0:0:
352,192,111641,1,0,0:0:0:0:
480,192,111641,1,0,0:0:0:0:
288,192,111747,1,0,0:0:0:0:
224,192,111852,1,0,0:0:0:0:
416,192,111852,1,0,0:0:0:0:
352,192,111958,1,0,0:0:0:0:
160,192,111958,1,0,0:0:0:0:
96,192,112064,1,0,0:0:0:0:
224,192,112064,1,0,0:0:0:0:
480,192,112064,1,0,0:0:0:0:
416,192,112169,1,0,0:0:0:0:
352,192,112275,1,0,0:0:0:0:
160,192,112275,1,0,0:0:0:0:
288,192,112380,1,0,0:0:0:0:
96,192,112486,1,0,0:0:0:0:
224,192,112486,1,0,0:0:0:0:
416,192,112486,1,0,0:0:0:0:
480,192,112486,1,0,0:0:0:0:
352,192,112592,1,0,0:0:0:0:
288,192,112697,1,0,0:0:0:0:
480,192,112697,1,0,0:0:0:0:
224,192,112803,1,0,0:0:0:0:
416,192,112803,1,0,0:0:0:0:
96,192,112909,1,0,0:0:0:0:
288,192,112909,1,0,0:0:0:0:
480,192,112909,1,0,0:0:0:0:
288,192,113120,1,0,0:0:0:0:
480,192,113120,1,0,0:0:0:0:
160,192,113120,1,0,0:0:0:0:
416,192,113226,1,0,0:0:0:0:
224,192,113226,1,0,0:0:0:0:
96,192,113331,1,0,0:0:0:0:
160,192,113331,1,0,0:0:0:0:
288,192,113331,1,0,0:0:0:0:
480,192,113331,1,0,0:0:0:0:
416,192,113437,1,0,0:0:0:0:
224,192,113437,1,0,0:0:0:0:
352,192,113542,1,0,0:0:0:0:
160,192,113542,1,0,0:0:0:0:
96,192,113542,1,0,0:0:0:0:
224,192,113648,1,0,0:0:0:0:
416,192,113648,1,0,0:0:0:0:
288,192,113754,1,0,0:0:0:0:
480,192,113754,1,0,0:0:0:0:
96,192,113754,1,0,0:0:0:0:
352,192,113859,1,0,0:0:0:0:
160,192,113859,1,0,0:0:0:0:
96,192,113965,1,0,0:0:0:0:
224,192,113965,1,0,0:0:0:0:
416,192,113965,1,0,0:0:0:0:
160,192,114071,1,0,0:0:0:0:
352,192,114071,1,0,0:0:0:0:
96,192,114176,1,0,0:0:0:0:
288,192,114176,1,0,0:0:0:0:
480,192,114176,1,0,0:0:0:0:
416,192,114176,1,0,0:0:0:0:
352,192,114282,1,0,0:0:0:0:
160,192,114282,1,0,0:0:0:0:
96,192,114388,1,0,0:0:0:0:
224,192,114388,1,0,0:0:0:0:
480,192,114388,1,0,0:0:0:0:
160,192,114493,1,0,0:0:0:0:
416,192,114493,1,0,0:0:0:0:
32,192,114599,1,0,0:0:0:0:
96,192,114599,1,0,0:0:0:0:
288,192,114599,1,0,0:0:0:0:
352,192,114599,1,0,0:0:0:0:
480,192,114599,1,0,0:0:0:0:
160,192,114704,1,0,0:0:0:0:
224,192,114810,1,0,0:0:0:0:
288,192,114916,1,0,0:0:0:0:
160,192,115021,1,0,0:0:0:0:
224,192,115127,1,0,0:0:0:0:
288,192,115233,1,0,0:0:0:0:
352,192,115338,1,0,0:0:0:0:
224,192,115444,1,0,0:0:0:0:
288,192,115550,1,0,0:0:0:0:
352,192,115655,1,0,0:0:0:0:
416,192,115761,1,0,0:0:0:0:
288,192,115866,1,0,0:0:0:0:
96,192,115866,1,0,0:0:0:0:
352,192,115972,1,0,0:0:0:0:
416,192,116078,1,0,0:0:0:0:
96,192,116078,1,0,0:0:0:0:
224,192,116183,1,0,0:0:0:0:
32,192,116289,1,0,0:0:0:0:
160,192,116289,1,0,0:0:0:0:
288,192,116289,1,0,0:0:0:0:
416,192,116289,1,0,0:0:0:0:
480,192,116289,1,0,0:0:0:0:
96,192,116500,1,0,0:0:0:0:
352,192,116500,1,0,0:0:0:0:
224,192,116500,1,0,0:0:0:0:
288,192,116606,1,0,0:0:0:0:
480,192,116606,1,0,0:0:0:0:
416,192,116711,1,0,0:0:0:0:
352,192,116711,1,0,0:0:0:0:
160,192,116711,1,0,0:0:0:0:
224,192,116711,1,0,0:0:0:0:
96,192,116923,1,0,0:0:0:0:
288,192,116923,1,0,0:0:0:0:
480,192,116923,1,0,0:0:0:0:
416,192,117028,1,0,0:0:0:0:
160,192,117028,1,0,0:0:0:0:
224,192,117134,1,0,0:0:0:0:
352,192,117134,1,0,0:0:0:0:
480,192,117134,1,0,0:0:0:0:
96,192,117240,1,0,0:0:0:0:
288,192,117240,1,0,0:0:0:0:
160,192,117345,1,0,0:0:0:0:
352,192,117345,1,0,0:0:0:0:
480,192,117345,1,0,0:0:0:0:
416,192,117451,1,0,0:0:0:0:
224,192,117451,1,0,0:0:0:0:
288,192,117557,1,0,0:0:0:0:
96,192,117557,1,0,0:0:0:0:
160,192,117557,1,0,0:0:0:0:
480,192,117557,1,0,0:0:0:0:
416,192,117768,1,0,0:0:0:0:
224,192,117768,1,0,0:0:0:0:
352,192,117768,1,0,0:0:0:0:
288,192,117873,1,0,0:0:0:0:
96,192,117873,1,0,0:0:0:0:
160,192,117979,1,0,0:0:0:0:
352,192,117979,1,0,0:0:0:0:
480,192,117979,1,0,0:0:0:0:
224,192,118190,1,0,0:0:0:0:
416,192,118190,1,0,0:0:0:0:
288,192,118190,1,0,0:0:0:0:
160,192,118296,1,0,0:0:0:0:
352,192,118296,1,0,0:0:0:0:
96,192,118402,1,0,0:0:0:0:
480,192,118402,1,0,0:0:0:0:
416,192,118402,1,0,0:0:0:0:
288,192,118402,1,0,0:0:0:0:
160,192,118507,1,0,0:0:0:0:
224,192,118613,1,0,0:0:0:0:
416,192,118613,1,0,0:0:0:0:
480,192,118613,1,0,0:0:0:0:
352,192,118719,1,0,0:0:0:0:
96,192,118719,1,0,0:0:0:0:
160,192,118824,1,0,0:0:0:0:
288,192,118824,1,0,0:0:0:0:
480,192,118824,1,0,0:0:0:0:
224,192,119035,1,0,0:0:0:0:
416,192,119035,1,0,0:0:0:0:
352,192,119035,1,0,0:0:0:0:
288,192,119141,1,0,0:0:0:0:
160,192,119141,1,0,0:0:0:0:
96,192,119247,1,0,0:0:0:0:
352,192,119247,1,0,0:0:0:0:
480,192,119247,1,0,0:0:0:0:
416,192,119247,1,0,0:0:0:0:
224,192,119352,1,0,0:0:0:0:
160,192,119352,1,0,0:0:0:0:
288,192,119458,1,0,0:0:0:0:
480,192,119458,1,0,0:0:0:0:
416,192,119458,1,0,0:0:0:0:
352,192,119564,1,0,0:0:0:0:
160,192,119564,1,0,0:0:0:0:
96,192,119669,1,0,0:0:0:0:
288,192,119669,1,0,0:0:0:0:
480,192,119669,1,0,0:0:0:0:
160,192,119880,1,0,0:0:0:0:
352,192,119880,1,0,0:0:0:0:
480,192,119880,1,0,0:0:0:0:
416,192,119986,1,0,0:0:0:0:
224,192,119986,1,0,0:0:0:0:
288,192,120092,1,0,0:0:0:0:
96,192,120092,1,0,0:0:0:0:
352,192,120092,1,0,0:0:0:0:
480,192,120092,1,0,0:0:0:0:
160,192,120303,1,0,0:0:0:0:
416,192,120303,1,0,0:0:0:0:
224,192,120303,1,0,0:0:0:0:
352,192,120409,1,0,0:0:0:0:
96,192,120409,1,0,0:0:0:0:
224,192,120514,1,0,0:0:0:0:
416,192,120514,1,0,0:0:0:0:
480,192,120514,1,0,0:0:0:0:
160,192,120726,1,0,0:0:0:0:
416,192,120726,1,0,0:0:0:0:
288,192,120726,1,0,0:0:0:0:
352,192,120831,1,0,0:0:0:0:
224,192,120831,1,0,0:0:0:0:
96,192,120937,1,0,0:0:0:0:
160,192,120937,1,0,0:0:0:0:
288,192,120937,1,0,0:0:0:0:
480,192,120937,1,0,0:0:0:0:
416,192,121042,1,0,0:0:0:0:
224,192,121042,1,0,0:0:0:0:
352,192,121148,1,0,0:0:0:0:
160,192,121148,1,0,0:0:0:0:
96,192,121148,1,0,0:0:0:0:
224,192,121254,1,0,0:0:0:0:
416,192,121254,1,0,0:0:0:0:
352,192,121359,1,0,0:0:0:0:
160,192,121359,1,0,0:0:0:0:
480,192,121359,1,0,0:0:0:0:
96,192,121571,1,0,0:0:0:0:
288,192,121571,1,0,0:0:0:0:
480,192,121571,1,0,0:0:0:0:
160,192,121676,1,0,0:0:0:0:
352,192,121676,1,0,0:0:0:0:
224,192,121782,1,0,0:0:0:0:
480,192,121782,1,0,0:0:0:0:
416,192,121782,1,0,0:0:0:0:
96,192,121782,1,0,0:0:0:0:
352,192,121888,1,0,0:0:0:0:
160,192,121888,1,0,0:0:0:0:
288,192,121993,1,0,0:0:0:0:
480,192,121993,1,0,0:0:0:0:
224,192,121993,1,0,0:0:0:0:
352,192,122099,1,0,0:0:0:0:
160,192,122099,1,0,0:0:0:0:
480,192,122204,1,0,0:0:0:0:
224,192,122204,1,0,0:0:0:0:
96,192,122204,1,0,0:0:0:0:
288,192,122310,1,0,0:0:0:0:
416,192,122310,1,0,0:0:0:0:
160,192,122416,1,0,0:0:0:0:
480,192,122416,1,0,0:0:0:0:
352,192,122416,1,0,0:0:0:0:
224,192,122486,1,0,0:0:0:0:
416,192,122521,1,0,0:0:0:0:
288,192,122557,1,0,0:0:0:0:
352,192,122627,1,0,0:0:0:0:
96,192,122627,1,0,0:0:0:0:
480,192,122627,1,0,0:0:0:0:
160,192,122627,1,0,0:0:0:0:
288,192,122838,1,0,0:0:0:0:
416,192,122838,1,0,0:0:0:0:
96,192,122838,1,0,0:0:0:0:
224,192,122909,1,0,0:0:0:0:
352,192,122944,1,0,0:0:0:0:
160,192,122979,1,0,0:0:0:0:
96,192,123050,1,0,0:0:0:0:
480,192,123050,1,0,0:0:0:0:
288,192,123050,1,0,0:0:0:0:
32,192,123050,1,0,0:0:0:0:
416,192,123050,1,0,0:0:0:0:
416,192,123261,1,0,0:0:0:0:
160,192,123261,1,0,0:0:0:0:
352,192,123261,1,0,0:0:0:0:
288,192,123366,1,0,0:0:0:0:
480,192,123366,1,0,0:0:0:0:
96,192,123472,1,0,0:0:0:0:
224,192,123472,1,0,0:0:0:0:
416,192,123472,1,0,0:0:0:0:
352,192,123472,1,0,0:0:0:0:
160,192,123578,1,0,0:0:0:0:
480,192,123578,1,0,0:0:0:0:
416,192,123683,1,0,0:0:0:0:
288,192,123683,1,0,0:0:0:0:
96,192,123683,1,0,0:0:0:0:
224,192,123789,1,0,0:0:0:0:
352,192,123789,1,0,0:0:0:0:
160,192,123895,1,0,0:0:0:0:
288,192,123895,1,0,0:0:0:0:
480,192,123895,1,0,0:0:0:0:
96,192,123895,1,0,0:0:0:0:
96,192,124106,1,0,0:0:0:0:
352,192,124106,1,0,0:0:0:0:
480,192,124106,1,0,0:0:0:0:
160,192,124211,1,0,0:0:0:0:
416,192,124211,1,0,0:0:0:0:
352,192,124317,1,0,0:0:0:0:
224,192,124317,1,0,0:0:0:0:
96,192,124317,1,0,0:0:0:0:
480,192,124317,1,0,0:0:0:0:
288,192,124423,1,0,0:0:0:0:
160,192,124423,1,0,0:0:0:0:
416,192,124528,1,0,0:0:0:0:
224,192,124528,1,0,0:0:0:0:
352,192,124528,1,0,0:0:0:0:
288,192,124634,1,0,0:0:0:0:
160,192,124634,1,0,0:0:0:0:
96,192,124740,1,0,0:0:0:0:
352,192,124740,1,0,0:0:0:0:
480,192,124740,1,0,0:0:0:0:
160,192,124951,1,0,0:0:0:0:
416,192,124951,1,0,0:0:0:0:
288,192,124951,1,0,0:0:0:0:
224,192,125057,1,0,0:0:0:0:
480,192,125057,1,0,0:0:0:0:
416,192,125162,1,0,0:0:0:0:
288,192,125162,1,0,0:0:0:0:
96,192,125162,1,0,0:0:0:0:
160,192,125268,1,0,0:0:0:0:
352,192,125268,1,0,0:0:0:0:
224,192,125373,1,0,0:0:0:0:
416,192,125373,1,0,0:0:0:0:
480,192,125373,1,0,0:0:0:0:
96,192,125479,1,0,0:0:0:0:
288,192,125479,1,0,0:0:0:0:
160,192,125585,1,0,0:0:0:0:
416,192,125585,1,0,0:0:0:0:
224,192,125585,1,0,0:0:0:0:
288,192,125796,1,0,0:0:0:0:
480,192,125796,1,0,0:0:0:0:
160,192,125796,1,0,0:0:0:0:
416,192,125902,1,0,0:0:0:0:
96,192,125902,1,0,0:0:0:0:
224,192,126007,1,0,0:0:0:0:
352,192,126007,1,0,0:0:0:0:
480,192,126007,1,0,0:0:0:0:
32,192,126007,1,0,0:0:0:0:
32,192,126219,1,0,0:0:0:0:
224,192,126219,1,0,0:0:0:0:
352,192,126219,1,0,0:0:0:0:
480,192,126219,1,0,0:0:0:0:
32,192,126430,1,0,0:0:0:0:
224,192,126430,1,0,0:0:0:0:
352,192,126430,1,0,0:0:0:0:
480,192,126430,1,0,0:0:0:0:
96,192,126535,1,0,0:0:0:0:
352,192,126641,1,0,0:0:0:0:
160,192,126641,1,0,0:0:0:0:
480,192,126641,1,0,0:0:0:0:
416,192,126747,1,0,0:0:0:0:
224,192,126747,1,0,0:0:0:0:
288,192,126852,1,0,0:0:0:0:
480,192,126852,1,0,0:0:0:0:
96,192,126852,1,0,0:0:0:0:
352,192,126852,1,0,0:0:0:0:
224,192,126958,1,0,0:0:0:0:
160,192,127064,1,0,0:0:0:0:
352,192,127064,1,0,0:0:0:0:
480,192,127064,1,0,0:0:0:0:
288,192,127169,1,0,0:0:0:0:
416,192,127169,1,0,0:0:0:0:
96,192,127275,1,0,0:0:0:0:
224,192,127275,1,0,0:0:0:0:
480,192,127275,1,0,0:0:0:0:
416,192,127380,1,0,0:0:0:0:
352,192,127486,1,0,0:0:0:0:
160,192,127486,1,0,0:0:0:0:
288,192,127486,1,0,0:0:0:0:
480,192,127592,1,0,0:0:0:0:
224,192,127592,1,0,0:0:0:0:
416,192,127697,1,0,0:0:0:0:
288,192,127697,1,0,0:0:0:0:
96,192,127697,1,0,0:0:0:0:
160,192,127697,1,0,0:0:0:0:
224,192,127803,1,0,0:0:0:0:
480,192,127909,1,0,0:0:0:0:
352,192,127909,1,0,0:0:0:0:
160,192,127909,1,0,0:0:0:0:
288,192,128014,1,0,0:0:0:0:
96,192,128014,1,0,0:0:0:0:
224,192,128120,1,0,0:0:0:0:
160,192,128120,1,0,0:0:0:0:
416,192,128120,1,0,0:0:0:0:
288,192,128331,1,0,0:0:0:0:
480,192,128331,1,0,0:0:0:0:
96,192,128331,1,0,0:0:0:0:
224,192,128437,1,0,0:0:0:0:
416,192,128437,1,0,0:0:0:0:
352,192,128542,1,0,0:0:0:0:
96,192,128542,1,0,0:0:0:0:
480,192,128542,1,0,0:0:0:0:
160,192,128542,1,0,0:0:0:0:
224,192,128648,1,0,0:0:0:0:
416,192,128648,1,0,0:0:0:0:
352,192,128754,1,0,0:0:0:0:
160,192,128754,1,0,0:0:0:0:
96,192,128754,1,0,0:0:0:0:
288,192,128859,1,0,0:0:0:0:
224,192,128965,1,0,0:0:0:0:
32,192,128965,1,0,0:0:0:0:
480,192,128965,1,0,0:0:0:0:
416,192,128965,1,0,0:0:0:0:
288,192,129071,1,0,0:0:0:0:
96,192,129071,1,0,0:0:0:0:
32,192,129176,1,0,0:0:0:0:
352,192,129176,1,0,0:0:0:0:
160,192,129176,1,0,0:0:0:0:
416,192,129176,1,0,0:0:0:0:
96,192,129282,1,0,0:0:0:0:
288,192,129282,1,0,0:0:0:0:
32,192,129388,1,0,0:0:0:0:
224,192,129388,1,0,0:0:0:0:
416,192,129388,1,0,0:0:0:0:
480,192,129388,1,0,0:0:0:0:
96,192,129493,1,0,0:0:0:0:
288,192,129493,1,0,0:0:0:0:
32,192,129599,1,0,0:0:0:0:
160,192,129599,1,0,0:0:0:0:
352,192,129599,1,0,0:0:0:0:
416,192,129599,1,0,0:0:0:0:
288,192,129704,1,0,0:0:0:0:
96,192,129704,1,0,0:0:0:0:
32,192,129810,1,0,0:0:0:0:
224,192,129810,1,0,0:0:0:0:
416,192,129810,1,0,0:0:0:0:
480,192,129810,1,0,0:0:0:0:
96,192,130021,1,0,0:0:0:0:
288,192,130021,1,0,0:0:0:0:
480,192,130021,1,0,0:0:0:0:
416,192,130127,1,0,0:0:0:0:
160,192,130127,1,0,0:0:0:0:
224,192,130233,1,0,0:0:0:0:
352,192,130233,1,0,0:0:0:0:
96,192,130233,1,0,0:0:0:0:
480,192,130233,1,0,0:0:0:0:
32,192,130233,1,0,0:0:0:0:
416,192,130338,1,0,0:0:0:0:
160,192,130338,1,0,0:0:0:0:
288,192,130444,1,0,0:0:0:0:
96,192,130444,1,0,0:0:0:0:
480,192,130444,1,0,0:0:0:0:
32,192,130444,1,0,0:0:0:0:
416,192,130550,1,0,0:0:0:0:
160,192,130550,1,0,0:0:0:0:
224,192,130655,1,0,0:0:0:0:
96,192,130655,1,0,0:0:0:0:
352,192,130655,1,0,0:0:0:0:
480,192,130655,1,0,0:0:0:0:
32,192,130655,1,0,0:0:0:0:
160,192,130761,1,0,0:0:0:0:
352,192,130866,1,0,0:0:0:0:
288,192,130972,1,0,0:0:0:0:
96,192,131078,1,0,0:0:0:0:
224,192,131183,1,0,0:0:0:0:
416,192,131289,1,0,0:0:0:0:
288,192,131395,1,0,0:0:0:0:
160,192,131500,1,0,0:0:0:0:
32,192,131500,1,0,0:0:0:0:
96,192,131500,1,0,0:0:0:0:
480,192,131500,128,0,132768:0:0:0:0:
416,192,131500,128,0,132768:0:0:0:0:
352,192,132768,1,0,0:0:0:0:
160,192,132768,1,0,0:0:0:0:
96,192,132768,1,0,0:0:0:0:
32,192,132768,128,0,133190:0:0:0:0:
96,192,133190,1,0,0:0:0:0:
288,192,133190,1,0,0:0:0:0:
416,192,133190,1,0,0:0:0:0:
480,192,133190,1,0,0:0:0:0:
224,192,133190,1,0,0:0:0:0:
160,192,133402,1,0,0:0:0:0:
224,192,133402,1,0,0:0:0:0:
224,192,133613,1,0,0:0:0:0:
352,192,133613,1,0,0:0:0:0:
480,192,133613,1,0,0:0:0:0:
352,192,133824,1,0,0:0:0:0:
96,192,133824,1,0,0:0:0:0:
224,192,133824,1,0,0:0:0:0:
288,192,134035,1,0,0:0:0:0:
480,192,134035,1,0,0:0:0:0:
96,192,134247,1,0,0:0:0:0:
224,192,134247,1,0,0:0:0:0:
160,192,134458,1,0,0:0:0:0:
288,192,134458,1,0,0:0:0:0:
416,192,134458,1,0,0:0:0:0:
224,192,134669,1,0,0:0:0:0:
352,192,134669,1,0,0:0:0:0:
160,192,135092,1,0,0:0:0:0:
288,192,135092,1,0,0:0:0:0:
96,192,135303,1,0,0:0:0:0:
224,192,135303,1,0,0:0:0:0:
480,192,135303,1,0,0:0:0:0:
288,192,135514,1,0,0:0:0:0:
416,192,135514,1,0,0:0:0:0:
224,192,135726,1,0,0:0:0:0:
96,192,135726,1,0,0:0:0:0:
160,192,135937,1,0,0:0:0:0:
288,192,135937,1,0,0:0:0:0:
224,192,136148,1,0,0:0:0:0:
352,192,136148,1,0,0:0:0:0:
480,192,136148,1,0,0:0:0:0:
96,192,136359,1,0,0:0:0:0:
160,192,136359,1,0,0:0:0:0:
224,192,136782,1,0,0:0:0:0:
352,192,136782,1,0,0:0:0:0:
96,192,136993,1,0,0:0:0:0:
288,192,136993,1,0,0:0:0:0:
480,192,136993,1,0,0:0:0:0:
160,192,137204,1,0,0:0:0:0:
288,192,137204,1,0,0:0:0:0:
416,192,137204,1,0,0:0:0:0:
96,192,137416,1,0,0:0:0:0:
224,192,137416,1,0,0:0:0:0:
352,192,137416,1,0,0:0:0:0:
480,192,137416,1,0,0:0:0:0:
160,192,137627,1,0,0:0:0:0:
288,192,137627,1,0,0:0:0:0:
352,192,137838,1,0,0:0:0:0:
480,192,137838,1,0,0:0:0:0:
224,192,138050,1,0,0:0:0:0:
96,192,138050,1,0,0:0:0:0:
224,192,138472,1,0,0:0:0:0:
96,192,138472,1,0,0:0:0:0:
288,192,138683,1,0,0:0:0:0:
160,192,138683,1,0,0:0:0:0:
416,192,138683,1,0,0:0:0:0:
224,192,138895,1,0,0:0:0:0:
96,192,138895,1,0,0:0:0:0:
352,192,139106,1,0,0:0:0:0:
480,192,139106,1,0,0:0:0:0:
160,192,139317,1,0,0:0:0:0:
224,192,139317,1,0,0:0:0:0:
96,192,139528,1,0,0:0:0:0:
288,192,139528,1,0,0:0:0:0:
416,192,139528,1,0,0:0:0:0:
480,192,139740,1,0,0:0:0:0:
416,192,139775,1,0,0:0:0:0:
352,192,139810,1,0,0:0:0:0:
288,192,139845,1,0,0:0:0:0:
224,192,139880,1,0,0:0:0:0:
160,192,139916,1,0,0:0:0:0:
480,192,139951,1,0,0:0:0:0:
352,192,139951,1,0,0:0:0:0:
96,192,139951,1,0,0:0:0:0:
32,192,139951,1,0,0:0:0:0:
160,192,140162,1,0,0:0:0:0:
288,192,140162,1,0,0:0:0:0:
224,192,140373,1,0,0:0:0:0:
352,192,140373,1,0,0:0:0:0:
480,192,140373,1,0,0:0:0:0:
96,192,140585,1,0,0:0:0:0:
160,192,140585,1,0,0:0:0:0:
288,192,140585,1,0,0:0:0:0:
224,192,140796,1,0,0:0:0:0:
352,192,140796,1,0,0:0:0:0:
96,192,141007,1,0,0:0:0:0:
288,192,141007,1,0,0:0:0:0:
160,192,141219,1,0,0:0:0:0:
352,192,141219,1,0,0:0:0:0:
480,192,141219,1,0,0:0:0:0:
288,192,141430,1,0,0:0:0:0:
96,192,141430,1,0,0:0:0:0:
224,192,141852,1,0,0:0:0:0:
96,192,141852,1,0,0:0:0:0:
160,192,142064,1,0,0:0:0:0:
352,192,142064,1,0,0:0:0:0:
480,192,142064,1,0,0:0:0:0:
288,192,142275,1,0,0:0:0:0:
96,192,142275,1,0,0:0:0:0:
352,192,142486,1,0,0:0:0:0:
480,192,142486,1,0,0:0:0:0:
224,192,142697,1,0,0:0:0:0:
96,192,142697,1,0,0:0:0:0:
160,192,142909,1,0,0:0:0:0:
416,192,142909,1,0,0:0:0:0:
288,192,142909,1,0,0:0:0:0:
96,192,143120,1,0,0:0:0:0:
224,192,143120,1,0,0:0:0:0:
160,192,143331,1,0,0:0:0:0:
288,192,143331,1,0,0:0:0:0:
352,192,143542,1,0,0:0:0:0:
224,192,143542,1,0,0:0:0:0:
96,192,143754,1,0,0:0:0:0:
288,192,143754,1,0,0:0:0:0:
480,192,143754,1,0,0:0:0:0:
416,192,143965,1,0,0:0:0:0:
160,192,143965,1,0,0:0:0:0:
288,192,143965,1,0,0:0:0:0:
352,192,144176,1,0,0:0:0:0:
224,192,144176,1,0,0:0:0:0:
96,192,144388,1,0,0:0:0:0:
480,192,144388,1,0,0:0:0:0:
416,192,144599,1,0,0:0:0:0:
288,192,144599,1,0,0:0:0:0:
160,192,144599,1,0,0:0:0:0:
224,192,144810,1,0,0:0:0:0:
352,192,144810,1,0,0:0:0:0:
96,192,145021,1,0,0:0:0:0:
224,192,145021,1,0,0:0:0:0:
352,192,145021,1,0,0:0:0:0:
96,192,145233,1,0,0:0:0:0:
160,192,145303,1,0,0:0:0:0:
224,192,145373,1,0,0:0:0:0:
288,192,145444,1,0,0:0:0:0:
160,192,145514,1,0,0:0:0:0:
224,192,145585,1,0,0:0:0:0:
288,192,145655,1,0,0:0:0:0:
352,192,145726,1,0,0:0:0:0:
416,192,145796,1,0,0:0:0:0:
480,192,145866,1,0,0:0:0:0:
96,192,145866,1,0,0:0:0:0:
160,192,145972,1,0,0:0:0:0:
416,192,145972,1,0,0:0:0:0:
224,192,146078,1,0,0:0:0:0:
352,192,146078,1,0,0:0:0:0:
288,192,146183,1,0,0:0:0:0:
96,192,146183,1,0,0:0:0:0:
160,192,146289,1,0,0:0:0:0:
352,192,146289,1,0,0:0:0:0:
416,192,146395,1,0,0:0:0:0:
224,192,146395,1,0,0:0:0:0:
480,192,146500,1,0,0:0:0:0:
288,192,146500,1,0,0:0:0:0:
416,192,146606,1,0,0:0:0:0:
224,192,146606,1,0,0:0:0:0:
352,192,146711,1,0,0:0:0:0:
160,192,146711,1,0,0:0:0:0:
32,192,146711,1,0,0:0:0:0:
96,192,146711,1,0,0:0:0:0:
480,192,146711,1,0,0:0:0:0:
224,192,146923,1,0,0:0:0:0:
288,192,146923,1,0,0:0:0:0:
480,192,146923,1,0,0:0:0:0:
160,192,147028,1,0,0:0:0:0:
416,192,147028,1,0,0:0:0:0:
96,192,147134,1,0,0:0:0:0:
288,192,147134,1,0,0:0:0:0:
224,192,147134,1,0,0:0:0:0:
480,192,147134,1,0,0:0:0:0:
160,192,147345,1,0,0:0:0:0:
352,192,147345,1,0,0:0:0:0:
288,192,147451,1,0,0:0:0:0:
480,192,147451,1,0,0:0:0:0:
96,192,147557,1,0,0:0:0:0:
224,192,147557,1,0,0:0:0:0:
416,192,147557,1,0,0:0:0:0:
160,192,147768,1,0,0:0:0:0:
352,192,147768,1,0,0:0:0:0:
224,192,147873,1,0,0:0:0:0:
416,192,147873,1,0,0:0:0:0:
96,192,147979,1,0,0:0:0:0:
288,192,147979,1,0,0:0:0:0:
480,192,147979,1,0,0:0:0:0:
352,192,147979,1,0,0:0:0:0:
416,192,148085,1,0,0:0:0:0:
160,192,148085,1,0,0:0:0:0:
288,192,148190,1,0,0:0:0:0:
480,192,148190,1,0,0:0:0:0:
224,192,148190,1,0,0:0:0:0:
160,192,148296,1,0,0:0:0:0:
416,192,148296,1,0,0:0:0:0:
96,192,148402,1,0,0:0:0:0:
352,192,148402,1,0,0:0:0:0:
224,192,148402,1,0,0:0:0:0:
224,192,148613,1,0,0:0:0:0:
480,192,148613,1,0,0:0:0:0:
288,192,148613,1,0,0:0:0:0:
416,192,148719,1,0,0:0:0:0:
160,192,148719,1,0,0:0:0:0:
96,192,148824,1,0,0:0:0:0:
224,192,148824,1,0,0:0:0:0:
288,192,148824,1,0,0:0:0:0:
480,192,148824,1,0,0:0:0:0:
160,192,149035,1,0,0:0:0:0:
416,192,149035,1,0,0:0:0:0:
288,192,149035,1,0,0:0:0:0:
96,192,149141,1,0,0:0:0:0:
352,192,149141,1,0,0:0:0:0:
160,192,149247,1,0,0:0:0:0:
224,192,149247,1,0,0:0:0:0:
480,192,149247,1,0,0:0:0:0:
416,192,149458,1,0,0:0:0:0:
96,192,149458,1,0,0:0:0:0:
352,192,149458,1,0,0:0:0:0:
224,192,149564,1,0,0:0:0:0:
480,192,149564,1,0,0:0:0:0:
160,192,149669,1,0,0:0:0:0:
288,192,149669,1,0,0:0:0:0:
96,192,149669,1,0,0:0:0:0:
352,192,149775,1,0,0:0:0:0:
480,192,149775,1,0,0:0:0:0:
416,192,149880,1,0,0:0:0:0:
224,192,149880,1,0,0:0:0:0:
96,192,149880,1,0,0:0:0:0:
352,192,149986,1,0,0:0:0:0:
480,192,149986,1,0,0:0:0:0:
96,192,150092,1,0,0:0:0:0:
160,192,150092,1,0,0:0:0:0:
288,192,150092,1,0,0:0:0:0:
416,192,150092,1,0,0:0:0:0:
224,192,150303,1,0,0:0:0:0:
96,192,150303,1,0,0:0:0:0:
480,192,150303,1,0,0:0:0:0:
352,192,150409,1,0,0:0:0:0:
288,192,150409,1,0,0:0:0:0:
96,192,150514,1,0,0:0:0:0:
224,192,150514,1,0,0:0:0:0:
416,192,150514,1,0,0:0:0:0:
480,192,150514,1,0,0:0:0:0:
160,192,150726,1,0,0:0:0:0:
352,192,150726,1,0,0:0:0:0:
96,192,150726,1,0,0:0:0:0:
224,192,150831,1,0,0:0:0:0:
416,192,150831,1,0,0:0:0:0:
96,192,150937,1,0,0:0:0:0:
288,192,150937,1,0,0:0:0:0:
480,192,150937,1,0,0:0:0:0:
160,192,151148,1,0,0:0:0:0:
352,192,151148,1,0,0:0:0:0:
480,192,151148,1,0,0:0:0:0:
224,192,151254,1,0,0:0:0:0:
416,192,151254,1,0,0:0:0:0:
96,192,151359,1,0,0:0:0:0:
288,192,151359,1,0,0:0:0:0:
352,192,151359,1,0,0:0:0:0:
480,192,151359,1,0,0:0:0:0:
352,192,151571,1,0,0:0:0:0:
96,192,151571,1,0,0:0:0:0:
288,192,151571,1,0,0:0:0:0:
160,192,151641,1,0,0:0:0:0:
416,192,151676,1,0,0:0:0:0:
224,192,151711,1,0,0:0:0:0:
480,192,151782,1,0,0:0:0:0:
288,192,151782,1,0,0:0:0:0:
96,192,151782,1,0,0:0:0:0:
416,192,151888,1,0,0:0:0:0:
224,192,151888,1,0,0:0:0:0:
160,192,151993,1,0,0:0:0:0:
352,192,151993,1,0,0:0:0:0:
96,192,152099,1,0,0:0:0:0:
288,192,152099,1,0,0:0:0:0:
160,192,152204,1,0,0:0:0:0:
480,192,152204,1,0,0:0:0:0:
352,192,152204,1,0,0:0:0:0:
416,192,152204,1,0,0:0:0:0:
288,192,152310,1,0,0:0:0:0:
96,192,152310,1,0,0:0:0:0:
160,192,152416,1,0,0:0:0:0:
352,192,152416,1,0,0:0:0:0:
224,192,152521,1,0,0:0:0:0:
416,192,152521,1,0,0:0:0:0:
480,192,152627,1,0,0:0:0:0:
352,192,152627,1,0,0:0:0:0:
96,192,152627,1,0,0:0:0:0:
160,192,152733,1,0,0:0:0:0:
224,192,152733,1,0,0:0:0:0:
96,192,152838,1,0,0:0:0:0:
288,192,152838,1,0,0:0:0:0:
416,192,152838,1,0,0:0:0:0:
160,192,152944,1,0,0:0:0:0:
480,192,152944,1,0,0:0:0:0:
96,192,153050,1,0,0:0:0:0:
224,192,153050,1,0,0:0:0:0:
352,192,153050,1,0,0:0:0:0:
288,192,153050,1,0,0:0:0:0:
480,192,153155,1,0,0:0:0:0:
416,192,153155,1,0,0:0:0:0:
96,192,153261,1,0,0:0:0:0:
224,192,153261,1,0,0:0:0:0:
352,192,153261,1,0,0:0:0:0:
160,192,153366,1,0,0:0:0:0:
288,192,153366,1,0,0:0:0:0:
32,192,153472,1,0,0:0:0:0:
96,192,153472,1,0,0:0:0:0:
416,192,153472,1,0,0:0:0:0:
480,192,153472,1,0,0:0:0:0:
224,192,153472,1,0,0:0:0:0:
160,192,153683,1,0,0:0:0:0:
288,192,153683,1,0,0:0:0:0:
416,192,153683,1,0,0:0:0:0:
224,192,153789,1,0,0:0:0:0:
352,192,153789,1,0,0:0:0:0:
96,192,153895,1,0,0:0:0:0:
288,192,153895,1,0,0:0:0:0:
480,192,153895,1,0,0:0:0:0:
416,192,153895,1,0,0:0:0:0:
160,192,154106,1,0,0:0:0:0:
352,192,154106,1,0,0:0:0:0:
416,192,154106,1,0,0:0:0:0:
224,192,154211,1,0,0:0:0:0:
480,192,154211,1,0,0:0:0:0:
416,192,154317,1,0,0:0:0:0:
288,192,154317,1,0,0:0:0:0:
96,192,154317,1,0,0:0:0:0:
160,192,154528,1,0,0:0:0:0:
480,192,154528,1,0,0:0:0:0:
288,192,154528,1,0,0:0:0:0:
416,192,154634,1,0,0:0:0:0:
224,192,154634,1,0,0:0:0:0:
96,192,154740,1,0,0:0:0:0:
160,192,154740,1,0,0:0:0:0:
352,192,154740,1,0,0:0:0:0:
288,192,154740,1,0,0:0:0:0:
224,192,154951,1,0,0:0:0:0:
352,192,154951,1,0,0:0:0:0:
480,192,154951,1,0,0:0:0:0:
160,192,155057,1,0,0:0:0:0:
288,192,155057,1,0,0:0:0:0:
416,192,155057,1,0,0:0:0:0:
96,192,155162,1,0,0:0:0:0:
224,192,155162,1,0,0:0:0:0:
352,192,155162,1,0,0:0:0:0:
160,192,155373,1,0,0:0:0:0:
352,192,155373,1,0,0:0:0:0:
480,192,155373,1,0,0:0:0:0:
224,192,155479,1,0,0:0:0:0:
416,192,155479,1,0,0:0:0:0:
96,192,155585,1,0,0:0:0:0:
288,192,155585,1,0,0:0:0:0:
352,192,155585,1,0,0:0:0:0:
480,192,155585,1,0,0:0:0:0:
224,192,155796,1,0,0:0:0:0:
416,192,155796,1,0,0:0:0:0:
96,192,155796,1,0,0:0:0:0:
160,192,155902,1,0,0:0:0:0:
352,192,155902,1,0,0:0:0:0:
96,192,156007,1,0,0:0:0:0:
288,192,156007,1,0,0:0:0:0:
480,192,156007,1,0,0:0:0:0:
224,192,156219,1,0,0:0:0:0:
480,192,156219,1,0,0:0:0:0:
288,192,156219,1,0,0:0:0:0:
352,192,156324,1,0,0:0:0:0:
160,192,156324,1,0,0:0:0:0:
224,192,156430,1,0,0:0:0:0:
416,192,156430,1,0,0:0:0:0:
480,192,156430,1,0,0:0:0:0:
96,192,156430,1,0,0:0:0:0:
352,192,156535,1,0,0:0:0:0:
160,192,156535,1,0,0:0:0:0:
96,192,156641,1,0,0:0:0:0:
288,192,156641,1,0,0:0:0:0:
480,192,156641,1,0,0:0:0:0:
352,192,156747,1,0,0:0:0:0:
160,192,156747,1,0,0:0:0:0:
224,192,156800,1,0,0:0:0:0:
288,192,156852,1,0,0:0:0:0:
416,192,156852,1,0,0:0:0:0:
96,192,156852,1,0,0:0:0:0:
160,192,156958,1,0,0:0:0:0:
224,192,157064,1,0,0:0:0:0:
480,192,157064,1,0,0:0:0:0:
352,192,157064,1,0,0:0:0:0:
416,192,157169,1,0,0:0:0:0:
160,192,157169,1,0,0:0:0:0:
96,192,157275,1,0,0:0:0:0:
224,192,157275,1,0,0:0:0:0:
352,192,157275,1,0,0:0:0:0:
480,192,157275,1,0,0:0:0:0:
288,192,157380,1,0,0:0:0:0:
352,192,157486,1,0,0:0:0:0:
160,192,157486,1,0,0:0:0:0:
416,192,157486,1,0,0:0:0:0:
288,192,157592,1,0,0:0:0:0:
224,192,157697,1,0,0:0:0:0:
480,192,157697,1,0,0:0:0:0:
160,192,157697,1,0,0:0:0:0:
352,192,157803,1,0,0:0:0:0:
96,192,157909,1,0,0:0:0:0:
224,192,157909,1,0,0:0:0:0:
416,192,157909,1,0,0:0:0:0:
288,192,158014,1,0,0:0:0:0:
480,192,158014,1,0,0:0:0:0:
160,192,158120,1,0,0:0:0:0:
224,192,158120,1,0,0:0:0:0:
352,192,158120,1,0,0:0:0:0:
96,192,158120,1,0,0:0:0:0:
416,192,158226,1,0,0:0:0:0:
288,192,158226,1,0,0:0:0:0:
224,192,158331,1,0,0:0:0:0:
96,192,158331,1,0,0:0:0:0:
480,192,158331,1,0,0:0:0:0:
352,192,158437,1,0,0:0:0:0:
160,192,158437,1,0,0:0:0:0:
96,192,158542,1,0,0:0:0:0:
288,192,158542,1,0,0:0:0:0:
480,192,158542,1,0,0:0:0:0:
288,192,158754,1,0,0:0:0:0:
480,192,158754,1,0,0:0:0:0:
160,192,158754,1,0,0:0:0:0:
224,192,158859,1,0,0:0:0:0:
416,192,158859,1,0,0:0:0:0:
352,192,158965,1,0,0:0:0:0:
160,192,158965,1,0,0:0:0:0:
96,192,158965,1,0,0:0:0:0:
480,192,158965,1,0,0:0:0:0:
224,192,159071,1,0,0:0:0:0:
416,192,159071,1,0,0:0:0:0:
288,192,159176,1,0,0:0:0:0:
480,192,159176,1,0,0:0:0:0:
96,192,159176,1,0,0:0:0:0:
160,192,159247,1,0,0:0:0:0:
416,192,159282,1,0,0:0:0:0:
224,192,159317,1,0,0:0:0:0:
96,192,159388,1,0,0:0:0:0:
288,192,159388,1,0,0:0:0:0:
480,192,159388,1,0,0:0:0:0:
32,192,159388,1,0,0:0:0:0:
416,192,159493,1,0,0:0:0:0:
160,192,159493,1,0,0:0:0:0:
224,192,159599,1,0,0:0:0:0:
352,192,159599,1,0,0:0:0:0:
480,192,159599,1,0,0:0:0:0:
32,192,159599,1,0,0:0:0:0:
288,192,159704,1,0,0:0:0:0:
96,192,159704,1,0,0:0:0:0:
160,192,159810,1,0,0:0:0:0:
352,192,159810,1,0,0:0:0:0:
480,192,159810,1,0,0:0:0:0:
32,192,159810,1,0,0:0:0:0:
288,192,159916,1,0,0:0:0:0:
96,192,159916,1,0,0:0:0:0:
224,192,160021,1,0,0:0:0:0:
416,192,160021,1,0,0:0:0:0:
480,192,160021,1,0,0:0:0:0:
32,192,160021,1,0,0:0:0:0:
160,192,160127,1,0,0:0:0:0:
352,192,160127,1,0,0:0:0:0:
96,192,160233,1,0,0:0:0:0:
288,192,160233,1,0,0:0:0:0:
480,192,160233,1,0,0:0:0:0:
32,192,160233,1,0,0:0:0:0:
224,192,160233,1,0,0:0:0:0:
416,192,160233,1,0,0:0:0:0:
352,192,160338,1,0,0:0:0:0:
288,192,160444,1,0,0:0:0:0:
224,192,160550,1,0,0:0:0:0:
160,192,160655,1,0,0:0:0:0:
480,192,160655,1,0,0:0:0:0:
352,192,160761,1,0,0:0:0:0:
224,192,160866,1,0,0:0:0:0:
416,192,160972,1,0,0:0:0:0:
96,192,161078,1,0,0:0:0:0:
480,192,161078,1,0,0:0:0:0:
160,192,161183,1,0,0:0:0:0:
224,192,161289,1,0,0:0:0:0:
288,192,161395,1,0,0:0:0:0:
480,192,161500,1,0,0:0:0:0:
160,192,161500,1,0,0:0:0:0:
416,192,161606,1,0,0:0:0:0:
352,192,161711,1,0,0:0:0:0:
160,192,161711,1,0,0:0:0:0:
288,192,161817,1,0,0:0:0:0:
32,192,161923,1,0,0:0:0:0:
224,192,161923,1,0,0:0:0:0:
480,192,161923,1,0,0:0:0:0:
416,192,161923,1,0,0:0:0:0:
96,192,161923,1,0,0:0:0:0:
160,192,162134,1,0,0:0:0:0:
416,192,162134,1,0,0:0:0:0:
480,192,162134,1,0,0:0:0:0:
288,192,162240,1,0,0:0:0:0:
416,192,162345,1,0,0:0:0:0:
480,192,162345,1,0,0:0:0:0:
96,192,162345,1,0,0:0:0:0:
224,192,162345,1,0,0:0:0:0:
352,192,162557,1,0,0:0:0:0:
480,192,162557,1,0,0:0:0:0:
160,192,162557,1,0,0:0:0:0:
224,192,162662,1,0,0:0:0:0:
352,192,162768,1,0,0:0:0:0:
480,192,162768,1,0,0:0:0:0:
96,192,162768,1,0,0:0:0:0:
160,192,162873,1,0,0:0:0:0:
416,192,162873,1,0,0:0:0:0:
224,192,162979,1,0,0:0:0:0:
480,192,162979,1,0,0:0:0:0:
288,192,162979,1,0,0:0:0:0:
416,192,163085,1,0,0:0:0:0:
160,192,163085,1,0,0:0:0:0:
96,192,163190,1,0,0:0:0:0:
224,192,163190,1,0,0:0:0:0:
352,192,163190,1,0,0:0:0:0:
288,192,163190,1,0,0:0:0:0:
480,192,163296,1,0,0:0:0:0:
416,192,163296,1,0,0:0:0:0:
160,192,163402,1,0,0:0:0:0:
288,192,163402,1,0,0:0:0:0:
96,192,163402,1,0,0:0:0:0:
352,192,163507,1,0,0:0:0:0:
416,192,163507,1,0,0:0:0:0:
96,192,163613,1,0,0:0:0:0:
288,192,163613,1,0,0:0:0:0:
480,192,163613,1,0,0:0:0:0:
224,192,163824,1,0,0:0:0:0:
480,192,163824,1,0,0:0:0:0:
416,192,163824,1,0,0:0:0:0:
160,192,163930,1,0,0:0:0:0:
352,192,163930,1,0,0:0:0:0:
96,192,164035,1,0,0:0:0:0:
288,192,164035,1,0,0:0:0:0:
480,192,164035,1,0,0:0:0:0:
416,192,164035,1,0,0:0:0:0:
224,192,164141,1,0,0:0:0:0:
160,192,164141,1,0,0:0:0:0:
352,192,164247,1,0,0:0:0:0:
480,192,164247,1,0,0:0:0:0:
96,192,164247,1,0,0:0:0:0:
160,192,164352,1,0,0:0:0:0:
416,192,164352,1,0,0:0:0:0:
96,192,164458,1,0,0:0:0:0:
288,192,164458,1,0,0:0:0:0:
480,192,164458,1,0,0:0:0:0:
224,192,164564,1,0,0:0:0:0:
416,192,164564,1,0,0:0:0:0:
160,192,164669,1,0,0:0:0:0:
352,192,164669,1,0,0:0:0:0:
480,192,164669,1,0,0:0:0:0:
416,192,164775,1,0,0:0:0:0:
224,192,164775,1,0,0:0:0:0:
32,192,164880,1,0,0:0:0:0:
96,192,164880,1,0,0:0:0:0:
288,192,164880,1,0,0:0:0:0:
480,192,164880,1,0,0:0:0:0:
32,192,165092,1,0,0:0:0:0:
96,192,165092,1,0,0:0:0:0:
288,192,165092,1,0,0:0:0:0:
480,192,165092,1,0,0:0:0:0:
32,192,165303,1,0,0:0:0:0:
96,192,165303,1,0,0:0:0:0:
480,192,165303,1,0,0:0:0:0:
288,192,165303,1,0,0:0:0:0:
352,192,165514,1,0,0:0:0:0:
416,192,165514,1,0,0:0:0:0:
96,192,165514,1,0,0:0:0:0:
224,192,165620,1,0,0:0:0:0:
160,192,165620,1,0,0:0:0:0:
96,192,165726,1,0,0:0:0:0:
288,192,165726,1,0,0:0:0:0:
352,192,165726,1,0,0:0:0:0:
480,192,165726,1,0,0:0:0:0:
160,192,165831,1,0,0:0:0:0:
416,192,165831,1,0,0:0:0:0:
224,192,165937,1,0,0:0:0:0:
288,192,165937,1,0,0:0:0:0:
480,192,165937,1,0,0:0:0:0:
96,192,166042,1,0,0:0:0:0:
416,192,166042,1,0,0:0:0:0:
160,192,166148,1,0,0:0:0:0:
352,192,166148,1,0,0:0:0:0:
480,192,166148,1,0,0:0:0:0:
224,192,166359,1,0,0:0:0:0:
96,192,166359,1,0,0:0:0:0:
416,192,166359,1,0,0:0:0:0:
160,192,166465,1,0,0:0:0:0:
480,192,166465,1,0,0:0:0:0:
352,192,166571,1,0,0:0:0:0:
224,192,166571,1,0,0:0:0:0:
416,192,166571,1,0,0:0:0:0:
96,192,166571,1,0,0:0:0:0:
160,192,166676,1,0,0:0:0:0:
480,192,166676,1,0,0:0:0:0:
416,192,166782,1,0,0:0:0:0:
288,192,166782,1,0,0:0:0:0:
96,192,166782,1,0,0:0:0:0:
352,192,166888,1,0,0:0:0:0:
160,192,166888,1,0,0:0:0:0:
96,192,166993,1,0,0:0:0:0:
288,192,166993,1,0,0:0:0:0:
480,192,166993,1,0,0:0:0:0:
480,192,167204,1,0,0:0:0:0:
224,192,167204,1,0,0:0:0:0:
96,192,167204,1,0,0:0:0:0:
160,192,167310,1,0,0:0:0:0:
416,192,167310,1,0,0:0:0:0:
224,192,167416,1,0,0:0:0:0:
352,192,167416,1,0,0:0:0:0:
480,192,167416,1,0,0:0:0:0:
96,192,167416,1,0,0:0:0:0:
288,192,167521,1,0,0:0:0:0:
416,192,167521,1,0,0:0:0:0:
352,192,167627,1,0,0:0:0:0:
224,192,167627,1,0,0:0:0:0:
480,192,167627,1,0,0:0:0:0:
288,192,167733,1,0,0:0:0:0:
160,192,167733,1,0,0:0:0:0:
96,192,167838,1,0,0:0:0:0:
352,192,167838,1,0,0:0:0:0:
480,192,167838,1,0,0:0:0:0:
96,192,168050,1,0,0:0:0:0:
288,192,168050,1,0,0:0:0:0:
480,192,168050,1,0,0:0:0:0:
160,192,168120,1,0,0:0:0:0:
416,192,168155,1,0,0:0:0:0:
224,192,168190,1,0,0:0:0:0:
288,192,168261,1,0,0:0:0:0:
480,192,168261,1,0,0:0:0:0:
96,192,168261,1,0,0:0:0:0:
352,192,168261,1,0,0:0:0:0:
352,192,168472,1,0,0:0:0:0:
160,192,168472,1,0,0:0:0:0:
480,192,168472,1,0,0:0:0:0:
288,192,168542,1,0,0:0:0:0:
416,192,168578,1,0,0:0:0:0:
224,192,168613,1,0,0:0:0:0:
160,192,168683,1,0,0:0:0:0:
480,192,168683,1,0,0:0:0:0:
96,192,168683,1,0,0:0:0:0:
32,192,168683,1,0,0:0:0:0:
352,192,168683,1,0,0:0:0:0:
288,192,168895,1,0,0:0:0:0:
416,192,168895,1,0,0:0:0:0:
160,192,168895,1,0,0:0:0:0:
224,192,169000,1,0,0:0:0:0:
352,192,169000,1,0,0:0:0:0:
96,192,169106,1,0,0:0:0:0:
288,192,169106,1,0,0:0:0:0:
480,192,169106,1,0,0:0:0:0:
416,192,169106,1,0,0:0:0:0:
160,192,169211,1,0,0:0:0:0:
352,192,169211,1,0,0:0:0:0:
224,192,169317,1,0,0:0:0:0:
480,192,169317,1,0,0:0:0:0:
416,192,169317,1,0,0:0:0:0:
352,192,169423,1,0,0:0:0:0:
160,192,169423,1,0,0:0:0:0:
96,192,169528,1,0,0:0:0:0:
224,192,169528,1,0,0:0:0:0:
480,192,169528,1,0,0:0:0:0:
160,192,169740,1,0,0:0:0:0:
288,192,169740,1,0,0:0:0:0:
416,192,169740,1,0,0:0:0:0:
224,192,169845,1,0,0:0:0:0:
352,192,169845,1,0,0:0:0:0:
96,192,169951,1,0,0:0:0:0:
288,192,169951,1,0,0:0:0:0:
416,192,169951,1,0,0:0:0:0:
480,192,169951,1,0,0:0:0:0:
160,192,170057,1,0,0:0:0:0:
352,192,170057,1,0,0:0:0:0:
224,192,170162,1,0,0:0:0:0:
480,192,170162,1,0,0:0:0:0:
416,192,170162,1,0,0:0:0:0:
160,192,170268,1,0,0:0:0:0:
352,192,170268,1,0,0:0:0:0:
96,192,170373,1,0,0:0:0:0:
288,192,170373,1,0,0:0:0:0:
416,192,170373,1,0,0:0:0:0:
160,192,170585,1,0,0:0:0:0:
480,192,170585,1,0,0:0:0:0:
288,192,170585,1,0,0:0:0:0:
416,192,170690,1,0,0:0:0:0:
224,192,170690,1,0,0:0:0:0:
352,192,170796,1,0,0:0:0:0:
96,192,170796,1,0,0:0:0:0:
288,192,170796,1,0,0:0:0:0:
480,192,170796,1,0,0:0:0:0:
160,192,170902,1,0,0:0:0:0:
416,192,170902,1,0,0:0:0:0:
480,192,171007,1,0,0:0:0:0:
288,192,171007,1,0,0:0:0:0:
96,192,171007,1,0,0:0:0:0:
224,192,171113,1,0,0:0:0:0:
352,192,171113,1,0,0:0:0:0:
480,192,171219,1,0,0:0:0:0:
160,192,171219,1,0,0:0:0:0:
96,192,171219,1,0,0:0:0:0:
224,192,171324,1,0,0:0:0:0:
416,192,171324,1,0,0:0:0:0:
480,192,171430,1,0,0:0:0:0:
288,192,171430,1,0,0:0:0:0:
96,192,171430,1,0,0:0:0:0:
224,192,171535,1,0,0:0:0:0:
416,192,171535,1,0,0:0:0:0:
32,192,171641,1,0,0:0:0:0:
160,192,171641,1,0,0:0:0:0:
352,192,171641,1,0,0:0:0:0:
480,192,171641,1,0,0:0:0:0:
32,192,171852,1,0,0:0:0:0:
480,192,171852,1,0,0:0:0:0:
352,192,171852,1,0,0:0:0:0:
160,192,171852,1,0,0:0:0:0:
32,192,172064,1,0,0:0:0:0:
160,192,172064,1,0,0:0:0:0:
480,192,172064,1,0,0:0:0:0:
352,192,172064,1,0,0:0:0:0:
288,192,172169,1,0,0:0:0:0:
352,192,172275,1,0,0:0:0:0:
96,192,172275,1,0,0:0:0:0:
480,192,172275,1,0,0:0:0:0:
160,192,172380,1,0,0:0:0:0:
288,192,172380,1,0,0:0:0:0:
96,192,172486,1,0,0:0:0:0:
352,192,172486,1,0,0:0:0:0:
224,192,172486,1,0,0:0:0:0:
480,192,172486,1,0,0:0:0:0:
416,192,172592,1,0,0:0:0:0:
160,192,172697,1,0,0:0:0:0:
352,192,172697,1,0,0:0:0:0:
480,192,172697,1,0,0:0:0:0:
288,192,172803,1,0,0:0:0:0:
96,192,172803,1,0,0:0:0:0:
160,192,172909,1,0,0:0:0:0:
480,192,172909,1,0,0:0:0:0:
352,192,172909,1,0,0:0:0:0:
224,192,173014,1,0,0:0:0:0:
480,192,173120,1,0,0:0:0:0:
96,192,173120,1,0,0:0:0:0:
288,192,173120,1,0,0:0:0:0:
416,192,173226,1,0,0:0:0:0:
160,192,173226,1,0,0:0:0:0:
288,192,173331,1,0,0:0:0:0:
96,192,173331,1,0,0:0:0:0:
352,192,173331,1,0,0:0:0:0:
480,192,173331,1,0,0:0:0:0:
160,192,173437,1,0,0:0:0:0:
416,192,173542,1,0,0:0:0:0:
224,192,173542,1,0,0:0:0:0:
480,192,173542,1,0,0:0:0:0:
96,192,173648,1,0,0:0:0:0:
352,192,173648,1,0,0:0:0:0:
160,192,173754,1,0,0:0:0:0:
288,192,173754,1,0,0:0:0:0:
480,192,173754,1,0,0:0:0:0:
416,192,173859,1,0,0:0:0:0:
224,192,173859,1,0,0:0:0:0:
288,192,173965,1,0,0:0:0:0:
480,192,173965,1,0,0:0:0:0:
96,192,173965,1,0,0:0:0:0:
416,192,174071,1,0,0:0:0:0:
224,192,174071,1,0,0:0:0:0:
352,192,174176,1,0,0:0:0:0:
160,192,174176,1,0,0:0:0:0:
96,192,174176,1,0,0:0:0:0:
480,192,174176,1,0,0:0:0:0:
224,192,174282,1,0,0:0:0:0:
416,192,174282,1,0,0:0:0:0:
288,192,174388,1,0,0:0:0:0:
480,192,174388,1,0,0:0:0:0:
96,192,174388,1,0,0:0:0:0:
416,192,174493,1,0,0:0:0:0:
224,192,174493,1,0,0:0:0:0:
352,192,174599,1,0,0:0:0:0:
160,192,174599,1,0,0:0:0:0:
32,192,174599,1,0,0:0:0:0:
480,192,174599,1,0,0:0:0:0:
224,192,174704,1,0,0:0:0:0:
416,192,174704,1,0,0:0:0:0:
32,192,174810,1,0,0:0:0:0:
160,192,174810,1,0,0:0:0:0:
352,192,174810,1,0,0:0:0:0:
480,192,174810,1,0,0:0:0:0:
224,192,174916,1,0,0:0:0:0:
416,192,174916,1,0,0:0:0:0:
32,192,175021,1,0,0:0:0:0:
352,192,175021,1,0,0:0:0:0:
160,192,175021,1,0,0:0:0:0:
288,192,175021,1,0,0:0:0:0:
480,192,175127,1,0,0:0:0:0:
416,192,175127,1,0,0:0:0:0:
32,192,175233,1,0,0:0:0:0:
288,192,175233,1,0,0:0:0:0:
96,192,175233,1,0,0:0:0:0:
352,192,175233,1,0,0:0:0:0:
416,192,175338,1,0,0:0:0:0:
480,192,175338,1,0,0:0:0:0:
32,192,175444,1,0,0:0:0:0:
288,192,175444,1,0,0:0:0:0:
160,192,175444,1,0,0:0:0:0:
352,192,175444,1,0,0:0:0:0:
224,192,175550,1,0,0:0:0:0:
96,192,175550,1,0,0:0:0:0:
160,192,175655,1,0,0:0:0:0:
288,192,175655,1,0,0:0:0:0:
224,192,175761,5,0,0:0:0:0:
352,192,175761,1,0,0:0:0:0:
480,192,175866,1,0,0:0:0:0:
288,192,175866,1,0,0:0:0:0:
96,192,175866,1,0,0:0:0:0:
416,192,175866,1,0,0:0:0:0:
32,192,175866,1,0,0:0:0:0:
352,192,175972,1,0,0:0:0:0:
160,192,175972,1,0,0:0:0:0:
224,192,176078,1,0,0:0:0:0:
416,192,176078,1,0,0:0:0:0:
32,192,176078,1,0,0:0:0:0:
352,192,176183,1,0,0:0:0:0:
96,192,176183,1,0,0:0:0:0:
32,192,176289,5,0,0:0:0:0:
160,192,176289,1,0,0:0:0:0:
288,192,176289,1,0,0:0:0:0:
416,192,176289,1,0,0:0:0:0:
480,192,176289,1,0,0:0:0:0:
32,192,177134,5,0,0:0:0:0:
480,192,177134,1,0,0:0:0:0:
416,192,177134,1,0,0:0:0:0:
96,192,177134,1,0,0:0:0:0:
224,192,177134,1,0,0:0:0:0:
352,192,177134,1,0,0:0:0:0:
160,192,177240,1,0,0:0:0:0:
288,192,177240,1,0,0:0:0:0:
224,192,177345,1,0,0:0:0:0:
352,192,177345,1,0,0:0:0:0:
288,192,177451,1,0,0:0:0:0:
416,192,177451,1,0,0:0:0:0:
480,192,177557,1,0,0:0:0:0:
96,192,177557,1,0,0:0:0:0:
224,192,177557,1,0,0:0:0:0:
160,192,177662,1,0,0:0:0:0:
288,192,177662,1,0,0:0:0:0:
224,192,177768,1,0,0:0:0:0:
352,192,177768,1,0,0:0:0:0:
288,192,177873,1,0,0:0:0:0:
416,192,177873,1,0,0:0:0:0:
352,192,177979,1,0,0:0:0:0:
480,192,177979,1,0,0:0:0:0:
288,192,178085,1,0,0:0:0:0:
416,192,178085,1,0,0:0:0:0:
352,192,178190,1,0,0:0:0:0:
224,192,178190,1,0,0:0:0:0:
160,192,178296,1,0,0:0:0:0:
288,192,178296,1,0,0:0:0:0:
352,192,178402,1,0,0:0:0:0:
480,192,178402,1,0,0:0:0:0:
32,192,178402,128,0,178719:0:0:0:0:
416,192,178507,1,0,0:0:0:0:
288,192,178507,1,0,0:0:0:0:
352,192,178613,1,0,0:0:0:0:
224,192,178613,1,0,0:0:0:0:
288,192,178719,1,0,0:0:0:0:
160,192,178719,1,0,0:0:0:0:
224,192,178824,1,0,0:0:0:0:
96,192,178824,1,0,0:0:0:0:
352,192,178824,1,0,0:0:0:0:
480,192,178824,1,0,0:0:0:0:
32,192,178824,1,0,0:0:0:0:
160,192,179035,1,0,0:0:0:0:
352,192,179035,1,0,0:0:0:0:
288,192,179035,1,0,0:0:0:0:
480,192,179141,1,0,0:0:0:0:
224,192,179141,1,0,0:0:0:0:
416,192,179247,1,0,0:0:0:0:
352,192,179247,1,0,0:0:0:0:
96,192,179247,1,0,0:0:0:0:
288,192,179247,1,0,0:0:0:0:
160,192,179458,1,0,0:0:0:0:
480,192,179458,1,0,0:0:0:0:
288,192,179458,1,0,0:0:0:0:
416,192,179564,1,0,0:0:0:0:
224,192,179564,1,0,0:0:0:0:
352,192,179669,1,0,0:0:0:0:
288,192,179669,1,0,0:0:0:0:
96,192,179669,1,0,0:0:0:0:
224,192,179880,1,0,0:0:0:0:
480,192,179880,1,0,0:0:0:0:
288,192,179880,1,0,0:0:0:0:
96,192,179986,1,0,0:0:0:0:
352,192,179986,1,0,0:0:0:0:
224,192,180092,1,0,0:0:0:0:
288,192,180092,1,0,0:0:0:0:
480,192,180092,1,0,0:0:0:0:
160,192,180092,1,0,0:0:0:0:
96,192,180303,1,0,0:0:0:0:
352,192,180303,1,0,0:0:0:0:
416,192,180303,1,0,0:0:0:0:
224,192,180409,1,0,0:0:0:0:
480,192,180409,1,0,0:0:0:0:
96,192,180514,1,0,0:0:0:0:
288,192,180514,1,0,0:0:0:0:
416,192,180514,1,0,0:0:0:0:
224,192,180726,1,0,0:0:0:0:
480,192,180726,1,0,0:0:0:0:
160,192,180726,1,0,0:0:0:0:
96,192,180831,1,0,0:0:0:0:
352,192,180831,1,0,0:0:0:0:
160,192,180937,1,0,0:0:0:0:
288,192,180937,1,0,0:0:0:0:
480,192,180937,1,0,0:0:0:0:
416,192,180937,1,0,0:0:0:0:
96,192,181148,1,0,0:0:0:0:
352,192,181148,1,0,0:0:0:0:
288,192,181148,1,0,0:0:0:0:
224,192,181254,1,0,0:0:0:0:
480,192,181254,1,0,0:0:0:0:
160,192,181359,1,0,0:0:0:0:
288,192,181359,1,0,0:0:0:0:
416,192,181359,1,0,0:0:0:0:
224,192,181571,1,0,0:0:0:0:
416,192,181571,1,0,0:0:0:0:
96,192,181571,1,0,0:0:0:0:
160,192,181676,1,0,0:0:0:0:
352,192,181676,1,0,0:0:0:0:
224,192,181782,1,0,0:0:0:0:
96,192,181782,1,0,0:0:0:0:
288,192,181782,1,0,0:0:0:0:
480,192,181782,1,0,0:0:0:0:
224,192,181993,1,0,0:0:0:0:
96,192,181993,1,0,0:0:0:0:
352,192,181993,1,0,0:0:0:0:
480,192,181993,1,0,0:0:0:0:
224,192,182204,1,0,0:0:0:0:
480,192,182204,1,0,0:0:0:0:
352,192,182204,1,0,0:0:0:0:
96,192,182204,1,0,0:0:0:0:
96,192,182416,1,0,0:0:0:0:
288,192,182416,1,0,0:0:0:0:
480,192,182416,1,0,0:0:0:0:
416,192,182521,1,0,0:0:0:0:
224,192,182521,1,0,0:0:0:0:
288,192,182627,1,0,0:0:0:0:
96,192,182627,1,0,0:0:0:0:
160,192,182627,1,0,0:0:0:0:
480,192,182627,1,0,0:0:0:0:
416,192,182838,1,0,0:0:0:0:
224,192,182838,1,0,0:0:0:0:
160,192,182838,1,0,0:0:0:0:
352,192,182944,1,0,0:0:0:0:
96,192,182944,1,0,0:0:0:0:
160,192,183050,1,0,0:0:0:0:
288,192,183050,1,0,0:0:0:0:
480,192,183050,1,0,0:0:0:0:
96,192,183261,1,0,0:0:0:0:
288,192,183261,1,0,0:0:0:0:
352,192,183366,1,0,0:0:0:0:
160,192,183366,1,0,0:0:0:0:
288,192,183472,1,0,0:0:0:0:
416,192,183472,1,0,0:0:0:0:
480,192,183472,1,0,0:0:0:0:
96,192,183472,1,0,0:0:0:0:
160,192,183683,1,0,0:0:0:0:
352,192,183683,1,0,0:0:0:0:
480,192,183683,1,0,0:0:0:0:
224,192,183789,1,0,0:0:0:0:
416,192,183789,1,0,0:0:0:0:
96,192,183895,1,0,0:0:0:0:
288,192,183895,1,0,0:0:0:0:
480,192,183895,1,0,0:0:0:0:
160,192,184106,1,0,0:0:0:0:
480,192,184106,1,0,0:0:0:0:
288,192,184106,1,0,0:0:0:0:
96,192,184211,1,0,0:0:0:0:
416,192,184211,1,0,0:0:0:0:
224,192,184317,1,0,0:0:0:0:
352,192,184317,1,0,0:0:0:0:
480,192,184317,1,0,0:0:0:0:
160,192,184317,1,0,0:0:0:0:
96,192,184528,1,0,0:0:0:0:
352,192,184528,1,0,0:0:0:0:
288,192,184528,1,0,0:0:0:0:
160,192,184634,1,0,0:0:0:0:
416,192,184634,1,0,0:0:0:0:
224,192,184740,1,0,0:0:0:0:
480,192,184740,1,0,0:0:0:0:
352,192,184740,1,0,0:0:0:0:
96,192,184951,1,0,0:0:0:0:
352,192,184951,1,0,0:0:0:0:
288,192,184951,1,0,0:0:0:0:
160,192,185021,1,0,0:0:0:0:
416,192,185057,1,0,0:0:0:0:
224,192,185092,1,0,0:0:0:0:
288,192,185162,1,0,0:0:0:0:
480,192,185162,1,0,0:0:0:0:
352,192,185162,1,0,0:0:0:0:
96,192,185162,1,0,0:0:0:0:
352,192,185373,1,0,0:0:0:0:
480,192,185373,1,0,0:0:0:0:
96,192,185373,1,0,0:0:0:0:
288,192,185444,1,0,0:0:0:0:
416,192,185479,1,0,0:0:0:0:
224,192,185514,1,0,0:0:0:0:
160,192,185585,1,0,0:0:0:0:
32,192,185585,1,0,0:0:0:0:
96,192,185585,1,0,0:0:0:0:
480,192,185585,1,0,0:0:0:0:
352,192,185585,1,0,0:0:0:0:
288,192,185690,1,0,0:0:0:0:
224,192,185796,1,0,0:0:0:0:
416,192,185796,1,0,0:0:0:0:
96,192,185796,1,0,0:0:0:0:
352,192,185902,1,0,0:0:0:0:
160,192,185902,1,0,0:0:0:0:
224,192,186007,1,0,0:0:0:0:
96,192,186007,1,0,0:0:0:0:
416,192,186007,1,0,0:0:0:0:
480,192,186007,1,0,0:0:0:0:
352,192,186113,1,0,0:0:0:0:
160,192,186219,1,0,0:0:0:0:
480,192,186219,1,0,0:0:0:0:
288,192,186219,1,0,0:0:0:0:
416,192,186324,1,0,0:0:0:0:
224,192,186324,1,0,0:0:0:0:
96,192,186430,1,0,0:0:0:0:
288,192,186430,1,0,0:0:0:0:
352,192,186430,1,0,0:0:0:0:
160,192,186535,1,0,0:0:0:0:
480,192,186641,1,0,0:0:0:0:
352,192,186641,1,0,0:0:0:0:
224,192,186641,1,0,0:0:0:0:
416,192,186747,1,0,0:0:0:0:
160,192,186747,1,0,0:0:0:0:
96,192,186852,1,0,0:0:0:0:
224,192,186852,1,0,0:0:0:0:
288,192,186852,1,0,0:0:0:0:
480,192,186852,1,0,0:0:0:0:
416,192,186958,1,0,0:0:0:0:
160,192,186958,1,0,0:0:0:0:
352,192,187064,1,0,0:0:0:0:
224,192,187064,1,0,0:0:0:0:
480,192,187064,1,0,0:0:0:0:
96,192,187169,1,0,0:0:0:0:
288,192,187169,1,0,0:0:0:0:
160,192,187275,1,0,0:0:0:0:
416,192,187275,1,0,0:0:0:0:
352,192,187275,1,0,0:0:0:0:
288,192,187380,1,0,0:0:0:0:
480,192,187380,1,0,0:0:0:0:
416,192,187486,1,0,0:0:0:0:
224,192,187486,1,0,0:0:0:0:
96,192,187486,1,0,0:0:0:0:
160,192,187592,1,0,0:0:0:0:
352,192,187592,1,0,0:0:0:0:
288,192,187697,1,0,0:0:0:0:
96,192,187697,1,0,0:0:0:0:
416,192,187697,1,0,0:0:0:0:
480,192,187697,1,0,0:0:0:0:
224,192,187803,1,0,0:0:0:0:
160,192,187909,1,0,0:0:0:0:
416,192,187909,1,0,0:0:0:0:
480,192,187909,1,0,0:0:0:0:
352,192,188014,1,0,0:0:0:0:
288,192,188014,1,0,0:0:0:0:
224,192,188120,1,0,0:0:0:0:
96,192,188120,1,0,0:0:0:0:
480,192,188120,1,0,0:0:0:0:
160,192,188226,1,0,0:0:0:0:
352,192,188331,1,0,0:0:0:0:
224,192,188331,1,0,0:0:0:0:
480,192,188331,1,0,0:0:0:0:
96,192,188437,1,0,0:0:0:0:
288,192,188437,1,0,0:0:0:0:
480,192,188542,1,0,0:0:0:0:
416,192,188542,1,0,0:0:0:0:
224,192,188542,1,0,0:0:0:0:
160,192,188542,1,0,0:0:0:0:
352,192,188648,1,0,0:0:0:0:
96,192,188648,1,0,0:0:0:0:
160,192,188754,1,0,0:0:0:0:
416,192,188754,1,0,0:0:0:0:
288,192,188754,1,0,0:0:0:0:
224,192,188859,1,0,0:0:0:0:
480,192,188859,1,0,0:0:0:0:
416,192,188965,1,0,0:0:0:0:
160,192,188965,1,0,0:0:0:0:
96,192,188965,1,0,0:0:0:0:
224,192,189176,1,0,0:0:0:0:
352,192,189176,1,0,0:0:0:0:
160,192,189176,1,0,0:0:0:0:
288,192,189282,1,0,0:0:0:0:
416,192,189282,1,0,0:0:0:0:
96,192,189388,1,0,0:0:0:0:
224,192,189388,1,0,0:0:0:0:
352,192,189388,1,0,0:0:0:0:
480,192,189388,1,0,0:0:0:0:
160,192,189599,1,0,0:0:0:0:
352,192,189599,1,0,0:0:0:0:
96,192,189599,1,0,0:0:0:0:
224,192,189704,1,0,0:0:0:0:
416,192,189704,1,0,0:0:0:0:
96,192,189810,1,0,0:0:0:0:
288,192,189810,1,0,0:0:0:0:
480,192,189810,1,0,0:0:0:0:
224,192,190021,1,0,0:0:0:0:
480,192,190021,1,0,0:0:0:0:
416,192,190021,1,0,0:0:0:0:
96,192,190127,1,0,0:0:0:0:
352,192,190127,1,0,0:0:0:0:
160,192,190233,1,0,0:0:0:0:
288,192,190233,1,0,0:0:0:0:
416,192,190233,1,0,0:0:0:0:
480,192,190233,1,0,0:0:0:0:
224,192,190444,1,0,0:0:0:0:
416,192,190444,1,0,0:0:0:0:
96,192,190444,1,0,0:0:0:0:
160,192,190550,1,0,0:0:0:0:
352,192,190550,1,0,0:0:0:0:
96,192,190655,1,0,0:0:0:0:
32,192,190655,1,0,0:0:0:0:
288,192,190655,1,0,0:0:0:0:
480,192,190655,1,0,0:0:0:0:
160,192,190866,1,0,0:0:0:0:
288,192,190866,1,0,0:0:0:0:
416,192,190866,1,0,0:0:0:0:
224,192,190972,1,0,0:0:0:0:
352,192,190972,1,0,0:0:0:0:
96,192,191078,1,0,0:0:0:0:
288,192,191078,1,0,0:0:0:0:
480,192,191078,1,0,0:0:0:0:
416,192,191078,1,0,0:0:0:0:
160,192,191289,1,0,0:0:0:0:
352,192,191289,1,0,0:0:0:0:
480,192,191289,1,0,0:0:0:0:
288,192,191395,1,0,0:0:0:0:
96,192,191395,1,0,0:0:0:0:
32,192,191500,1,0,0:0:0:0:
160,192,191500,1,0,0:0:0:0:
352,192,191500,1,0,0:0:0:0:
480,192,191500,1,0,0:0:0:0:
224,192,191606,1,0,0:0:0:0:
416,192,191606,1,0,0:0:0:0:
32,192,191711,1,0,0:0:0:0:
160,192,191711,1,0,0:0:0:0:
480,192,191711,1,0,0:0:0:0:
352,192,191711,1,0,0:0:0:0:
224,192,191782,5,0,0:0:0:0:
416,192,191817,1,0,0:0:0:0:
288,192,191852,1,0,0:0:0:0:
32,192,191923,5,0,0:0:0:0:
352,192,191923,1,0,0:0:0:0:
480,192,191923,1,0,0:0:0:0:
160,192,191923,1,0,0:0:0:0:
224,192,192028,1,0,0:0:0:0:
288,192,192028,1,0,0:0:0:0:
32,192,192134,1,0,0:0:0:0:
352,192,192134,1,0,0:0:0:0:
480,192,192134,1,0,0:0:0:0:
160,192,192134,1,0,0:0:0:0:
288,192,192204,1,0,0:0:0:0:
416,192,192240,1,0,0:0:0:0:
224,192,192275,1,0,0:0:0:0:
96,192,192345,128,0,192797:0:0:0:0:
480,192,192345,128,0,192797:0:0:0:0:
32,192,192345,1,0,0:0:0:0:
160,192,192345,1,0,0:0:0:0:
352,192,192345,1,0,0:0:0:0:
288,192,192345,1,0,0:0:0:0:
224,192,192797,128,0,193250:0:0:0:0:
352,192,192797,128,0,193250:0:0:0:0:
96,192,193250,128,0,193703:0:0:0:0:
480,192,193250,128,0,193703:0:0:0:0:
160,192,193703,128,0,194162:0:0:0:0:
416,192,193703,128,0,194162:0:0:0:0:
224,192,194162,128,0,194674:0:0:0:0:
352,192,194162,128,0,194674:0:0:0:0:
160,192,194674,128,0,195150:0:0:0:0:
416,192,194674,128,0,195150:0:0:0:0:
224,192,195150,128,0,195671:0:0:0:0:
352,192,195150,128,0,195671:0:0:0:0:
160,192,195671,128,0,196193:0:0:0:0:
416,192,195671,128,0,196193:0:0:0:0:
96,192,196193,128,0,201496:0:0:0:0:
480,192,196193,128,0,201496:0:0:0:0:
224,192,198844,128,0,201496:0:0:0:0:
352,192,198844,128,0,201496:0:0:0:0:
