osu file format v14

[General]
AudioFilename: C.S.Port - Fuujin Raijin.mp3
AudioLeadIn: 0
PreviewTime: 133190
Countdown: 0
SampleSet: Soft
StackLeniency: 0.7
Mode: 3
LetterboxInBreaks: 0
SpecialStyle: 0
WidescreenStoryboard: 1

[Editor]
DistanceSpacing: 1.1
BeatDivisor: 4
GridSize: 4
TimelineZoom: 1.699999

[Metadata]
Title:Fuujin Raijin
TitleUnicode:風仁雷仁
Artist:Colorful Sounds Port
ArtistUnicode:カラフル・サウンズ・ポート
Creator:Remillion Cross
Version:4K Cyclone Lightning
Source:
Tags:bms bof 2010 -the revolutionary of war- of fighters groundbreaking long version traditional oriental core shinzo- arzenvald ancul
BeatmapID:2488680
BeatmapSetID:270743

[Difficulty]
HPDrainRate:8
CircleSize:4
OverallDifficulty:8.5
ApproachRate:9
SliderMultiplier:1.4
SliderTickRate:1

[Events]
//Background and Video events
0,0,"bg2.jpg",0,0
//Break Periods
//Storyboard Layer 0 (Background)
//Storyboard Layer 1 (Fail)
//Storyboard Layer 2 (Pass)
//Storyboard Layer 3 (Foreground)
//Storyboard Sound Samples

[TimingPoints]
3050,422.535211267606,4,2,0,5,1,0
3050,-125,4,2,0,5,0,0
8120,-117.647058823529,4,2,0,5,0,0
8965,-111.111111111111,4,2,0,5,0,0
9388,-105.263157894737,4,2,0,5,0,0
9810,-100,4,2,0,5,0,0
14458,-66.6666666666667,4,2,0,5,0,0
14564,-200,4,2,0,5,0,0
14880,-100,4,2,0,5,0,0
27134,-50,4,2,0,5,0,0
27187,-100,4,2,0,5,0,0
27486,-50,4,2,0,5,0,0
27521,-100,4,2,0,5,0,0
27768,-50,4,2,0,5,0,0
27821,-100,4,2,0,5,0,0
57134,-100,4,2,0,5,0,1
74035,-100,4,2,0,5,0,0
86289,-66.6666666666667,4,2,0,5,0,0
86359,-200,4,2,0,5,0,0
86571,-66.6666666666667,4,2,0,5,0,0
86641,-200,4,2,0,5,0,0
86852,-66.6666666666667,4,2,0,5,0,0
86923,-200,4,2,0,5,0,0
87134,-66.6666666666667,4,2,0,5,0,0
87187,-200,4,2,0,5,0,0
87345,-66.6666666666667,4,2,0,5,0,0
87398,-200,4,2,0,5,0,0
87557,-100,4,2,0,5,0,0
116289,-100,4,2,0,5,0,1
133190,-111.111111111111,4,2,0,5,0,0
145021,-105.263157894737,4,2,0,5,0,0
146711,-100,4,2,0,5,0,0
161923,-100,4,2,0,5,0,1
178824,-100,4,2,0,5,0,0
192345,452.830188679245,4,2,0,5,1,0
193703,459.770114942529,4,2,0,5,1,0
194162,512.820512820513,4,2,0,5,1,0
194674,476.190476190476,4,2,0,5,1,0
195150,521.739130434783,4,2,0,5,1,0
196193,662.983425414365,4,2,0,5,1,0

[HitObjects]
64,192,3050,128,0,3895:0:0:0:0:
192,192,3895,128,0,4740:0:0:0:0:
320,192,4740,128,0,5585:0:0:0:0:
192,192,5585,128,0,6430:0:0:0:0:
64,192,6430,128,0,7275:0:0:0:0:
320,192,7275,128,0,8120:0:0:0:0:
448,192,8120,128,0,9704:0:0:0:0:
320,192,8542,128,0,9704:0:0:0:0:
192,192,8965,128,0,9704:0:0:0:0:
64,192,9810,1,0,0:0:0:0:
448,192,9810,1,0,0:0:0:0:
192,192,9810,1,0,0:0:0:0:
320,192,9810,1,0,0:0:0:0:
64,192,10233,1,0,0:0:0:0:
320,192,10444,1,0,0:0:0:0:
448,192,10444,1,0,0:0:0:0:
64,192,10655,1,0,0:0:0:0:
448,192,10655,1,0,0:0:0:0:
192,192,10655,1,0,0:0:0:0:
64,192,11078,128,0,11500:0:0:0:0:
192,192,11500,128,0,11923:0:0:0:0:
448,192,11711,1,0,0:0:0:0:
320,192,11711,1,0,0:0:0:0:
320,192,11923,128,0,12345:0:0:0:0:
64,192,12345,1,0,0:0:0:0:
448,192,12345,1,0,0:0:0:0:
192,192,12345,1,0,0:0:0:0:
64,192,12768,1,0,0:0:0:0:
320,192,12979,1,0,0:0:0:0:
448,192,12979,1,0,0:0:0:0:
448,192,13190,1,0,0:0:0:0:
320,192,13190,1,0,0:0:0:0:
448,192,13613,1,0,0:0:0:0:
192,192,13824,1,0,0:0:0:0:
64,192,13824,1,0,0:0:0:0:
64,192,14035,1,0,0:0:0:0:
320,192,14035,1,0,0:0:0:0:
448,192,14035,1,0,0:0:0:0:
64,192,14458,128,0,14880:0:0:0:0:
192,192,14880,1,0,0:0:0:0:
448,192,14880,1,0,0:0:0:0:
320,192,14880,128,0,15303:0:0:0:0:
64,192,15092,1,0,0:0:0:0:
192,192,15197,1,0,0:0:0:0:
64,192,15303,128,0,15726:0:0:0:0:
448,192,15303,1,0,0:0:0:0:
192,192,15514,1,0,0:0:0:0:
448,192,15620,1,0,0:0:0:0:
192,192,15726,128,0,16148:0:0:0:0:
320,192,15726,1,0,0:0:0:0:
448,192,15937,1,0,0:0:0:0:
64,192,16042,1,0,0:0:0:0:
448,192,16148,1,0,0:0:0:0:
320,192,16148,128,0,16571:0:0:0:0:
64,192,16359,1,0,0:0:0:0:
448,192,16465,1,0,0:0:0:0:
192,192,16571,128,0,16993:0:0:0:0:
64,192,16571,1,0,0:0:0:0:
320,192,16782,1,0,0:0:0:0:
448,192,16888,1,0,0:0:0:0:
320,192,16993,128,0,17416:0:0:0:0:
64,192,16993,1,0,0:0:0:0:
448,192,17204,1,0,0:0:0:0:
192,192,17310,1,0,0:0:0:0:
448,192,17416,128,0,17838:0:0:0:0:
64,192,17416,1,0,0:0:0:0:
192,192,17627,1,0,0:0:0:0:
64,192,17733,1,0,0:0:0:0:
320,192,17838,1,0,0:0:0:0:
192,192,17838,1,0,0:0:0:0:
192,192,18050,1,0,0:0:0:0:
320,192,18050,1,0,0:0:0:0:
448,192,18261,128,0,18683:0:0:0:0:
192,192,18261,1,0,0:0:0:0:
64,192,18261,1,0,0:0:0:0:
320,192,18472,1,0,0:0:0:0:
64,192,18578,1,0,0:0:0:0:
320,192,18683,128,0,19106:0:0:0:0:
192,192,18683,1,0,0:0:0:0:
64,192,18895,1,0,0:0:0:0:
448,192,19000,1,0,0:0:0:0:
192,192,19106,128,0,19528:0:0:0:0:
64,192,19106,1,0,0:0:0:0:
448,192,19317,1,0,0:0:0:0:
320,192,19423,1,0,0:0:0:0:
64,192,19528,128,0,19951:0:0:0:0:
448,192,19528,1,0,0:0:0:0:
320,192,19740,1,0,0:0:0:0:
448,192,19845,1,0,0:0:0:0:
320,192,19951,128,0,20373:0:0:0:0:
192,192,19951,1,0,0:0:0:0:
64,192,20162,1,0,0:0:0:0:
448,192,20268,1,0,0:0:0:0:
192,192,20373,128,0,20796:0:0:0:0:
64,192,20373,1,0,0:0:0:0:
448,192,20585,1,0,0:0:0:0:
320,192,20690,1,0,0:0:0:0:
64,192,20796,1,0,0:0:0:0:
448,192,20796,1,0,0:0:0:0:
64,192,21007,1,0,0:0:0:0:
448,192,21007,1,0,0:0:0:0:
192,192,21078,1,0,0:0:0:0:
320,192,21148,1,0,0:0:0:0:
448,192,21219,1,0,0:0:0:0:
64,192,21219,1,0,0:0:0:0:
448,192,21430,1,0,0:0:0:0:
64,192,21430,1,0,0:0:0:0:
320,192,21500,1,0,0:0:0:0:
192,192,21571,1,0,0:0:0:0:
64,192,21641,1,0,0:0:0:0:
320,192,21641,1,0,0:0:0:0:
448,192,21641,128,0,22064:0:0:0:0:
320,192,21852,1,0,0:0:0:0:
192,192,21958,1,0,0:0:0:0:
320,192,22064,128,0,22486:0:0:0:0:
64,192,22064,1,0,0:0:0:0:
192,192,22275,1,0,0:0:0:0:
448,192,22380,1,0,0:0:0:0:
192,192,22486,128,0,22909:0:0:0:0:
64,192,22486,1,0,0:0:0:0:
448,192,22697,1,0,0:0:0:0:
320,192,22803,1,0,0:0:0:0:
64,192,22909,128,0,23331:0:0:0:0:
448,192,22909,1,0,0:0:0:0:
192,192,23120,1,0,0:0:0:0:
448,192,23226,1,0,0:0:0:0:
320,192,23331,128,0,23754:0:0:0:0:
192,192,23331,1,0,0:0:0:0:
64,192,23542,1,0,0:0:0:0:
448,192,23648,1,0,0:0:0:0:
192,192,23754,128,0,24176:0:0:0:0:
64,192,23754,1,0,0:0:0:0:
448,192,23965,1,0,0:0:0:0:
320,192,24071,1,0,0:0:0:0:
64,192,24176,128,0,24493:0:0:0:0:
448,192,24176,1,0,0:0:0:0:
192,192,24282,128,0,24599:0:0:0:0:
320,192,24388,128,0,24704:0:0:0:0:
448,192,24493,128,0,24810:0:0:0:0:
64,192,24599,128,0,24704:0:0:0:0:
192,192,24704,128,0,24810:0:0:0:0:
320,192,24810,128,0,24916:0:0:0:0:
64,192,24810,1,0,0:0:0:0:
448,192,24916,128,0,25021:0:0:0:0:
64,192,25021,1,0,0:0:0:0:
320,192,25021,128,0,25444:0:0:0:0:
192,192,25233,1,0,0:0:0:0:
64,192,25338,1,0,0:0:0:0:
192,192,25444,1,0,0:0:0:0:
448,192,25444,1,0,0:0:0:0:
64,192,25655,1,0,0:0:0:0:
448,192,25655,1,0,0:0:0:0:
192,192,25726,1,0,0:0:0:0:
320,192,25796,1,0,0:0:0:0:
448,192,25866,1,0,0:0:0:0:
64,192,25866,1,0,0:0:0:0:
448,192,26078,1,0,0:0:0:0:
320,192,26148,1,0,0:0:0:0:
192,192,26219,1,0,0:0:0:0:
64,192,26289,1,0,0:0:0:0:
448,192,26289,1,0,0:0:0:0:
320,192,26289,1,0,0:0:0:0:
64,192,26500,1,0,0:0:0:0:
192,192,26553,1,0,0:0:0:0:
320,192,26606,1,0,0:0:0:0:
448,192,26659,1,0,0:0:0:0:
64,192,26711,1,0,0:0:0:0:
192,192,26782,1,0,0:0:0:0:
320,192,26852,1,0,0:0:0:0:
448,192,26923,1,0,0:0:0:0:
320,192,26976,1,0,0:0:0:0:
64,192,27028,1,0,0:0:0:0:
192,192,27081,1,0,0:0:0:0:
64,192,27134,128,0,27345:0:0:0:0:
448,192,27134,128,0,27345:0:0:0:0:
320,192,27134,1,0,0:0:0:0:
192,192,27486,128,0,27662:0:0:0:0:
320,192,27486,128,0,27662:0:0:0:0:
64,192,27768,128,0,27979:0:0:0:0:
448,192,27768,128,0,27979:0:0:0:0:
64,192,28085,1,0,0:0:0:0:
192,192,28120,1,0,0:0:0:0:
320,192,28155,1,0,0:0:0:0:
448,192,28190,1,0,0:0:0:0:
64,192,28226,1,0,0:0:0:0:
192,192,28261,1,0,0:0:0:0:
320,192,28296,1,0,0:0:0:0:
448,192,28331,1,0,0:0:0:0:
64,192,28366,1,0,0:0:0:0:
192,192,28402,1,0,0:0:0:0:
320,192,28402,1,0,0:0:0:0:
192,192,28613,128,0,28824:0:0:0:0:
64,192,28824,128,0,29035:0:0:0:0:
448,192,28824,1,0,0:0:0:0:
320,192,29035,128,0,29247:0:0:0:0:
192,192,29035,1,0,0:0:0:0:
448,192,29247,128,0,29458:0:0:0:0:
192,192,29247,1,0,0:0:0:0:
64,192,29247,1,0,0:0:0:0:
320,192,29458,128,0,29669:0:0:0:0:
192,192,29669,128,0,29880:0:0:0:0:
448,192,29669,1,0,0:0:0:0:
64,192,29669,1,0,0:0:0:0:
64,192,29880,128,0,30092:0:0:0:0:
448,192,29880,1,0,0:0:0:0:
320,192,30303,128,0,30514:0:0:0:0:
192,192,30514,128,0,30726:0:0:0:0:
448,192,30514,1,0,0:0:0:0:
64,192,30726,128,0,30937:0:0:0:0:
320,192,30726,1,0,0:0:0:0:
448,192,30937,128,0,31148:0:0:0:0:
320,192,30937,1,0,0:0:0:0:
192,192,30937,1,0,0:0:0:0:
320,192,31148,128,0,31359:0:0:0:0:
192,192,31359,128,0,31571:0:0:0:0:
448,192,31359,1,0,0:0:0:0:
64,192,31359,1,0,0:0:0:0:
64,192,31571,128,0,31782:0:0:0:0:
448,192,31571,1,0,0:0:0:0:
64,192,31993,128,0,32204:0:0:0:0:
192,192,32204,128,0,32416:0:0:0:0:
448,192,32204,1,0,0:0:0:0:
320,192,32416,128,0,32627:0:0:0:0:
64,192,32416,1,0,0:0:0:0:
448,192,32627,128,0,32838:0:0:0:0:
64,192,32627,1,0,0:0:0:0:
192,192,32627,1,0,0:0:0:0:
320,192,32838,128,0,33050:0:0:0:0:
64,192,33050,128,0,33261:0:0:0:0:
448,192,33050,1,0,0:0:0:0:
192,192,33050,1,0,0:0:0:0:
192,192,33261,128,0,33472:0:0:0:0:
448,192,33261,1,0,0:0:0:0:
192,192,33683,128,0,33895:0:0:0:0:
64,192,33895,128,0,34106:0:0:0:0:
448,192,33895,1,0,0:0:0:0:
320,192,34106,128,0,34317:0:0:0:0:
192,192,34106,1,0,0:0:0:0:
448,192,34317,128,0,34528:0:0:0:0:
192,192,34317,1,0,0:0:0:0:
64,192,34317,1,0,0:0:0:0:
64,192,34528,128,0,34740:0:0:0:0:
192,192,34740,128,0,34951:0:0:0:0:
448,192,34740,1,0,0:0:0:0:
448,192,34951,1,0,0:0:0:0:
320,192,34986,1,0,0:0:0:0:
192,192,35021,1,0,0:0:0:0:
64,192,35057,1,0,0:0:0:0:
448,192,35092,1,0,0:0:0:0:
320,192,35127,1,0,0:0:0:0:
192,192,35162,1,0,0:0:0:0:
64,192,35162,1,0,0:0:0:0:
64,192,35373,128,0,35585:0:0:0:0:
192,192,35585,128,0,35796:0:0:0:0:
448,192,35585,1,0,0:0:0:0:
64,192,35796,128,0,36007:0:0:0:0:
320,192,35796,1,0,0:0:0:0:
448,192,36007,128,0,36219:0:0:0:0:
192,192,36007,1,0,0:0:0:0:
320,192,36007,1,0,0:0:0:0:
320,192,36219,128,0,36430:0:0:0:0:
64,192,36430,128,0,36641:0:0:0:0:
448,192,36430,1,0,0:0:0:0:
192,192,36430,1,0,0:0:0:0:
192,192,36641,128,0,36852:0:0:0:0:
448,192,36641,1,0,0:0:0:0:
64,192,37064,128,0,37275:0:0:0:0:
192,192,37064,1,0,0:0:0:0:
320,192,37275,128,0,37486:0:0:0:0:
448,192,37275,1,0,0:0:0:0:
192,192,37486,128,0,37697:0:0:0:0:
64,192,37486,1,0,0:0:0:0:
448,192,37486,1,0,0:0:0:0:
448,192,37697,128,0,37909:0:0:0:0:
320,192,37909,128,0,38120:0:0:0:0:
192,192,38120,128,0,38331:0:0:0:0:
448,192,38120,1,0,0:0:0:0:
64,192,38120,1,0,0:0:0:0:
64,192,38331,128,0,38542:0:0:0:0:
448,192,38331,1,0,0:0:0:0:
192,192,38754,128,0,38965:0:0:0:0:
320,192,38965,128,0,39176:0:0:0:0:
448,192,38965,1,0,0:0:0:0:
64,192,39176,128,0,39388:0:0:0:0:
192,192,39176,1,0,0:0:0:0:
448,192,39388,128,0,39599:0:0:0:0:
320,192,39388,1,0,0:0:0:0:
192,192,39388,1,0,0:0:0:0:
320,192,39599,128,0,39810:0:0:0:0:
192,192,39810,128,0,40021:0:0:0:0:
448,192,39810,1,0,0:0:0:0:
64,192,39810,1,0,0:0:0:0:
64,192,40021,128,0,40233:0:0:0:0:
320,192,40021,1,0,0:0:0:0:
320,192,40233,1,0,0:0:0:0:
448,192,40233,1,0,0:0:0:0:
320,192,40373,1,0,0:0:0:0:
448,192,40373,1,0,0:0:0:0:
320,192,40514,1,0,0:0:0:0:
448,192,40514,1,0,0:0:0:0:
448,192,40655,128,0,40972:0:0:0:0:
320,192,40655,128,0,41078:0:0:0:0:
192,192,40866,128,0,41183:0:0:0:0:
64,192,40972,128,0,41289:0:0:0:0:
448,192,41078,128,0,41395:0:0:0:0:
320,192,41183,128,0,41500:0:0:0:0:
192,192,41289,128,0,41606:0:0:0:0:
64,192,41395,128,0,41923:0:0:0:0:
448,192,41500,128,0,41606:0:0:0:0:
320,192,41606,128,0,41711:0:0:0:0:
192,192,41711,128,0,41923:0:0:0:0:
448,192,41923,1,0,0:0:0:0:
320,192,41923,1,0,0:0:0:0:
192,192,42134,1,0,0:0:0:0:
64,192,42134,1,0,0:0:0:0:
448,192,42240,1,0,0:0:0:0:
320,192,42345,1,0,0:0:0:0:
192,192,42345,1,0,0:0:0:0:
448,192,42557,1,0,0:0:0:0:
320,192,42557,1,0,0:0:0:0:
64,192,42662,1,0,0:0:0:0:
192,192,42768,1,0,0:0:0:0:
320,192,42768,1,0,0:0:0:0:
448,192,42979,1,0,0:0:0:0:
64,192,42979,1,0,0:0:0:0:
320,192,43085,1,0,0:0:0:0:
192,192,43190,1,0,0:0:0:0:
448,192,43190,1,0,0:0:0:0:
64,192,43402,1,0,0:0:0:0:
448,192,43402,1,0,0:0:0:0:
192,192,43507,1,0,0:0:0:0:
320,192,43613,1,0,0:0:0:0:
64,192,43613,1,0,0:0:0:0:
192,192,43824,1,0,0:0:0:0:
320,192,43824,1,0,0:0:0:0:
448,192,43930,1,0,0:0:0:0:
64,192,44035,1,0,0:0:0:0:
192,192,44035,1,0,0:0:0:0:
448,192,44247,1,0,0:0:0:0:
320,192,44247,1,0,0:0:0:0:
192,192,44352,1,0,0:0:0:0:
64,192,44458,1,0,0:0:0:0:
448,192,44458,1,0,0:0:0:0:
320,192,44564,1,0,0:0:0:0:
192,192,44669,1,0,0:0:0:0:
64,192,44669,1,0,0:0:0:0:
320,192,44880,1,0,0:0:0:0:
448,192,44880,1,0,0:0:0:0:
448,192,45092,1,0,0:0:0:0:
320,192,45092,1,0,0:0:0:0:
320,192,45303,1,0,0:0:0:0:
448,192,45303,1,0,0:0:0:0:
192,192,45514,1,0,0:0:0:0:
64,192,45514,1,0,0:0:0:0:
320,192,45620,1,0,0:0:0:0:
448,192,45726,1,0,0:0:0:0:
64,192,45726,1,0,0:0:0:0:
320,192,45937,1,0,0:0:0:0:
448,192,45937,1,0,0:0:0:0:
192,192,46042,1,0,0:0:0:0:
64,192,46148,1,0,0:0:0:0:
448,192,46148,1,0,0:0:0:0:
192,192,46359,1,0,0:0:0:0:
320,192,46359,1,0,0:0:0:0:
448,192,46465,1,0,0:0:0:0:
192,192,46571,1,0,0:0:0:0:
320,192,46571,1,0,0:0:0:0:
64,192,46782,1,0,0:0:0:0:
448,192,46782,1,0,0:0:0:0:
448,192,46993,128,0,47310:0:0:0:0:
320,192,46993,128,0,47204:0:0:0:0:
192,192,46993,128,0,47099:0:0:0:0:
64,192,47099,128,0,47416:0:0:0:0:
192,192,47204,128,0,47521:0:0:0:0:
320,192,47310,128,0,47627:0:0:0:0:
448,192,47416,128,0,47733:0:0:0:0:
64,192,47521,128,0,48050:0:0:0:0:
192,192,47627,128,0,47944:0:0:0:0:
320,192,47733,128,0,47838:0:0:0:0:
448,192,47838,128,0,48155:0:0:0:0:
320,192,47944,128,0,48261:0:0:0:0:
192,192,48050,128,0,48366:0:0:0:0:
64,192,48155,128,0,48472:0:0:0:0:
448,192,48261,128,0,48366:0:0:0:0:
320,192,48366,128,0,48472:0:0:0:0:
192,192,48472,128,0,48578:0:0:0:0:
448,192,48472,1,0,0:0:0:0:
64,192,48578,128,0,48683:0:0:0:0:
192,192,48683,1,0,0:0:0:0:
320,192,48683,1,0,0:0:0:0:
448,192,48683,1,0,0:0:0:0:
64,192,48895,1,0,0:0:0:0:
320,192,48895,1,0,0:0:0:0:
192,192,49000,1,0,0:0:0:0:
320,192,49106,1,0,0:0:0:0:
448,192,49106,1,0,0:0:0:0:
448,192,49317,1,0,0:0:0:0:
192,192,49317,1,0,0:0:0:0:
320,192,49423,1,0,0:0:0:0:
192,192,49528,1,0,0:0:0:0:
64,192,49528,1,0,0:0:0:0:
448,192,49740,1,0,0:0:0:0:
320,192,49740,1,0,0:0:0:0:
64,192,49845,1,0,0:0:0:0:
192,192,49951,1,0,0:0:0:0:
320,192,49951,1,0,0:0:0:0:
64,192,50162,1,0,0:0:0:0:
192,192,50162,1,0,0:0:0:0:
448,192,50268,1,0,0:0:0:0:
320,192,50373,1,0,0:0:0:0:
192,192,50373,1,0,0:0:0:0:
448,192,50585,1,0,0:0:0:0:
64,192,50585,1,0,0:0:0:0:
192,192,50690,1,0,0:0:0:0:
320,192,50796,1,0,0:0:0:0:
448,192,50796,1,0,0:0:0:0:
64,192,51007,1,0,0:0:0:0:
448,192,51007,1,0,0:0:0:0:
320,192,51113,1,0,0:0:0:0:
64,192,51219,1,0,0:0:0:0:
192,192,51219,1,0,0:0:0:0:
320,192,51430,1,0,0:0:0:0:
448,192,51430,1,0,0:0:0:0:
64,192,51535,1,0,0:0:0:0:
192,192,51641,1,0,0:0:0:0:
320,192,51641,1,0,0:0:0:0:
320,192,51852,1,0,0:0:0:0:
192,192,51852,1,0,0:0:0:0:
448,192,51958,1,0,0:0:0:0:
192,192,52064,1,0,0:0:0:0:
320,192,52064,1,0,0:0:0:0:
64,192,52169,1,0,0:0:0:0:
448,192,52275,1,0,0:0:0:0:
320,192,52275,1,0,0:0:0:0:
192,192,52380,1,0,0:0:0:0:
320,192,52486,1,0,0:0:0:0:
64,192,52486,1,0,0:0:0:0:
448,192,52592,1,0,0:0:0:0:
192,192,52697,1,0,0:0:0:0:
320,192,52697,1,0,0:0:0:0:
64,192,52803,1,0,0:0:0:0:
320,192,52909,1,0,0:0:0:0:
448,192,52909,1,0,0:0:0:0:
192,192,53014,1,0,0:0:0:0:
448,192,53120,1,0,0:0:0:0:
64,192,53120,1,0,0:0:0:0:
320,192,53226,1,0,0:0:0:0:
192,192,53331,1,0,0:0:0:0:
64,192,53331,1,0,0:0:0:0:
320,192,53437,1,0,0:0:0:0:
448,192,53542,1,0,0:0:0:0:
192,192,53542,1,0,0:0:0:0:
320,192,53648,1,0,0:0:0:0:
64,192,53754,1,0,0:0:0:0:
448,192,53754,1,0,0:0:0:0:
448,192,53965,128,0,54388:0:0:0:0:
320,192,54071,128,0,54282:0:0:0:0:
192,192,54176,128,0,54599:0:0:0:0:
64,192,54282,128,0,54493:0:0:0:0:
320,192,54388,128,0,54704:0:0:0:0:
448,192,54493,128,0,54916:0:0:0:0:
64,192,54599,128,0,54810:0:0:0:0:
192,192,54704,128,0,55127:0:0:0:0:
320,192,54810,128,0,55021:0:0:0:0:
64,192,54916,128,0,55233:0:0:0:0:
448,192,55021,128,0,55338:0:0:0:0:
320,192,55127,128,0,55338:0:0:0:0:
192,192,55233,128,0,55338:0:0:0:0:
64,192,55338,128,0,55444:0:0:0:0:
192,192,55444,1,0,0:0:0:0:
448,192,55444,128,0,55761:0:0:0:0:
320,192,55444,1,0,0:0:0:0:
64,192,55550,128,0,56078:0:0:0:0:
320,192,55655,128,0,55866:0:0:0:0:
192,192,55761,128,0,55972:0:0:0:0:
448,192,55866,128,0,56183:0:0:0:0:
320,192,55972,128,0,56289:0:0:0:0:
192,192,56078,128,0,56395:0:0:0:0:
64,192,56183,128,0,56500:0:0:0:0:
448,192,56289,128,0,56711:0:0:0:0:
320,192,56395,128,0,56606:0:0:0:0:
192,192,56500,128,0,56711:0:0:0:0:
64,192,56606,128,0,56711:0:0:0:0:
320,192,56711,128,0,57134:0:0:0:0:
192,192,56923,128,0,57134:0:0:0:0:
448,192,57134,1,0,0:0:0:0:
64,192,57134,1,0,0:0:0:0:
192,192,57240,1,0,0:0:0:0:
320,192,57345,1,0,0:0:0:0:
448,192,57345,1,0,0:0:0:0:
192,192,57451,1,0,0:0:0:0:
64,192,57557,1,0,0:0:0:0:
320,192,57557,1,0,0:0:0:0:
448,192,57662,1,0,0:0:0:0:
192,192,57768,1,0,0:0:0:0:
64,192,57768,1,0,0:0:0:0:
320,192,57873,1,0,0:0:0:0:
192,192,57979,1,0,0:0:0:0:
448,192,57979,1,0,0:0:0:0:
64,192,58085,1,0,0:0:0:0:
448,192,58190,1,0,0:0:0:0:
320,192,58296,1,0,0:0:0:0:
192,192,58402,1,0,0:0:0:0:
64,192,58402,1,0,0:0:0:0:
448,192,58507,1,0,0:0:0:0:
320,192,58613,1,0,0:0:0:0:
192,192,58613,1,0,0:0:0:0:
64,192,58719,1,0,0:0:0:0:
320,192,58824,1,0,0:0:0:0:
448,192,58824,1,0,0:0:0:0:
192,192,58930,1,0,0:0:0:0:
320,192,59035,1,0,0:0:0:0:
448,192,59035,1,0,0:0:0:0:
64,192,59141,1,0,0:0:0:0:
320,192,59247,1,0,0:0:0:0:
192,192,59247,1,0,0:0:0:0:
448,192,59352,1,0,0:0:0:0:
320,192,59458,1,0,0:0:0:0:
192,192,59458,1,0,0:0:0:0:
448,192,59564,1,0,0:0:0:0:
192,192,59669,1,0,0:0:0:0:
64,192,59669,1,0,0:0:0:0:
320,192,59775,1,0,0:0:0:0:
448,192,59880,1,0,0:0:0:0:
64,192,59986,1,0,0:0:0:0:
192,192,60092,1,0,0:0:0:0:
320,192,60092,1,0,0:0:0:0:
320,192,60303,1,0,0:0:0:0:
192,192,60303,1,0,0:0:0:0:
64,192,60514,1,0,0:0:0:0:
448,192,60514,1,0,0:0:0:0:
192,192,60620,1,0,0:0:0:0:
320,192,60726,1,0,0:0:0:0:
448,192,60831,1,0,0:0:0:0:
192,192,60937,1,0,0:0:0:0:
64,192,60937,1,0,0:0:0:0:
320,192,61042,1,0,0:0:0:0:
448,192,61148,1,0,0:0:0:0:
64,192,61254,1,0,0:0:0:0:
320,192,61359,1,0,0:0:0:0:
192,192,61359,1,0,0:0:0:0:
448,192,61465,1,0,0:0:0:0:
64,192,61571,1,0,0:0:0:0:
192,192,61676,1,0,0:0:0:0:
320,192,61782,1,0,0:0:0:0:
448,192,61782,1,0,0:0:0:0:
192,192,61888,1,0,0:0:0:0:
448,192,61993,1,0,0:0:0:0:
320,192,62099,1,0,0:0:0:0:
192,192,62204,1,0,0:0:0:0:
64,192,62204,1,0,0:0:0:0:
64,192,62416,128,0,62944:0:0:0:0:
448,192,62416,1,0,0:0:0:0:
192,192,62521,128,0,62838:0:0:0:0:
320,192,62627,128,0,62733:0:0:0:0:
448,192,62733,128,0,63155:0:0:0:0:
320,192,62838,128,0,63155:0:0:0:0:
192,192,62944,128,0,63155:0:0:0:0:
64,192,63050,128,0,63155:0:0:0:0:
448,192,63261,1,0,0:0:0:0:
64,192,63261,1,0,0:0:0:0:
320,192,63331,1,0,0:0:0:0:
192,192,63402,1,0,0:0:0:0:
64,192,63472,1,0,0:0:0:0:
448,192,63472,1,0,0:0:0:0:
64,192,63683,1,0,0:0:0:0:
448,192,63683,1,0,0:0:0:0:
192,192,63754,1,0,0:0:0:0:
320,192,63824,1,0,0:0:0:0:
448,192,63895,1,0,0:0:0:0:
64,192,63895,1,0,0:0:0:0:
192,192,63895,1,0,0:0:0:0:
320,192,64000,1,0,0:0:0:0:
192,192,64106,1,0,0:0:0:0:
448,192,64106,1,0,0:0:0:0:
64,192,64211,1,0,0:0:0:0:
320,192,64317,1,0,0:0:0:0:
192,192,64317,1,0,0:0:0:0:
448,192,64423,1,0,0:0:0:0:
320,192,64528,1,0,0:0:0:0:
64,192,64528,1,0,0:0:0:0:
192,192,64634,1,0,0:0:0:0:
64,192,64740,1,0,0:0:0:0:
448,192,64740,1,0,0:0:0:0:
320,192,64845,1,0,0:0:0:0:
192,192,64951,1,0,0:0:0:0:
448,192,65057,1,0,0:0:0:0:
320,192,65162,1,0,0:0:0:0:
192,192,65162,1,0,0:0:0:0:
64,192,65268,1,0,0:0:0:0:
320,192,65373,1,0,0:0:0:0:
448,192,65373,1,0,0:0:0:0:
192,192,65479,1,0,0:0:0:0:
448,192,65585,1,0,0:0:0:0:
64,192,65585,1,0,0:0:0:0:
320,192,65690,1,0,0:0:0:0:
192,192,65796,1,0,0:0:0:0:
64,192,65796,1,0,0:0:0:0:
320,192,65902,1,0,0:0:0:0:
448,192,66007,1,0,0:0:0:0:
192,192,66007,1,0,0:0:0:0:
64,192,66113,1,0,0:0:0:0:
192,192,66219,1,0,0:0:0:0:
320,192,66219,1,0,0:0:0:0:
448,192,66324,1,0,0:0:0:0:
192,192,66430,1,0,0:0:0:0:
64,192,66430,1,0,0:0:0:0:
320,192,66535,1,0,0:0:0:0:
448,192,66641,1,0,0:0:0:0:
64,192,66747,1,0,0:0:0:0:
192,192,66852,1,0,0:0:0:0:
320,192,66852,1,0,0:0:0:0:
320,192,67064,1,0,0:0:0:0:
192,192,67064,1,0,0:0:0:0:
64,192,67275,1,0,0:0:0:0:
448,192,67275,1,0,0:0:0:0:
64,192,67486,128,0,67592:0:0:0:0:
320,192,67592,128,0,67697:0:0:0:0:
64,192,67697,128,0,67803:0:0:0:0:
448,192,67697,1,0,0:0:0:0:
320,192,67803,128,0,67909:0:0:0:0:
192,192,67909,128,0,68014:0:0:0:0:
448,192,68014,128,0,68120:0:0:0:0:
192,192,68120,128,0,68226:0:0:0:0:
64,192,68120,1,0,0:0:0:0:
448,192,68226,128,0,68331:0:0:0:0:
64,192,68331,128,0,68437:0:0:0:0:
192,192,68331,1,0,0:0:0:0:
320,192,68437,128,0,68542:0:0:0:0:
192,192,68542,128,0,68648:0:0:0:0:
64,192,68542,1,0,0:0:0:0:
448,192,68648,128,0,68754:0:0:0:0:
64,192,68754,128,0,68859:0:0:0:0:
192,192,68754,1,0,0:0:0:0:
320,192,68859,128,0,68965:0:0:0:0:
192,192,68965,128,0,69071:0:0:0:0:
448,192,68965,1,0,0:0:0:0:
320,192,69071,128,0,69176:0:0:0:0:
448,192,69176,128,0,69282:0:0:0:0:
64,192,69176,1,0,0:0:0:0:
320,192,69282,128,0,69388:0:0:0:0:
192,192,69388,128,0,69493:0:0:0:0:
448,192,69388,1,0,0:0:0:0:
64,192,69493,128,0,69599:0:0:0:0:
192,192,69599,128,0,69704:0:0:0:0:
448,192,69599,1,0,0:0:0:0:
320,192,69704,128,0,69810:0:0:0:0:
448,192,69810,128,0,69916:0:0:0:0:
64,192,69810,1,0,0:0:0:0:
320,192,69916,128,0,70021:0:0:0:0:
192,192,70021,128,0,70127:0:0:0:0:
448,192,70021,1,0,0:0:0:0:
64,192,70127,128,0,70233:0:0:0:0:
192,192,70233,128,0,70338:0:0:0:0:
448,192,70233,1,0,0:0:0:0:
320,192,70338,128,0,70444:0:0:0:0:
448,192,70444,128,0,70550:0:0:0:0:
64,192,70444,1,0,0:0:0:0:
320,192,70550,128,0,70655:0:0:0:0:
192,192,70655,128,0,70761:0:0:0:0:
64,192,70655,1,0,0:0:0:0:
448,192,70761,128,0,70866:0:0:0:0:
64,192,70866,128,0,70972:0:0:0:0:
320,192,70972,128,0,71078:0:0:0:0:
192,192,71078,128,0,71183:0:0:0:0:
64,192,71078,1,0,0:0:0:0:
448,192,71183,128,0,71289:0:0:0:0:
64,192,71289,128,0,71395:0:0:0:0:
192,192,71289,1,0,0:0:0:0:
320,192,71395,128,0,71500:0:0:0:0:
448,192,71500,1,0,0:0:0:0:
192,192,71500,1,0,0:0:0:0:
64,192,71500,1,0,0:0:0:0:
448,192,72345,128,0,72662:0:0:0:0:
64,192,72345,1,0,0:0:0:0:
192,192,72345,1,0,0:0:0:0:
320,192,72451,128,0,72768:0:0:0:0:
192,192,72557,128,0,72873:0:0:0:0:
64,192,72662,128,0,72979:0:0:0:0:
448,192,72768,128,0,73085:0:0:0:0:
320,192,72873,128,0,73190:0:0:0:0:
192,192,72979,128,0,73296:0:0:0:0:
64,192,73085,128,0,73402:0:0:0:0:
448,192,73190,128,0,73507:0:0:0:0:
320,192,73296,128,0,73613:0:0:0:0:
192,192,73402,128,0,73719:0:0:0:0:
64,192,73507,128,0,73824:0:0:0:0:
448,192,73613,128,0,73719:0:0:0:0:
320,192,73719,128,0,73824:0:0:0:0:
192,192,73824,128,0,73930:0:0:0:0:
64,192,73930,128,0,74035:0:0:0:0:
320,192,74035,1,0,0:0:0:0:
448,192,74035,1,0,0:0:0:0:
192,192,74035,128,0,74458:0:0:0:0:
64,192,74247,1,0,0:0:0:0:
448,192,74352,1,0,0:0:0:0:
64,192,74458,128,0,74880:0:0:0:0:
320,192,74458,1,0,0:0:0:0:
192,192,74669,1,0,0:0:0:0:
448,192,74775,1,0,0:0:0:0:
320,192,74880,128,0,75303:0:0:0:0:
192,192,74880,1,0,0:0:0:0:
448,192,75092,1,0,0:0:0:0:
192,192,75197,1,0,0:0:0:0:
448,192,75303,128,0,75726:0:0:0:0:
64,192,75303,1,0,0:0:0:0:
192,192,75514,1,0,0:0:0:0:
320,192,75620,1,0,0:0:0:0:
64,192,75726,128,0,76148:0:0:0:0:
192,192,75726,1,0,0:0:0:0:
448,192,75937,1,0,0:0:0:0:
192,192,76042,1,0,0:0:0:0:
320,192,76148,128,0,76571:0:0:0:0:
448,192,76148,1,0,0:0:0:0:
192,192,76359,1,0,0:0:0:0:
448,192,76465,1,0,0:0:0:0:
192,192,76571,128,0,76993:0:0:0:0:
64,192,76571,1,0,0:0:0:0:
448,192,76782,1,0,0:0:0:0:
320,192,76888,1,0,0:0:0:0:
448,192,76993,1,0,0:0:0:0:
64,192,76993,1,0,0:0:0:0:
64,192,77204,1,0,0:0:0:0:
448,192,77204,1,0,0:0:0:0:
448,192,77416,128,0,77838:0:0:0:0:
64,192,77416,1,0,0:0:0:0:
192,192,77416,1,0,0:0:0:0:
320,192,77627,1,0,0:0:0:0:
64,192,77733,1,0,0:0:0:0:
320,192,77838,128,0,78261:0:0:0:0:
192,192,77838,1,0,0:0:0:0:
64,192,78050,1,0,0:0:0:0:
448,192,78155,1,0,0:0:0:0:
64,192,78261,128,0,78683:0:0:0:0:
192,192,78261,1,0,0:0:0:0:
320,192,78472,1,0,0:0:0:0:
448,192,78578,1,0,0:0:0:0:
192,192,78683,128,0,79106:0:0:0:0:
320,192,78683,1,0,0:0:0:0:
448,192,78895,1,0,0:0:0:0:
64,192,79000,1,0,0:0:0:0:
448,192,79106,128,0,79528:0:0:0:0:
320,192,79106,1,0,0:0:0:0:
192,192,79317,1,0,0:0:0:0:
64,192,79423,1,0,0:0:0:0:
320,192,79528,128,0,79951:0:0:0:0:
192,192,79528,1,0,0:0:0:0:
192,192,79740,1,0,0:0:0:0:
448,192,79845,1,0,0:0:0:0:
192,192,79951,1,0,0:0:0:0:
64,192,79951,1,0,0:0:0:0:
64,192,80162,1,0,0:0:0:0:
448,192,80162,1,0,0:0:0:0:
192,192,80233,1,0,0:0:0:0:
320,192,80303,1,0,0:0:0:0:
448,192,80373,1,0,0:0:0:0:
64,192,80373,1,0,0:0:0:0:
64,192,80585,1,0,0:0:0:0:
448,192,80585,1,0,0:0:0:0:
192,192,80655,1,0,0:0:0:0:
320,192,80726,1,0,0:0:0:0:
64,192,80796,128,0,81219:0:0:0:0:
448,192,80796,1,0,0:0:0:0:
192,192,80796,1,0,0:0:0:0:
320,192,81007,1,0,0:0:0:0:
448,192,81113,1,0,0:0:0:0:
192,192,81219,128,0,81641:0:0:0:0:
320,192,81219,1,0,0:0:0:0:
448,192,81324,1,0,0:0:0:0:
64,192,81430,1,0,0:0:0:0:
320,192,81535,1,0,0:0:0:0:
64,192,81641,128,0,82064:0:0:0:0:
448,192,81641,1,0,0:0:0:0:
192,192,81852,1,0,0:0:0:0:
448,192,81958,1,0,0:0:0:0:
320,192,82064,128,0,82486:0:0:0:0:
192,192,82064,1,0,0:0:0:0:
64,192,82169,1,0,0:0:0:0:
448,192,82275,1,0,0:0:0:0:
64,192,82380,1,0,0:0:0:0:
192,192,82486,128,0,82909:0:0:0:0:
448,192,82486,1,0,0:0:0:0:
64,192,82697,1,0,0:0:0:0:
320,192,82803,1,0,0:0:0:0:
448,192,82909,128,0,83226:0:0:0:0:
64,192,82909,1,0,0:0:0:0:
320,192,83014,128,0,83437:0:0:0:0:
192,192,83120,128,0,83331:0:0:0:0:
64,192,83226,128,0,83542:0:0:0:0:
448,192,83331,128,0,83648:0:0:0:0:
192,192,83437,128,0,83859:0:0:0:0:
320,192,83542,128,0,83754:0:0:0:0:
64,192,83648,128,0,83965:0:0:0:0:
448,192,83754,128,0,83859:0:0:0:0:
320,192,83859,128,0,83965:0:0:0:0:
192,192,83965,128,0,84071:0:0:0:0:
448,192,83965,1,0,0:0:0:0:
64,192,84071,128,0,84176:0:0:0:0:
320,192,84176,128,0,84599:0:0:0:0:
448,192,84176,1,0,0:0:0:0:
192,192,84176,1,0,0:0:0:0:
64,192,84388,1,0,0:0:0:0:
448,192,84493,1,0,0:0:0:0:
192,192,84599,1,0,0:0:0:0:
64,192,84599,1,0,0:0:0:0:
448,192,84810,1,0,0:0:0:0:
320,192,84810,1,0,0:0:0:0:
192,192,84880,1,0,0:0:0:0:
64,192,84951,1,0,0:0:0:0:
448,192,85021,1,0,0:0:0:0:
320,192,85021,1,0,0:0:0:0:
64,192,85233,1,0,0:0:0:0:
192,192,85233,1,0,0:0:0:0:
320,192,85303,1,0,0:0:0:0:
448,192,85373,1,0,0:0:0:0:
64,192,85444,1,0,0:0:0:0:
192,192,85444,1,0,0:0:0:0:
448,192,85655,1,0,0:0:0:0:
320,192,85708,1,0,0:0:0:0:
192,192,85761,1,0,0:0:0:0:
64,192,85814,1,0,0:0:0:0:
192,192,85866,1,0,0:0:0:0:
320,192,85866,1,0,0:0:0:0:
192,192,86007,1,0,0:0:0:0:
320,192,86007,1,0,0:0:0:0:
320,192,86148,1,0,0:0:0:0:
192,192,86148,1,0,0:0:0:0:
64,192,86289,1,0,0:0:0:0:
448,192,86289,1,0,0:0:0:0:
64,192,86571,1,0,0:0:0:0:
448,192,86571,1,0,0:0:0:0:
64,192,86852,1,0,0:0:0:0:
448,192,86852,1,0,0:0:0:0:
64,192,87134,1,0,0:0:0:0:
192,192,87134,1,0,0:0:0:0:
448,192,87134,1,0,0:0:0:0:
64,192,87345,1,0,0:0:0:0:
320,192,87345,1,0,0:0:0:0:
448,192,87345,1,0,0:0:0:0:
64,192,87557,1,0,0:0:0:0:
192,192,87557,1,0,0:0:0:0:
320,192,87557,1,0,0:0:0:0:
448,192,87557,1,0,0:0:0:0:
320,192,87768,128,0,87979:0:0:0:0:
64,192,87873,1,0,0:0:0:0:
192,192,87979,128,0,88190:0:0:0:0:
448,192,87979,1,0,0:0:0:0:
64,192,88190,128,0,88402:0:0:0:0:
320,192,88190,1,0,0:0:0:0:
448,192,88402,128,0,88613:0:0:0:0:
192,192,88402,1,0,0:0:0:0:
320,192,88613,128,0,88824:0:0:0:0:
192,192,88719,1,0,0:0:0:0:
64,192,88824,128,0,89035:0:0:0:0:
448,192,88824,1,0,0:0:0:0:
192,192,89035,128,0,89247:0:0:0:0:
320,192,89035,1,0,0:0:0:0:
64,192,89247,1,0,0:0:0:0:
320,192,89458,128,0,89669:0:0:0:0:
64,192,89564,1,0,0:0:0:0:
192,192,89669,128,0,89880:0:0:0:0:
448,192,89669,1,0,0:0:0:0:
64,192,89880,128,0,90092:0:0:0:0:
320,192,89880,1,0,0:0:0:0:
448,192,90092,128,0,90303:0:0:0:0:
192,192,90092,1,0,0:0:0:0:
320,192,90303,128,0,90514:0:0:0:0:
64,192,90409,1,0,0:0:0:0:
192,192,90514,128,0,90726:0:0:0:0:
448,192,90514,1,0,0:0:0:0:
64,192,90726,128,0,90937:0:0:0:0:
320,192,90726,1,0,0:0:0:0:
192,192,90937,1,0,0:0:0:0:
64,192,91148,128,0,91359:0:0:0:0:
320,192,91254,1,0,0:0:0:0:
192,192,91359,128,0,91571:0:0:0:0:
448,192,91359,1,0,0:0:0:0:
320,192,91571,128,0,91782:0:0:0:0:
64,192,91571,1,0,0:0:0:0:
448,192,91782,128,0,91993:0:0:0:0:
192,192,91782,1,0,0:0:0:0:
320,192,91993,128,0,92204:0:0:0:0:
192,192,92099,1,0,0:0:0:0:
64,192,92204,128,0,92416:0:0:0:0:
448,192,92204,1,0,0:0:0:0:
192,192,92416,128,0,92627:0:0:0:0:
320,192,92416,1,0,0:0:0:0:
64,192,92627,1,0,0:0:0:0:
192,192,92838,128,0,93050:0:0:0:0:
448,192,92944,1,0,0:0:0:0:
320,192,93050,128,0,93261:0:0:0:0:
64,192,93050,1,0,0:0:0:0:
192,192,93261,128,0,93472:0:0:0:0:
448,192,93261,1,0,0:0:0:0:
448,192,93472,128,0,93683:0:0:0:0:
64,192,93472,1,0,0:0:0:0:
320,192,93683,128,0,93895:0:0:0:0:
64,192,93789,1,0,0:0:0:0:
192,192,93895,128,0,94106:0:0:0:0:
448,192,93895,1,0,0:0:0:0:
448,192,94106,1,0,0:0:0:0:
64,192,94106,1,0,0:0:0:0:
320,192,94159,1,0,0:0:0:0:
192,192,94211,1,0,0:0:0:0:
64,192,94264,1,0,0:0:0:0:
320,192,94317,1,0,0:0:0:0:
448,192,94317,1,0,0:0:0:0:
192,192,94317,1,0,0:0:0:0:
320,192,94528,128,0,94740:0:0:0:0:
64,192,94634,1,0,0:0:0:0:
192,192,94740,128,0,94951:0:0:0:0:
448,192,94740,1,0,0:0:0:0:
64,192,94951,128,0,95162:0:0:0:0:
320,192,94951,1,0,0:0:0:0:
448,192,95162,128,0,95373:0:0:0:0:
192,192,95162,1,0,0:0:0:0:
320,192,95373,128,0,95585:0:0:0:0:
192,192,95479,1,0,0:0:0:0:
64,192,95585,128,0,95796:0:0:0:0:
448,192,95585,1,0,0:0:0:0:
192,192,95796,128,0,96007:0:0:0:0:
320,192,95796,1,0,0:0:0:0:
64,192,96007,1,0,0:0:0:0:
192,192,96219,128,0,96430:0:0:0:0:
448,192,96324,1,0,0:0:0:0:
320,192,96430,128,0,96641:0:0:0:0:
64,192,96430,1,0,0:0:0:0:
64,192,96641,128,0,96852:0:0:0:0:
448,192,96641,1,0,0:0:0:0:
448,192,96852,128,0,97064:0:0:0:0:
192,192,96852,1,0,0:0:0:0:
320,192,97064,128,0,97275:0:0:0:0:
64,192,97169,1,0,0:0:0:0:
192,192,97275,128,0,97486:0:0:0:0:
448,192,97275,1,0,0:0:0:0:
64,192,97486,128,0,97697:0:0:0:0:
320,192,97486,1,0,0:0:0:0:
192,192,97697,1,0,0:0:0:0:
64,192,97909,128,0,98120:0:0:0:0:
320,192,98014,1,0,0:0:0:0:
192,192,98120,128,0,98331:0:0:0:0:
448,192,98120,1,0,0:0:0:0:
320,192,98331,128,0,98542:0:0:0:0:
64,192,98331,1,0,0:0:0:0:
64,192,98542,128,0,98754:0:0:0:0:
448,192,98542,1,0,0:0:0:0:
192,192,98754,128,0,98965:0:0:0:0:
320,192,98859,1,0,0:0:0:0:
448,192,98965,128,0,99176:0:0:0:0:
64,192,98965,1,0,0:0:0:0:
320,192,99176,128,0,99388:0:0:0:0:
192,192,99176,1,0,0:0:0:0:
64,192,99388,1,0,0:0:0:0:
192,192,99388,1,0,0:0:0:0:
64,192,99528,1,0,0:0:0:0:
192,192,99528,1,0,0:0:0:0:
192,192,99669,1,0,0:0:0:0:
64,192,99669,1,0,0:0:0:0:
64,192,99810,128,0,100233:0:0:0:0:
192,192,99810,128,0,100127:0:0:0:0:
448,192,99810,1,0,0:0:0:0:
448,192,100021,128,0,100338:0:0:0:0:
320,192,100127,128,0,100444:0:0:0:0:
192,192,100233,128,0,100655:0:0:0:0:
64,192,100338,128,0,100655:0:0:0:0:
448,192,100444,128,0,100550:0:0:0:0:
320,192,100550,128,0,100655:0:0:0:0:
448,192,100655,1,0,0:0:0:0:
320,192,100708,1,0,0:0:0:0:
192,192,100761,1,0,0:0:0:0:
64,192,100814,1,0,0:0:0:0:
448,192,100866,1,0,0:0:0:0:
320,192,100919,1,0,0:0:0:0:
192,192,100972,1,0,0:0:0:0:
64,192,101025,1,0,0:0:0:0:
192,192,101078,1,0,0:0:0:0:
320,192,101078,1,0,0:0:0:0:
448,192,101078,1,0,0:0:0:0:
64,192,101500,1,0,0:0:0:0:
448,192,101500,1,0,0:0:0:0:
64,192,102134,1,0,0:0:0:0:
448,192,102345,1,0,0:0:0:0:
64,192,102345,1,0,0:0:0:0:
192,192,102557,1,0,0:0:0:0:
320,192,102662,1,0,0:0:0:0:
192,192,102768,128,0,103190:0:0:0:0:
64,192,102768,1,0,0:0:0:0:
448,192,102979,1,0,0:0:0:0:
320,192,103085,1,0,0:0:0:0:
64,192,103190,1,0,0:0:0:0:
448,192,103190,1,0,0:0:0:0:
320,192,103402,128,0,104035:0:0:0:0:
192,192,103402,1,0,0:0:0:0:
64,192,103824,1,0,0:0:0:0:
448,192,103930,1,0,0:0:0:0:
192,192,104035,128,0,104458:0:0:0:0:
64,192,104035,1,0,0:0:0:0:
320,192,104247,1,0,0:0:0:0:
64,192,104458,128,0,104880:0:0:0:0:
448,192,104458,1,0,0:0:0:0:
192,192,104669,1,0,0:0:0:0:
320,192,104775,1,0,0:0:0:0:
448,192,104880,1,0,0:0:0:0:
192,192,104880,1,0,0:0:0:0:
320,192,105092,1,0,0:0:0:0:
192,192,105197,1,0,0:0:0:0:
64,192,105303,1,0,0:0:0:0:
320,192,105514,1,0,0:0:0:0:
448,192,105514,1,0,0:0:0:0:
64,192,105726,1,0,0:0:0:0:
320,192,105726,1,0,0:0:0:0:
448,192,105726,1,0,0:0:0:0:
192,192,105937,1,0,0:0:0:0:
320,192,106042,1,0,0:0:0:0:
448,192,106148,1,0,0:0:0:0:
64,192,106359,128,0,107204:0:0:0:0:
192,192,106465,128,0,106782:0:0:0:0:
320,192,106571,128,0,106676:0:0:0:0:
448,192,106676,128,0,106888:0:0:0:0:
320,192,106782,128,0,106993:0:0:0:0:
192,192,106888,128,0,107099:0:0:0:0:
448,192,106993,128,0,107310:0:0:0:0:
320,192,107099,128,0,107416:0:0:0:0:
192,192,107204,128,0,107521:0:0:0:0:
64,192,107310,128,0,107627:0:0:0:0:
448,192,107416,128,0,107521:0:0:0:0:
320,192,107521,128,0,107627:0:0:0:0:
192,192,107627,128,0,107733:0:0:0:0:
64,192,107733,128,0,107838:0:0:0:0:
192,192,107838,1,0,0:0:0:0:
320,192,107838,1,0,0:0:0:0:
448,192,107838,1,0,0:0:0:0:
64,192,108050,1,0,0:0:0:0:
192,192,108155,1,0,0:0:0:0:
320,192,108261,1,0,0:0:0:0:
448,192,108261,1,0,0:0:0:0:
192,192,108472,1,0,0:0:0:0:
448,192,108578,1,0,0:0:0:0:
192,192,108683,1,0,0:0:0:0:
320,192,108895,1,0,0:0:0:0:
448,192,108895,1,0,0:0:0:0:
192,192,109000,1,0,0:0:0:0:
64,192,109106,1,0,0:0:0:0:
448,192,109106,1,0,0:0:0:0:
192,192,109317,1,0,0:0:0:0:
320,192,109423,1,0,0:0:0:0:
448,192,109528,1,0,0:0:0:0:
192,192,109740,1,0,0:0:0:0:
320,192,109845,1,0,0:0:0:0:
448,192,109951,1,0,0:0:0:0:
64,192,109951,1,0,0:0:0:0:
320,192,110162,1,0,0:0:0:0:
64,192,110268,1,0,0:0:0:0:
192,192,110373,1,0,0:0:0:0:
320,192,110585,1,0,0:0:0:0:
448,192,110585,1,0,0:0:0:0:
192,192,110690,1,0,0:0:0:0:
64,192,110796,1,0,0:0:0:0:
448,192,110796,1,0,0:0:0:0:
192,192,111007,1,0,0:0:0:0:
320,192,111007,1,0,0:0:0:0:
448,192,111219,1,0,0:0:0:0:
320,192,111219,1,0,0:0:0:0:
64,192,111430,1,0,0:0:0:0:
192,192,111535,1,0,0:0:0:0:
320,192,111641,1,0,0:0:0:0:
448,192,111641,1,0,0:0:0:0:
192,192,111852,1,0,0:0:0:0:
448,192,111958,1,0,0:0:0:0:
192,192,112064,1,0,0:0:0:0:
320,192,112275,1,0,0:0:0:0:
448,192,112275,1,0,0:0:0:0:
192,192,112380,1,0,0:0:0:0:
64,192,112486,1,0,0:0:0:0:
448,192,112486,1,0,0:0:0:0:
320,192,112697,1,0,0:0:0:0:
192,192,112803,1,0,0:0:0:0:
448,192,112909,1,0,0:0:0:0:
320,192,113120,128,0,113331:0:0:0:0:
192,192,113226,128,0,113437:0:0:0:0:
448,192,113331,128,0,114071:0:0:0:0:
320,192,113437,128,0,113754:0:0:0:0:
192,192,113542,128,0,113648:0:0:0:0:
64,192,113648,128,0,113859:0:0:0:0:
192,192,113754,128,0,113965:0:0:0:0:
320,192,113859,128,0,114176:0:0:0:0:
64,192,113965,128,0,114388:0:0:0:0:
192,192,114071,128,0,114282:0:0:0:0:
448,192,114176,128,0,114282:0:0:0:0:
320,192,114282,128,0,114388:0:0:0:0:
192,192,114388,128,0,114493:0:0:0:0:
64,192,114493,128,0,114599:0:0:0:0:
192,192,114599,1,0,0:0:0:0:
320,192,114599,1,0,0:0:0:0:
448,192,114599,128,0,114916:0:0:0:0:
64,192,114704,128,0,115233:0:0:0:0:
320,192,114810,128,0,115021:0:0:0:0:
192,192,114916,128,0,115127:0:0:0:0:
448,192,115021,128,0,115338:0:0:0:0:
320,192,115127,128,0,115444:0:0:0:0:
192,192,115233,128,0,115550:0:0:0:0:
64,192,115338,128,0,115655:0:0:0:0:
448,192,115444,128,0,115866:0:0:0:0:
320,192,115550,128,0,115761:0:0:0:0:
192,192,115655,128,0,115866:0:0:0:0:
64,192,115761,128,0,115866:0:0:0:0:
320,192,115866,128,0,116289:0:0:0:0:
192,192,116078,128,0,116289:0:0:0:0:
64,192,116289,1,0,0:0:0:0:
448,192,116289,1,0,0:0:0:0:
320,192,116395,1,0,0:0:0:0:
192,192,116500,1,0,0:0:0:0:
448,192,116500,1,0,0:0:0:0:
64,192,116606,1,0,0:0:0:0:
320,192,116711,1,0,0:0:0:0:
192,192,116711,1,0,0:0:0:0:
448,192,116817,1,0,0:0:0:0:
320,192,116923,1,0,0:0:0:0:
64,192,116923,1,0,0:0:0:0:
448,192,117028,1,0,0:0:0:0:
320,192,117134,1,0,0:0:0:0:
192,192,117134,1,0,0:0:0:0:
64,192,117240,1,0,0:0:0:0:
448,192,117345,1,0,0:0:0:0:
320,192,117451,1,0,0:0:0:0:
192,192,117557,1,0,0:0:0:0:
64,192,117557,1,0,0:0:0:0:
320,192,117662,1,0,0:0:0:0:
192,192,117768,1,0,0:0:0:0:
448,192,117768,1,0,0:0:0:0:
320,192,117873,1,0,0:0:0:0:
64,192,117979,1,0,0:0:0:0:
448,192,117979,1,0,0:0:0:0:
192,192,118085,1,0,0:0:0:0:
320,192,118190,1,0,0:0:0:0:
448,192,118190,1,0,0:0:0:0:
192,192,118296,1,0,0:0:0:0:
64,192,118402,1,0,0:0:0:0:
320,192,118402,1,0,0:0:0:0:
448,192,118507,1,0,0:0:0:0:
192,192,118613,1,0,0:0:0:0:
64,192,118613,1,0,0:0:0:0:
320,192,118719,1,0,0:0:0:0:
448,192,118824,1,0,0:0:0:0:
64,192,118824,1,0,0:0:0:0:
192,192,118930,1,0,0:0:0:0:
448,192,119035,1,0,0:0:0:0:
320,192,119141,1,0,0:0:0:0:
192,192,119247,1,0,0:0:0:0:
64,192,119247,1,0,0:0:0:0:
192,192,119458,1,0,0:0:0:0:
320,192,119458,1,0,0:0:0:0:
320,192,119669,1,0,0:0:0:0:
448,192,119669,1,0,0:0:0:0:
64,192,119775,1,0,0:0:0:0:
192,192,119880,1,0,0:0:0:0:
448,192,119986,1,0,0:0:0:0:
320,192,120092,1,0,0:0:0:0:
64,192,120092,1,0,0:0:0:0:
192,192,120197,1,0,0:0:0:0:
448,192,120303,1,0,0:0:0:0:
64,192,120409,1,0,0:0:0:0:
192,192,120514,1,0,0:0:0:0:
320,192,120514,1,0,0:0:0:0:
448,192,120620,1,0,0:0:0:0:
64,192,120726,1,0,0:0:0:0:
192,192,120831,1,0,0:0:0:0:
320,192,120937,1,0,0:0:0:0:
448,192,120937,1,0,0:0:0:0:
192,192,121042,1,0,0:0:0:0:
64,192,121148,1,0,0:0:0:0:
448,192,121254,1,0,0:0:0:0:
320,192,121359,1,0,0:0:0:0:
192,192,121359,1,0,0:0:0:0:
448,192,121571,128,0,122099:0:0:0:0:
320,192,121676,128,0,121993:0:0:0:0:
192,192,121782,128,0,121888:0:0:0:0:
64,192,121888,128,0,122310:0:0:0:0:
192,192,121993,128,0,122310:0:0:0:0:
320,192,122099,128,0,122310:0:0:0:0:
448,192,122204,128,0,122310:0:0:0:0:
64,192,122416,1,0,0:0:0:0:
448,192,122416,1,0,0:0:0:0:
192,192,122486,1,0,0:0:0:0:
320,192,122557,1,0,0:0:0:0:
64,192,122627,1,0,0:0:0:0:
448,192,122627,1,0,0:0:0:0:
64,192,122838,1,0,0:0:0:0:
448,192,122838,1,0,0:0:0:0:
320,192,122909,1,0,0:0:0:0:
192,192,122979,1,0,0:0:0:0:
64,192,123050,1,0,0:0:0:0:
448,192,123050,1,0,0:0:0:0:
320,192,123050,1,0,0:0:0:0:
192,192,123155,1,0,0:0:0:0:
448,192,123261,1,0,0:0:0:0:
64,192,123261,1,0,0:0:0:0:
320,192,123366,1,0,0:0:0:0:
192,192,123472,1,0,0:0:0:0:
64,192,123472,1,0,0:0:0:0:
320,192,123578,1,0,0:0:0:0:
448,192,123683,1,0,0:0:0:0:
192,192,123683,1,0,0:0:0:0:
64,192,123789,1,0,0:0:0:0:
192,192,123895,1,0,0:0:0:0:
448,192,123895,1,0,0:0:0:0:
320,192,124000,1,0,0:0:0:0:
64,192,124106,1,0,0:0:0:0:
448,192,124211,1,0,0:0:0:0:
320,192,124317,1,0,0:0:0:0:
192,192,124317,1,0,0:0:0:0:
64,192,124423,1,0,0:0:0:0:
320,192,124528,1,0,0:0:0:0:
448,192,124528,1,0,0:0:0:0:
192,192,124634,1,0,0:0:0:0:
64,192,124740,1,0,0:0:0:0:
448,192,124740,1,0,0:0:0:0:
320,192,124845,1,0,0:0:0:0:
192,192,124951,1,0,0:0:0:0:
64,192,124951,1,0,0:0:0:0:
320,192,125057,1,0,0:0:0:0:
448,192,125162,1,0,0:0:0:0:
192,192,125162,1,0,0:0:0:0:
64,192,125268,1,0,0:0:0:0:
320,192,125373,1,0,0:0:0:0:
448,192,125373,1,0,0:0:0:0:
192,192,125479,1,0,0:0:0:0:
64,192,125585,1,0,0:0:0:0:
448,192,125585,1,0,0:0:0:0:
320,192,125690,1,0,0:0:0:0:
192,192,125796,1,0,0:0:0:0:
448,192,125902,1,0,0:0:0:0:
320,192,126007,1,0,0:0:0:0:
64,192,126007,1,0,0:0:0:0:
64,192,126219,1,0,0:0:0:0:
320,192,126219,1,0,0:0:0:0:
448,192,126430,1,0,0:0:0:0:
192,192,126430,128,0,126535:0:0:0:0:
320,192,126535,128,0,126641:0:0:0:0:
64,192,126641,128,0,126747:0:0:0:0:
192,192,126747,128,0,126852:0:0:0:0:
448,192,126852,128,0,126958:0:0:0:0:
64,192,126852,1,0,0:0:0:0:
320,192,126958,128,0,127064:0:0:0:0:
192,192,127064,128,0,127169:0:0:0:0:
64,192,127169,128,0,127275:0:0:0:0:
448,192,127275,128,0,127380:0:0:0:0:
192,192,127275,1,0,0:0:0:0:
320,192,127380,128,0,127486:0:0:0:0:
192,192,127486,128,0,127592:0:0:0:0:
448,192,127486,1,0,0:0:0:0:
64,192,127592,128,0,127697:0:0:0:0:
320,192,127697,128,0,127803:0:0:0:0:
448,192,127697,1,0,0:0:0:0:
192,192,127803,128,0,127909:0:0:0:0:
448,192,127909,128,0,128014:0:0:0:0:
64,192,127909,1,0,0:0:0:0:
320,192,128014,128,0,128120:0:0:0:0:
64,192,128120,128,0,128226:0:0:0:0:
192,192,128120,1,0,0:0:0:0:
320,192,128226,128,0,128331:0:0:0:0:
64,192,128331,128,0,128437:0:0:0:0:
192,192,128331,1,0,0:0:0:0:
320,192,128437,128,0,128542:0:0:0:0:
192,192,128542,128,0,128648:0:0:0:0:
64,192,128542,1,0,0:0:0:0:
448,192,128648,128,0,128754:0:0:0:0:
192,192,128754,128,0,128859:0:0:0:0:
64,192,128754,1,0,0:0:0:0:
448,192,128859,128,0,128965:0:0:0:0:
64,192,128965,128,0,129071:0:0:0:0:
192,192,128965,1,0,0:0:0:0:
320,192,129071,128,0,129176:0:0:0:0:
192,192,129176,128,0,129282:0:0:0:0:
64,192,129176,1,0,0:0:0:0:
448,192,129282,128,0,129388:0:0:0:0:
64,192,129388,128,0,129493:0:0:0:0:
192,192,129388,1,0,0:0:0:0:
320,192,129493,128,0,129599:0:0:0:0:
192,192,129599,128,0,129704:0:0:0:0:
64,192,129599,1,0,0:0:0:0:
448,192,129704,128,0,129810:0:0:0:0:
64,192,129810,128,0,129916:0:0:0:0:
320,192,129810,1,0,0:0:0:0:
192,192,129916,128,0,130021:0:0:0:0:
320,192,130021,128,0,130127:0:0:0:0:
448,192,130127,128,0,130233:0:0:0:0:
320,192,130233,128,0,130338:0:0:0:0:
64,192,130233,1,0,0:0:0:0:
192,192,130338,128,0,130444:0:0:0:0:
64,192,130444,128,0,130550:0:0:0:0:
320,192,130444,1,0,0:0:0:0:
448,192,130550,128,0,130655:0:0:0:0:
64,192,130655,1,0,0:0:0:0:
192,192,130655,1,0,0:0:0:0:
320,192,130655,1,0,0:0:0:0:
448,192,131500,128,0,133085:0:0:0:0:
320,192,131500,128,0,133085:0:0:0:0:
64,192,131500,1,0,0:0:0:0:
64,192,133190,5,0,0:0:0:0:
320,192,133190,1,0,0:0:0:0:
448,192,133190,1,0,0:0:0:0:
192,192,133402,1,0,0:0:0:0:
320,192,133613,1,0,0:0:0:0:
64,192,133824,1,0,0:0:0:0:
448,192,134035,1,0,0:0:0:0:
192,192,134247,1,0,0:0:0:0:
320,192,134458,1,0,0:0:0:0:
64,192,134669,1,0,0:0:0:0:
192,192,135092,1,0,0:0:0:0:
320,192,135303,1,0,0:0:0:0:
64,192,135514,1,0,0:0:0:0:
448,192,135726,1,0,0:0:0:0:
320,192,135937,1,0,0:0:0:0:
192,192,136148,1,0,0:0:0:0:
64,192,136359,1,0,0:0:0:0:
192,192,136782,1,0,0:0:0:0:
320,192,136993,1,0,0:0:0:0:
64,192,137204,1,0,0:0:0:0:
448,192,137416,128,0,137838:0:0:0:0:
192,192,137627,1,0,0:0:0:0:
320,192,137838,1,0,0:0:0:0:
64,192,138050,1,0,0:0:0:0:
192,192,138472,1,0,0:0:0:0:
320,192,138683,1,0,0:0:0:0:
64,192,138895,1,0,0:0:0:0:
448,192,139106,1,0,0:0:0:0:
192,192,139317,1,0,0:0:0:0:
448,192,139528,1,0,0:0:0:0:
448,192,139740,1,0,0:0:0:0:
320,192,139775,1,0,0:0:0:0:
192,192,139810,1,0,0:0:0:0:
64,192,139845,1,0,0:0:0:0:
448,192,139880,1,0,0:0:0:0:
320,192,139916,1,0,0:0:0:0:
192,192,139951,1,0,0:0:0:0:
64,192,139951,1,0,0:0:0:0:
320,192,140162,128,0,140373:0:0:0:0:
192,192,140373,128,0,140585:0:0:0:0:
448,192,140373,1,0,0:0:0:0:
64,192,140585,128,0,140796:0:0:0:0:
320,192,140585,1,0,0:0:0:0:
448,192,140796,128,0,141007:0:0:0:0:
192,192,140796,1,0,0:0:0:0:
320,192,141007,128,0,141219:0:0:0:0:
64,192,141219,128,0,141430:0:0:0:0:
448,192,141219,1,0,0:0:0:0:
192,192,141430,128,0,141641:0:0:0:0:
320,192,141430,1,0,0:0:0:0:
64,192,141852,128,0,142064:0:0:0:0:
320,192,142064,128,0,142275:0:0:0:0:
192,192,142064,1,0,0:0:0:0:
192,192,142275,128,0,142486:0:0:0:0:
448,192,142275,1,0,0:0:0:0:
448,192,142486,128,0,142697:0:0:0:0:
64,192,142486,1,0,0:0:0:0:
320,192,142697,128,0,142909:0:0:0:0:
64,192,142909,128,0,143120:0:0:0:0:
192,192,142909,1,0,0:0:0:0:
192,192,143120,128,0,143331:0:0:0:0:
448,192,143120,1,0,0:0:0:0:
320,192,143542,128,0,143754:0:0:0:0:
192,192,143754,128,0,143965:0:0:0:0:
448,192,143754,1,0,0:0:0:0:
64,192,143965,128,0,144176:0:0:0:0:
320,192,143965,1,0,0:0:0:0:
448,192,144176,128,0,144388:0:0:0:0:
192,192,144176,1,0,0:0:0:0:
320,192,144388,128,0,144599:0:0:0:0:
64,192,144599,128,0,144810:0:0:0:0:
448,192,144599,1,0,0:0:0:0:
192,192,144810,128,0,145021:0:0:0:0:
320,192,144810,1,0,0:0:0:0:
448,192,145021,1,0,0:0:0:0:
448,192,145162,1,0,0:0:0:0:
64,192,145233,128,0,145585:0:0:0:0:
192,192,145303,128,0,145514:0:0:0:0:
448,192,145303,1,0,0:0:0:0:
320,192,145373,128,0,145444:0:0:0:0:
448,192,145444,128,0,145796:0:0:0:0:
320,192,145514,128,0,145726:0:0:0:0:
192,192,145585,128,0,145655:0:0:0:0:
64,192,145655,128,0,146113:0:0:0:0:
192,192,145726,128,0,146007:0:0:0:0:
320,192,145796,128,0,145902:0:0:0:0:
448,192,145866,128,0,146183:0:0:0:0:
320,192,145972,128,0,146289:0:0:0:0:
192,192,146078,128,0,146395:0:0:0:0:
64,192,146183,128,0,146500:0:0:0:0:
448,192,146289,128,0,146395:0:0:0:0:
320,192,146395,128,0,146500:0:0:0:0:
192,192,146500,128,0,146606:0:0:0:0:
64,192,146606,128,0,146711:0:0:0:0:
320,192,146711,1,0,0:0:0:0:
192,192,146711,1,0,0:0:0:0:
448,192,146711,128,0,147979:0:0:0:0:
64,192,146923,1,0,0:0:0:0:
320,192,147028,1,0,0:0:0:0:
192,192,147134,1,0,0:0:0:0:
64,192,147134,1,0,0:0:0:0:
320,192,147345,1,0,0:0:0:0:
64,192,147451,1,0,0:0:0:0:
192,192,147557,1,0,0:0:0:0:
320,192,147557,1,0,0:0:0:0:
64,192,147768,1,0,0:0:0:0:
320,192,147873,1,0,0:0:0:0:
192,192,147979,128,0,148402:0:0:0:0:
64,192,147979,1,0,0:0:0:0:
448,192,148190,1,0,0:0:0:0:
64,192,148296,1,0,0:0:0:0:
320,192,148402,128,0,149247:0:0:0:0:
448,192,148402,1,0,0:0:0:0:
192,192,148613,1,0,0:0:0:0:
448,192,148719,1,0,0:0:0:0:
192,192,148824,1,0,0:0:0:0:
64,192,148824,1,0,0:0:0:0:
448,192,149035,1,0,0:0:0:0:
64,192,149141,1,0,0:0:0:0:
448,192,149247,128,0,149458:0:0:0:0:
192,192,149247,1,0,0:0:0:0:
320,192,149458,128,0,149669:0:0:0:0:
64,192,149458,1,0,0:0:0:0:
448,192,149564,1,0,0:0:0:0:
192,192,149669,128,0,149880:0:0:0:0:
64,192,149669,1,0,0:0:0:0:
64,192,149880,128,0,150092:0:0:0:0:
448,192,149880,1,0,0:0:0:0:
192,192,149986,1,0,0:0:0:0:
320,192,150092,128,0,151359:0:0:0:0:
448,192,150092,1,0,0:0:0:0:
192,192,150303,1,0,0:0:0:0:
448,192,150409,1,0,0:0:0:0:
192,192,150514,1,0,0:0:0:0:
64,192,150514,1,0,0:0:0:0:
448,192,150726,1,0,0:0:0:0:
64,192,150831,1,0,0:0:0:0:
192,192,150937,1,0,0:0:0:0:
448,192,150937,1,0,0:0:0:0:
64,192,151148,1,0,0:0:0:0:
448,192,151254,1,0,0:0:0:0:
192,192,151359,1,0,0:0:0:0:
64,192,151359,1,0,0:0:0:0:
192,192,151571,128,0,151641:0:0:0:0:
320,192,151641,128,0,151711:0:0:0:0:
448,192,151711,128,0,151782:0:0:0:0:
192,192,151782,128,0,151993:0:0:0:0:
64,192,151782,1,0,0:0:0:0:
448,192,151888,128,0,151993:0:0:0:0:
64,192,151993,128,0,152204:0:0:0:0:
320,192,152099,128,0,152204:0:0:0:0:
448,192,152204,128,0,152521:0:0:0:0:
192,192,152204,1,0,0:0:0:0:
320,192,152310,128,0,152627:0:0:0:0:
192,192,152416,128,0,152733:0:0:0:0:
64,192,152521,128,0,152838:0:0:0:0:
448,192,152627,128,0,152944:0:0:0:0:
320,192,152733,128,0,153050:0:0:0:0:
192,192,152838,128,0,153155:0:0:0:0:
64,192,152944,128,0,153261:0:0:0:0:
448,192,153050,128,0,153155:0:0:0:0:
320,192,153155,128,0,153261:0:0:0:0:
192,192,153261,128,0,153366:0:0:0:0:
448,192,153261,1,0,0:0:0:0:
64,192,153366,128,0,153472:0:0:0:0:
448,192,153472,1,0,0:0:0:0:
320,192,153472,1,0,0:0:0:0:
192,192,153472,1,0,0:0:0:0:
64,192,153578,1,0,0:0:0:0:
448,192,153683,1,0,0:0:0:0:
320,192,153789,1,0,0:0:0:0:
192,192,153895,1,0,0:0:0:0:
64,192,153895,1,0,0:0:0:0:
448,192,154000,1,0,0:0:0:0:
192,192,154106,1,0,0:0:0:0:
448,192,154211,1,0,0:0:0:0:
64,192,154317,128,0,154740:0:0:0:0:
320,192,154317,1,0,0:0:0:0:
192,192,154317,1,0,0:0:0:0:
448,192,154423,1,0,0:0:0:0:
192,192,154528,1,0,0:0:0:0:
320,192,154634,1,0,0:0:0:0:
192,192,154740,128,0,155162:0:0:0:0:
448,192,154740,1,0,0:0:0:0:
320,192,154845,1,0,0:0:0:0:
448,192,154951,1,0,0:0:0:0:
64,192,155057,1,0,0:0:0:0:
320,192,155162,128,0,155585:0:0:0:0:
448,192,155162,1,0,0:0:0:0:
64,192,155268,1,0,0:0:0:0:
192,192,155373,1,0,0:0:0:0:
448,192,155479,1,0,0:0:0:0:
64,192,155585,128,0,156007:0:0:0:0:
192,192,155585,1,0,0:0:0:0:
448,192,155690,1,0,0:0:0:0:
320,192,155796,1,0,0:0:0:0:
448,192,155902,1,0,0:0:0:0:
192,192,156007,128,0,156430:0:0:0:0:
320,192,156007,1,0,0:0:0:0:
448,192,156113,1,0,0:0:0:0:
64,192,156219,1,0,0:0:0:0:
448,192,156324,1,0,0:0:0:0:
320,192,156430,128,0,156852:0:0:0:0:
64,192,156430,1,0,0:0:0:0:
448,192,156535,1,0,0:0:0:0:
192,192,156641,1,0,0:0:0:0:
64,192,156747,1,0,0:0:0:0:
448,192,156852,128,0,157697:0:0:0:0:
192,192,156852,1,0,0:0:0:0:
320,192,156958,1,0,0:0:0:0:
64,192,157064,1,0,0:0:0:0:
320,192,157169,1,0,0:0:0:0:
192,192,157275,1,0,0:0:0:0:
64,192,157275,1,0,0:0:0:0:
320,192,157380,1,0,0:0:0:0:
192,192,157486,1,0,0:0:0:0:
64,192,157592,1,0,0:0:0:0:
320,192,157697,128,0,158542:0:0:0:0:
192,192,157697,1,0,0:0:0:0:
64,192,157803,1,0,0:0:0:0:
448,192,157909,1,0,0:0:0:0:
64,192,158014,1,0,0:0:0:0:
192,192,158120,1,0,0:0:0:0:
448,192,158120,1,0,0:0:0:0:
64,192,158226,1,0,0:0:0:0:
192,192,158331,1,0,0:0:0:0:
448,192,158437,1,0,0:0:0:0:
192,192,158542,1,0,0:0:0:0:
64,192,158542,1,0,0:0:0:0:
448,192,158754,128,0,159071:0:0:0:0:
320,192,158859,128,0,159141:0:0:0:0:
192,192,158965,128,0,159211:0:0:0:0:
64,192,159071,128,0,159282:0:0:0:0:
448,192,159176,1,0,0:0:0:0:
320,192,159247,1,0,0:0:0:0:
192,192,159317,1,0,0:0:0:0:
448,192,159388,128,0,159493:0:0:0:0:
64,192,159388,1,0,0:0:0:0:
192,192,159493,128,0,159599:0:0:0:0:
448,192,159599,128,0,159704:0:0:0:0:
192,192,159704,128,0,159810:0:0:0:0:
320,192,159810,128,0,159916:0:0:0:0:
64,192,159916,128,0,160021:0:0:0:0:
320,192,160021,128,0,160127:0:0:0:0:
64,192,160127,128,0,160233:0:0:0:0:
192,192,160233,1,0,0:0:0:0:
448,192,160233,128,0,160550:0:0:0:0:
320,192,160233,1,0,0:0:0:0:
64,192,160338,128,0,160866:0:0:0:0:
320,192,160444,128,0,160655:0:0:0:0:
192,192,160550,128,0,160761:0:0:0:0:
448,192,160655,128,0,160972:0:0:0:0:
320,192,160761,128,0,161078:0:0:0:0:
192,192,160866,128,0,161183:0:0:0:0:
64,192,160972,128,0,161289:0:0:0:0:
448,192,161078,128,0,161183:0:0:0:0:
320,192,161183,128,0,161289:0:0:0:0:
192,192,161289,128,0,161395:0:0:0:0:
64,192,161395,128,0,161500:0:0:0:0:
320,192,161500,128,0,161711:0:0:0:0:
448,192,161500,128,0,161711:0:0:0:0:
192,192,161711,128,0,161923:0:0:0:0:
64,192,161711,128,0,161923:0:0:0:0:
320,192,161923,1,0,0:0:0:0:
448,192,161923,1,0,0:0:0:0:
192,192,162028,1,0,0:0:0:0:
64,192,162134,128,0,162240:0:0:0:0:
448,192,162134,1,0,0:0:0:0:
320,192,162240,1,0,0:0:0:0:
64,192,162345,128,0,162451:0:0:0:0:
192,192,162345,1,0,0:0:0:0:
448,192,162451,1,0,0:0:0:0:
320,192,162557,128,0,162662:0:0:0:0:
64,192,162557,1,0,0:0:0:0:
448,192,162662,1,0,0:0:0:0:
192,192,162768,128,0,163190:0:0:0:0:
320,192,162768,1,0,0:0:0:0:
64,192,162873,1,0,0:0:0:0:
448,192,162979,1,0,0:0:0:0:
320,192,163085,1,0,0:0:0:0:
64,192,163190,128,0,163296:0:0:0:0:
448,192,163190,1,0,0:0:0:0:
320,192,163296,1,0,0:0:0:0:
192,192,163402,128,0,163507:0:0:0:0:
448,192,163402,1,0,0:0:0:0:
64,192,163507,1,0,0:0:0:0:
448,192,163613,128,0,163719:0:0:0:0:
320,192,163613,1,0,0:0:0:0:
192,192,163719,1,0,0:0:0:0:
320,192,163824,128,0,163930:0:0:0:0:
64,192,163824,1,0,0:0:0:0:
448,192,163930,1,0,0:0:0:0:
192,192,164035,128,0,164141:0:0:0:0:
320,192,164035,1,0,0:0:0:0:
448,192,164141,1,0,0:0:0:0:
64,192,164247,128,0,164352:0:0:0:0:
192,192,164247,1,0,0:0:0:0:
448,192,164352,1,0,0:0:0:0:
64,192,164458,128,0,164564:0:0:0:0:
320,192,164458,1,0,0:0:0:0:
192,192,164564,128,0,164669:0:0:0:0:
320,192,164669,128,0,164775:0:0:0:0:
64,192,164669,1,0,0:0:0:0:
448,192,164775,128,0,164880:0:0:0:0:
64,192,164880,128,0,164986:0:0:0:0:
192,192,164880,128,0,164986:0:0:0:0:
320,192,164880,1,0,0:0:0:0:
192,192,165092,128,0,165197:0:0:0:0:
64,192,165092,128,0,165197:0:0:0:0:
320,192,165092,1,0,0:0:0:0:
448,192,165303,128,0,166148:0:0:0:0:
192,192,165303,1,0,0:0:0:0:
64,192,165303,1,0,0:0:0:0:
320,192,165409,1,0,0:0:0:0:
64,192,165514,1,0,0:0:0:0:
320,192,165620,1,0,0:0:0:0:
192,192,165726,1,0,0:0:0:0:
64,192,165831,1,0,0:0:0:0:
320,192,165937,1,0,0:0:0:0:
192,192,166042,1,0,0:0:0:0:
320,192,166148,128,0,166993:0:0:0:0:
64,192,166148,1,0,0:0:0:0:
192,192,166254,1,0,0:0:0:0:
448,192,166359,1,0,0:0:0:0:
192,192,166465,1,0,0:0:0:0:
64,192,166571,1,0,0:0:0:0:
448,192,166571,1,0,0:0:0:0:
192,192,166676,1,0,0:0:0:0:
448,192,166782,1,0,0:0:0:0:
192,192,166888,1,0,0:0:0:0:
64,192,166993,128,0,167310:0:0:0:0:
448,192,166993,1,0,0:0:0:0:
192,192,167099,128,0,167416:0:0:0:0:
320,192,167204,128,0,167521:0:0:0:0:
448,192,167310,128,0,167627:0:0:0:0:
64,192,167416,128,0,167733:0:0:0:0:
192,192,167521,128,0,167733:0:0:0:0:
320,192,167627,128,0,167838:0:0:0:0:
448,192,167733,128,0,167838:0:0:0:0:
64,192,167838,1,0,0:0:0:0:
192,192,167838,1,0,0:0:0:0:
64,192,168050,128,0,168366:0:0:0:0:
448,192,168050,1,0,0:0:0:0:
320,192,168050,1,0,0:0:0:0:
192,192,168120,128,0,168437:0:0:0:0:
320,192,168190,128,0,168507:0:0:0:0:
448,192,168261,128,0,168578:0:0:0:0:
64,192,168472,1,0,0:0:0:0:
192,192,168542,1,0,0:0:0:0:
320,192,168613,1,0,0:0:0:0:
448,192,168683,1,0,0:0:0:0:
64,192,168683,1,0,0:0:0:0:
192,192,168683,1,0,0:0:0:0:
320,192,168895,128,0,169000:0:0:0:0:
192,192,169000,128,0,169106:0:0:0:0:
64,192,169106,128,0,169211:0:0:0:0:
320,192,169106,1,0,0:0:0:0:
448,192,169211,128,0,169317:0:0:0:0:
320,192,169317,128,0,169423:0:0:0:0:
192,192,169423,128,0,169528:0:0:0:0:
64,192,169528,128,0,169634:0:0:0:0:
448,192,169528,1,0,0:0:0:0:
320,192,169634,128,0,169740:0:0:0:0:
448,192,169740,128,0,169845:0:0:0:0:
192,192,169845,128,0,169951:0:0:0:0:
320,192,169951,128,0,170057:0:0:0:0:
64,192,169951,1,0,0:0:0:0:
448,192,170057,128,0,170162:0:0:0:0:
64,192,170162,128,0,170268:0:0:0:0:
192,192,170268,128,0,170373:0:0:0:0:
320,192,170373,128,0,170479:0:0:0:0:
64,192,170373,1,0,0:0:0:0:
448,192,170479,128,0,170585:0:0:0:0:
192,192,170585,128,0,170690:0:0:0:0:
320,192,170690,128,0,170796:0:0:0:0:
64,192,170796,128,0,170902:0:0:0:0:
448,192,170796,1,0,0:0:0:0:
192,192,170902,128,0,171007:0:0:0:0:
320,192,171007,128,0,171113:0:0:0:0:
448,192,171113,128,0,171219:0:0:0:0:
64,192,171219,128,0,171324:0:0:0:0:
320,192,171219,1,0,0:0:0:0:
192,192,171324,128,0,171430:0:0:0:0:
448,192,171430,128,0,171535:0:0:0:0:
320,192,171535,128,0,171641:0:0:0:0:
192,192,171641,128,0,171747:0:0:0:0:
64,192,171641,1,0,0:0:0:0:
448,192,171747,128,0,171852:0:0:0:0:
192,192,171852,128,0,171958:0:0:0:0:
64,192,171852,1,0,0:0:0:0:
448,192,171958,128,0,172064:0:0:0:0:
320,192,172064,1,0,0:0:0:0:
64,192,172064,1,0,0:0:0:0:
448,192,172275,128,0,172380:0:0:0:0:
192,192,172380,128,0,172486:0:0:0:0:
448,192,172486,128,0,172592:0:0:0:0:
64,192,172486,1,0,0:0:0:0:
192,192,172592,128,0,172697:0:0:0:0:
320,192,172697,128,0,172803:0:0:0:0:
64,192,172803,128,0,172909:0:0:0:0:
320,192,172909,128,0,173014:0:0:0:0:
448,192,172909,1,0,0:0:0:0:
64,192,173014,128,0,173120:0:0:0:0:
448,192,173120,128,0,173226:0:0:0:0:
320,192,173120,128,0,173226:0:0:0:0:
192,192,173226,128,0,173331:0:0:0:0:
448,192,173331,128,0,173437:0:0:0:0:
64,192,173331,128,0,173437:0:0:0:0:
320,192,173437,128,0,173542:0:0:0:0:
64,192,173542,128,0,173648:0:0:0:0:
192,192,173542,128,0,173648:0:0:0:0:
448,192,173648,128,0,173754:0:0:0:0:
320,192,173754,128,0,173859:0:0:0:0:
192,192,173754,128,0,173859:0:0:0:0:
64,192,173859,128,0,173965:0:0:0:0:
320,192,173965,128,0,174071:0:0:0:0:
448,192,173965,128,0,174071:0:0:0:0:
192,192,174071,128,0,174176:0:0:0:0:
64,192,174176,128,0,174282:0:0:0:0:
320,192,174176,128,0,174282:0:0:0:0:
448,192,174282,128,0,174388:0:0:0:0:
192,192,174388,128,0,174493:0:0:0:0:
320,192,174388,128,0,174493:0:0:0:0:
64,192,174493,128,0,174599:0:0:0:0:
448,192,174599,128,0,174704:0:0:0:0:
192,192,174599,128,0,174704:0:0:0:0:
320,192,174704,128,0,174810:0:0:0:0:
64,192,174810,128,0,174916:0:0:0:0:
192,192,174810,128,0,174916:0:0:0:0:
448,192,174916,128,0,175021:0:0:0:0:
320,192,175021,128,0,175127:0:0:0:0:
192,192,175021,128,0,175127:0:0:0:0:
64,192,175127,128,0,175233:0:0:0:0:
320,192,175233,128,0,175338:0:0:0:0:
448,192,175233,128,0,175338:0:0:0:0:
64,192,175338,128,0,175444:0:0:0:0:
192,192,175444,128,0,175550:0:0:0:0:
448,192,175444,128,0,175550:0:0:0:0:
320,192,175550,128,0,175655:0:0:0:0:
64,192,175655,128,0,175761:0:0:0:0:
448,192,175761,128,0,175866:0:0:0:0:
320,192,175866,128,0,175972:0:0:0:0:
192,192,175866,128,0,175972:0:0:0:0:
64,192,175972,128,0,176078:0:0:0:0:
448,192,176078,128,0,176183:0:0:0:0:
320,192,176078,128,0,176183:0:0:0:0:
192,192,176183,128,0,176289:0:0:0:0:
64,192,176289,1,0,0:0:0:0:
320,192,176289,1,0,0:0:0:0:
448,192,176289,1,0,0:0:0:0:
192,192,177134,128,0,177451:0:0:0:0:
64,192,177134,1,0,0:0:0:0:
448,192,177134,1,0,0:0:0:0:
320,192,177240,128,0,177557:0:0:0:0:
64,192,177345,128,0,177662:0:0:0:0:
448,192,177451,128,0,177768:0:0:0:0:
192,192,177557,128,0,177873:0:0:0:0:
320,192,177662,128,0,177979:0:0:0:0:
64,192,177768,128,0,178190:0:0:0:0:
448,192,177873,128,0,178296:0:0:0:0:
192,192,177979,128,0,178085:0:0:0:0:
320,192,178085,128,0,178402:0:0:0:0:
192,192,178190,128,0,178507:0:0:0:0:
64,192,178296,128,0,178613:0:0:0:0:
448,192,178402,128,0,178719:0:0:0:0:
320,192,178507,128,0,178719:0:0:0:0:
192,192,178613,128,0,178719:0:0:0:0:
64,192,178719,128,0,178824:0:0:0:0:
192,192,178824,1,0,0:0:0:0:
320,192,178824,1,0,0:0:0:0:
448,192,178824,1,0,0:0:0:0:
64,192,178930,1,0,0:0:0:0:
320,192,179035,1,0,0:0:0:0:
192,192,179141,1,0,0:0:0:0:
448,192,179247,1,0,0:0:0:0:
320,192,179247,1,0,0:0:0:0:
64,192,179247,1,0,0:0:0:0:
192,192,179352,1,0,0:0:0:0:
448,192,179458,1,0,0:0:0:0:
320,192,179564,1,0,0:0:0:0:
192,192,179669,1,0,0:0:0:0:
64,192,179669,1,0,0:0:0:0:
448,192,179775,1,0,0:0:0:0:
64,192,179880,1,0,0:0:0:0:
320,192,179986,1,0,0:0:0:0:
64,192,180092,1,0,0:0:0:0:
192,192,180092,1,0,0:0:0:0:
448,192,180092,1,0,0:0:0:0:
320,192,180197,1,0,0:0:0:0:
192,192,180303,1,0,0:0:0:0:
448,192,180409,1,0,0:0:0:0:
320,192,180514,1,0,0:0:0:0:
64,192,180514,1,0,0:0:0:0:
192,192,180620,1,0,0:0:0:0:
448,192,180726,1,0,0:0:0:0:
320,192,180831,1,0,0:0:0:0:
64,192,180937,1,0,0:0:0:0:
192,192,180937,1,0,0:0:0:0:
448,192,180937,1,0,0:0:0:0:
320,192,181042,1,0,0:0:0:0:
448,192,181148,1,0,0:0:0:0:
192,192,181254,1,0,0:0:0:0:
320,192,181359,1,0,0:0:0:0:
64,192,181359,1,0,0:0:0:0:
448,192,181465,1,0,0:0:0:0:
192,192,181571,1,0,0:0:0:0:
448,192,181676,1,0,0:0:0:0:
64,192,181782,1,0,0:0:0:0:
192,192,181782,1,0,0:0:0:0:
320,192,181782,1,0,0:0:0:0:
192,192,181993,1,0,0:0:0:0:
320,192,181993,1,0,0:0:0:0:
448,192,181993,1,0,0:0:0:0:
192,192,182204,1,0,0:0:0:0:
64,192,182204,1,0,0:0:0:0:
320,192,182310,1,0,0:0:0:0:
448,192,182416,1,0,0:0:0:0:
192,192,182521,1,0,0:0:0:0:
448,192,182627,1,0,0:0:0:0:
64,192,182627,1,0,0:0:0:0:
320,192,182627,1,0,0:0:0:0:
192,192,182733,1,0,0:0:0:0:
448,192,182838,1,0,0:0:0:0:
320,192,182944,1,0,0:0:0:0:
192,192,183050,1,0,0:0:0:0:
64,192,183050,1,0,0:0:0:0:
320,192,183155,1,0,0:0:0:0:
448,192,183261,1,0,0:0:0:0:
192,192,183366,1,0,0:0:0:0:
64,192,183472,1,0,0:0:0:0:
320,192,183472,1,0,0:0:0:0:
448,192,183472,1,0,0:0:0:0:
192,192,183578,1,0,0:0:0:0:
320,192,183683,1,0,0:0:0:0:
64,192,183789,1,0,0:0:0:0:
192,192,183895,1,0,0:0:0:0:
448,192,183895,1,0,0:0:0:0:
320,192,184000,1,0,0:0:0:0:
64,192,184106,1,0,0:0:0:0:
192,192,184211,1,0,0:0:0:0:
448,192,184317,1,0,0:0:0:0:
320,192,184317,1,0,0:0:0:0:
64,192,184317,1,0,0:0:0:0:
192,192,184423,1,0,0:0:0:0:
64,192,184528,1,0,0:0:0:0:
448,192,184634,1,0,0:0:0:0:
192,192,184740,1,0,0:0:0:0:
320,192,184740,1,0,0:0:0:0:
448,192,184951,1,0,0:0:0:0:
64,192,184951,1,0,0:0:0:0:
320,192,185021,1,0,0:0:0:0:
192,192,185092,1,0,0:0:0:0:
64,192,185162,1,0,0:0:0:0:
448,192,185162,1,0,0:0:0:0:
64,192,185373,1,0,0:0:0:0:
448,192,185373,1,0,0:0:0:0:
192,192,185444,1,0,0:0:0:0:
320,192,185514,1,0,0:0:0:0:
448,192,185585,1,0,0:0:0:0:
64,192,185585,1,0,0:0:0:0:
192,192,185585,1,0,0:0:0:0:
320,192,185690,1,0,0:0:0:0:
64,192,185796,1,0,0:0:0:0:
448,192,185902,1,0,0:0:0:0:
320,192,186007,1,0,0:0:0:0:
192,192,186007,1,0,0:0:0:0:
64,192,186007,1,0,0:0:0:0:
448,192,186113,1,0,0:0:0:0:
192,192,186219,1,0,0:0:0:0:
448,192,186324,1,0,0:0:0:0:
320,192,186430,1,0,0:0:0:0:
64,192,186430,1,0,0:0:0:0:
192,192,186535,1,0,0:0:0:0:
448,192,186641,1,0,0:0:0:0:
320,192,186747,1,0,0:0:0:0:
64,192,186852,1,0,0:0:0:0:
192,192,186852,1,0,0:0:0:0:
448,192,186852,1,0,0:0:0:0:
320,192,186958,1,0,0:0:0:0:
64,192,187064,1,0,0:0:0:0:
192,192,187169,1,0,0:0:0:0:
320,192,187275,1,0,0:0:0:0:
448,192,187275,1,0,0:0:0:0:
64,192,187380,1,0,0:0:0:0:
448,192,187486,1,0,0:0:0:0:
320,192,187592,5,0,0:0:0:0:
64,192,187697,1,0,0:0:0:0:
192,192,187697,1,0,0:0:0:0:
448,192,187697,1,0,0:0:0:0:
320,192,187803,1,0,0:0:0:0:
64,192,187909,1,0,0:0:0:0:
192,192,188014,1,0,0:0:0:0:
64,192,188120,128,0,188437:0:0:0:0:
448,192,188120,1,0,0:0:0:0:
320,192,188120,1,0,0:0:0:0:
192,192,188226,128,0,188542:0:0:0:0:
320,192,188331,128,0,188648:0:0:0:0:
448,192,188437,128,0,188754:0:0:0:0:
64,192,188542,128,0,188648:0:0:0:0:
192,192,188648,128,0,188754:0:0:0:0:
320,192,188754,128,0,188859:0:0:0:0:
64,192,188754,1,0,0:0:0:0:
448,192,188859,128,0,188965:0:0:0:0:
320,192,188965,128,0,189388:0:0:0:0:
64,192,188965,1,0,0:0:0:0:
448,192,189071,1,0,0:0:0:0:
192,192,189176,1,0,0:0:0:0:
64,192,189282,1,0,0:0:0:0:
192,192,189388,128,0,189810:0:0:0:0:
448,192,189388,1,0,0:0:0:0:
320,192,189493,1,0,0:0:0:0:
64,192,189599,1,0,0:0:0:0:
448,192,189704,1,0,0:0:0:0:
64,192,189810,128,0,190655:0:0:0:0:
320,192,189810,1,0,0:0:0:0:
192,192,189916,1,0,0:0:0:0:
320,192,190021,1,0,0:0:0:0:
448,192,190127,1,0,0:0:0:0:
192,192,190233,1,0,0:0:0:0:
320,192,190233,1,0,0:0:0:0:
448,192,190338,1,0,0:0:0:0:
320,192,190444,1,0,0:0:0:0:
192,192,190550,1,0,0:0:0:0:
448,192,190655,128,0,190761:0:0:0:0:
320,192,190655,1,0,0:0:0:0:
192,192,190761,1,0,0:0:0:0:
448,192,190866,128,0,190972:0:0:0:0:
64,192,190866,1,0,0:0:0:0:
320,192,190972,1,0,0:0:0:0:
448,192,191078,128,0,191183:0:0:0:0:
64,192,191078,1,0,0:0:0:0:
192,192,191078,1,0,0:0:0:0:
320,192,191183,1,0,0:0:0:0:
448,192,191289,128,0,191395:0:0:0:0:
64,192,191289,1,0,0:0:0:0:
192,192,191395,1,0,0:0:0:0:
64,192,191500,128,0,191606:0:0:0:0:
320,192,191500,1,0,0:0:0:0:
448,192,191606,1,0,0:0:0:0:
64,192,191711,128,0,191817:0:0:0:0:
192,192,191711,1,0,0:0:0:0:
320,192,191782,1,0,0:0:0:0:
448,192,191852,1,0,0:0:0:0:
64,192,191923,128,0,192028:0:0:0:0:
192,192,191923,1,0,0:0:0:0:
320,192,191923,1,0,0:0:0:0:
448,192,192028,1,0,0:0:0:0:
64,192,192134,128,0,192240:0:0:0:0:
320,192,192134,1,0,0:0:0:0:
448,192,192204,1,0,0:0:0:0:
192,192,192275,1,0,0:0:0:0:
320,192,192345,128,0,193590:0:0:0:0:
448,192,192345,128,0,193137:0:0:0:0:
64,192,192345,1,0,0:0:0:0:
192,192,192797,128,0,194047:0:0:0:0:
64,192,192797,128,0,193137:0:0:0:0:
448,192,193250,128,0,194047:0:0:0:0:
64,192,193250,128,0,193590:0:0:0:0:
320,192,193703,128,0,194546:0:0:0:0:
64,192,193703,128,0,194546:0:0:0:0:
192,192,194162,128,0,195031:0:0:0:0:
448,192,194162,128,0,195031:0:0:0:0:
64,192,194674,128,0,195541:0:0:0:0:
320,192,194674,128,0,195541:0:0:0:0:
192,192,195150,128,0,198679:0:0:0:0:
448,192,195150,128,0,196063:0:0:0:0:
320,192,195671,128,0,198679:0:0:0:0:
64,192,195671,128,0,196063:0:0:0:0:
448,192,196193,128,0,201496:0:0:0:0:
64,192,196193,128,0,201496:0:0:0:0:
192,192,198844,128,0,201496:0:0:0:0:
320,192,198844,128,0,201496:0:0:0:0:
