osu file format v5

[General]
AudioFilename: 01 - Aoi Hana.mp3
AudioLeadIn: 0
PreviewTime: -1
Countdown: 1
SampleSet: Normal
StackLeniency: 0.7
Mode: 0
LetterboxInBreaks: 1

[Metadata]
Title:Aoi Hana
Artist:Color Bottle
Creator:kenimpact
Version:Insane
Source:
Tags:

[Difficulty]
HPDrainRate:8
CircleSize:6
OverallDifficulty:8
SliderMultiplier:1.8
SliderTickRate:2

[Events]
//Background and Video events
0,0,"Aoi Hana - Color Bottle.png"
//Break Periods
//Storyboard Layer 0 (Background)
//Storyboard Layer 1 (Failing)
//Storyboard Layer 2 (Passing)
//Storyboard Layer 3 (Foreground)
//Storyboard Sound Samples
//Background Colour Transformations
3,100,163,162,255

[TimingPoints]
33,333.757947611128,4,1,0,100,1
87644,280.674641929487,4,1,0,100,1

[HitObjects]
160,160,27234,1,0
192,128,27401,1,0
224,160,27568,1,0
256,128,27734,1,0
288,160,27901,1,0
224,256,28235,1,0
160,256,28402,1,0
192,288,28569,1,0
256,288,28736,1,0
416,192,29236,5,0
448,160,29570,1,0
416,128,29737,1,0
384,160,29904,1,0
384,224,30238,1,0
384,224,30571,1,0
128,160,31406,5,0
160,128,31573,1,0
192,160,31740,1,0
224,128,31906,1,0
256,160,32073,1,0
256,160,32407,1,0
160,192,32741,5,0
192,224,32908,1,0
224,192,33075,1,0
352,320,33408,1,0
288,320,33575,1,0
192,320,33909,1,0
128,320,34076,1,0
64,320,34243,1,0
64,256,34410,1,0
64,192,34576,1,0
96,224,34743,1,0
128,256,34910,1,0
160,224,35077,1,0
192,128,37580,5,0
224,160,37747,1,0
256,128,37914,1,0
288,160,38081,1,0
320,128,38248,1,0
384,192,38581,1,0
448,256,38915,1,0
256,96,39917,5,0
224,128,40083,1,0
192,96,40250,1,0
160,128,40417,1,0
128,96,40584,1,0
64,160,40751,1,0
128,224,41252,1,0
256,256,41752,5,0
288,224,41919,1,0
320,256,42086,1,0
352,224,42253,1,0
288,224,42420,1,0
256,256,42587,1,0
320,256,42754,1,0
352,224,42920,1,0
384,96,43087,6,0,B|352:192|256:160,1,90
320,96,43421,2,0,B|256:96|192:128,1,90
256,96,43755,2,0,B|192:256,1,90
224,128,44089,2,0,B|224:320|352:352,1,270
256,32,62278,6,0,B|192:96|256:96|192:160|256:160|192:224|256:224|192:288|256:288|192:352,1,270
192,160,63447,2,0,B|256:192|320:160,1,90
256,128,64114,2,0,B|224:224,1,90
256,256,64782,6,0,B|224:256|192:256|160:256|128:256|96:256|64:256,2,180
224,192,66450,1,0
256,128,66617,1,0
352,32,66951,1,0
352,32,67285,1,0
448,224,67952,6,0,B|384:320|288:256,2,180
256,192,68954,12,0,69788
192,192,70289,6,0,B|288:224|416:160|256:96|192:128,5,270
256,192,73125,12,0,74461
256,192,75462,5,0
256,192,75629,1,0
256,256,75796,1,0
256,320,75962,1,0
256,320,76129,1,0
256,320,76296,1,0
192,320,76463,1,0
160,256,76630,1,0
288,192,77297,5,0
352,160,77464,1,0
416,128,77798,1,0
288,128,78132,1,0
288,128,78466,1,0
128,64,78966,6,0,B|64:128|128:192|160:224,3,180
256,192,88065,5,0
192,192,88205,1,0
224,224,88345,1,0
288,224,88486,1,0
256,256,88626,1,0
192,256,88766,1,0
224,288,88907,1,0
288,288,89047,1,0
256,320,89187,1,0
192,320,89328,1,0
160,288,89468,5,0
160,224,89608,1,0
128,256,89749,1,0
128,192,89889,1,0
96,224,90029,1,0
96,160,90170,1,2
128,192,90310,1,0
128,256,90450,1,0
160,224,90591,1,0
160,288,90731,1,0
192,256,90871,5,0
192,192,91012,1,2
224,224,91152,1,0
224,160,91292,1,0
256,192,91433,1,2
256,128,91573,1,2
256,192,91713,1,2
256,192,91854,1,0
256,192,91994,1,0
416,224,92275,5,0
352,256,92415,1,0
256,320,92696,1,0
128,256,92976,5,0
64,224,93117,1,0
256,320,93397,1,0
352,256,93678,5,0
416,224,93818,1,0
352,256,93959,1,0
256,320,94239,1,0
128,256,94520,5,0
64,224,94660,1,0
128,256,94801,1,0
192,288,94941,1,0
320,352,95222,1,0
320,128,96765,5,0
256,160,96906,1,0
192,192,97046,1,0
128,224,97186,1,0
64,256,97327,1,0
128,288,97467,1,0
192,320,97607,1,0
320,320,97888,1,0
352,288,98028,1,0
256,96,98870,5,0
192,128,99011,1,0
256,96,99151,1,0
256,224,99432,1,0
192,256,99572,1,0
256,224,99713,1,0
352,160,99993,1,0
352,160,100134,1,0
352,160,100274,1,0
192,96,101116,5,0
160,160,101256,1,0
192,224,101397,1,0
224,160,101537,1,0
224,160,101677,1,0
224,160,101818,1,0
224,160,101958,1,0
416,160,102379,5,0
384,224,102519,1,0
320,256,102660,1,0
224,320,102940,1,0
128,256,103221,1,0
64,128,103502,1,0
96,64,103642,1,0
160,64,103782,1,0
288,64,104063,1,0
224,192,104344,1,0
288,160,107291,5,0
256,224,107431,1,0
224,160,107571,1,0
192,224,107712,1,0
160,160,107852,1,0
224,160,107992,1,0
224,160,108133,1,0
256,224,108273,1,0
256,224,108413,1,0
384,128,109255,5,0
320,160,109396,1,0
256,128,109536,1,0
320,96,109676,1,0
192,96,109957,1,0
160,128,110097,1,0
192,160,110238,1,0
160,96,110378,1,0
128,128,110518,1,0
160,160,110659,1,0
192,224,111361,5,0
224,256,111501,1,0
224,192,111641,1,0
256,224,111782,1,0
256,160,111922,1,0
288,192,112062,1,0
256,160,112203,1,0
288,192,112343,1,0
256,160,112483,1,0
416,96,112904,5,0
352,128,113045,1,0
288,96,113185,1,0
224,128,113325,1,0
160,96,113466,1,0
96,128,113606,1,0
160,160,113746,1,0
256,192,114869,12,0,131288
128,160,131709,5,0
160,192,131850,1,0
256,96,132130,1,0
384,224,132551,1,0
352,128,133113,5,0
320,160,133253,1,0
224,256,133534,1,0
256,224,133674,1,0
192,96,134095,1,0
192,96,134376,1,0
192,96,134657,1,0
192,96,134937,1,0
192,96,135218,1,0
384,128,135639,5,0
384,192,135779,1,0
320,224,135920,1,0
192,192,136200,1,0
64,320,136621,1,0
320,96,137463,6,0,B|160:256,1,180
160,64,138130,1,0
256,192,138726,12,0,139428
128,160,139989,5,0
224,256,140270,1,0
288,160,140551,1,0
384,256,140831,1,0
448,160,141112,1,0
384,256,141393,1,0
288,160,141673,1,0
224,256,141954,1,0
128,160,142235,1,0
224,256,142515,1,0
288,128,142796,5,0
288,128,142936,1,0
288,128,143077,1,0
288,128,143217,1,0
288,128,143357,1,0
288,128,143498,1,0
288,128,143638,1,0
288,128,143778,1,0
288,128,143919,1,0
192,64,145041,5,0
128,96,145182,1,0
192,192,145462,1,0
288,128,145743,1,0
384,224,146024,1,0
320,256,146164,1,0
96,224,147006,5,0
160,224,147147,1,0
224,224,147287,1,0
352,224,147568,1,0
480,224,147848,1,0
288,96,148410,1,0
192,160,148690,1,0
96,96,148971,1,0
192,32,149252,1,0
