osu file format v5

[General]
AudioFilename: Coldplay - Yellow.mp3
AudioLeadIn: 1985
PreviewTime: -1
Countdown: 1
SampleSet: Soft
StackLeniency: 0.7
Mode: 0
LetterboxInBreaks: 1
EditorBookmarks: 176074

[Metadata]
Title:Yellow
Artist:Coldplay
Creator:wyaeiga
Version:Blissfully Easy (Blissfulyoshi)
Source:
Tags:

[Difficulty]
HPDrainRate:4
CircleSize:3
OverallDifficulty:2
SliderMultiplier:1.6
SliderTickRate:2

[Events]
//Background and Video events
0,0,"Coldplay-Parachutes-Delantera.jpg"
//Break Periods
2,65860,68435
2,82448,88133
//Storyboard Layer 0 (Background)
//Storyboard Layer 1 (Failing)
//Storyboard Layer 2 (Passing)
//Storyboard Layer 3 (Foreground)
//Storyboard Sound Samples
//Background Colour Transformations
3,100,163,162,255

[TimingPoints]
33693,345.582306185923,4,2,0,100,1
110759,691.164612371847,4,1,0,100,0
133221,691.164612371847,4,2,0,100,0

[Colours]
Combo1 : 255,255,255
Combo2 : 162,157,83
Combo3 : 171,220,24
Combo4 : 222,163,22
Combo5 : 239,252,3

[HitObjects]
56,328,33694,5,0
136,320,34040,1,0
216,320,34385,1,0
296,320,34729,2,2,B|296:-8,1,320,0|0
56,32,36459,5,0
104,96,36804,1,0
152,32,37150,1,0
232,32,37495,2,2,C|266:72|344:160,1,160,2|0
400,200,38187,2,2,C|376:264|297:278|304:280,1,160,2|0
368,136,39222,2,4,B|512:40,1,160
424,192,40259,5,8
256,192,40950,1,8
88,192,41641,1,8
216,96,42332,5,0
184,168,42679,1,0
264,168,43025,1,0
352,80,43543,2,0,C|412:5|412:5,1,80,2|4
402,18,43887,2,4,B|282:170,1,160
256,192,44406,12,0,45788
256,192,46479,5,4
256,192,47170,1,4
384,184,47689,5,0
424,184,47861,1,0
424,224,48034,1,0
424,264,48207,2,0,B|248:264,1,160,0|0
256,176,48900,1,2
256,176,49072,2,4,C|147:83|147:83,1,160,2|4
360,64,50282,5,0
360,136,50628,1,0
360,224,50973,1,0
296,280,51319,2,4,C|187:326|193:162|200:128,1,320,2|4
16,312,53045,5,0
112,256,53392,1,0
184,216,53738,1,0
216,296,54083,1,0
344,328,54602,2,0,C|408:280|472:236|208:40,1,480,2|4
232,57,55811,2,8,C|164:154|112:49,1,240,0|4
64,192,56847,5,8
256,192,57538,1,8
448,192,58229,1,8
376,224,58574,5,0
400,256,58747,1,0
360,256,58920,1,0
288,288,59267,2,0,B|224:331|136:272,2,160
256,216,60304,1,0
256,136,60648,1,0
256,56,60994,5,4
256,192,61685,1,4
256,328,62376,1,4
256,192,63067,1,4
456,192,63758,1,6
256,192,64449,5,0
216,192,64624,1,0
176,192,64796,1,0
16,176,65486,1,0
16,136,65659,1,0
64,48,69635,5,0
144,48,69980,1,0
224,48,70326,1,0
304,48,70671,1,0
376,72,71017,2,0,C|280:152|376:248|184:336,1,480,2|4
104,336,72398,2,8,B|124:141|124:141,1,160,0|0
96,64,73434,5,2
256,192,74126,1,2
416,320,74817,1,2
336,328,75164,5,0
256,328,75509,1,0
176,328,75855,1,0
96,328,76201,1,0
96,168,76892,1,0
176,168,77236,2,0,B|344:168,1,160
512,192,78273,5,8
256,192,78964,1,8
256,192,79309,12,0,80346
280,64,81037,5,2
296,96,81210,1,2
312,136,81383,2,2,B|312:240|112:232,1,240
121,233,82076,2,2,C|121:145,1,80,2|6
64,80,89333,5,2
176,80,90022,2,2,B|504:80,2,320,0|0|0
176,160,91750,1,0
176,240,92096,2,4,B|-8:240,2,160
176,320,93133,1,0
256,320,93480,2,0,B|336:368|408:312|360:208|288:176|216:184,1,320,6|4
208,24,94862,2,0,B|272:-40|360:24,1,160,2|4
440,88,95552,2,2,B|472:232|352:312|216:344|64:344|56:336|56:336|58:194|58:194,1,640
64,128,97280,2,4,B|152:72|232:144,5,160
376,136,99699,5,0
376,296,100391,5,2
296,296,100737,1,2
296,216,101083,2,2,C|36:190|230:75|376:136,1,640,2|2
368,208,102810,2,0,B|400:144|504:256,1,160
432,288,103500,1,0
352,288,103846,1,0
296,224,104193,2,4,B|328:160|448:240,1,160
79,253,108338,5,0
96,176,108684,1,0
144,112,109029,1,0
216,72,109375,1,0
296,64,109721,1,0
376,80,110066,1,0
