osu file format v5

[General]
AudioFilename: Coldplay - Viva La Vida.mp3
AudioLeadIn: 0
PreviewTime: -1
Countdown: 0
SampleSet: Soft

[Metadata]
Title:Viva la Vida
Artist:Coldplay
Creator:Puffles
Version:Classic

[Difficulty]
HPDrainRate:7
CircleSize:5
OverallDifficulty:3
SliderMultiplier:1.2
SliderTickRate:1

[Events]
//Background and Video events
0,0,"Van Gogh - Starry Night.jpg"
//Break Periods
2,26433,39435
2,95628,108456
2,165193,179303
//Storyboard Layer 0 (Background)
//Storyboard Layer 1 (Failing)
//Storyboard Layer 2 (Passing)
//Storyboard Layer 3 (Foreground)
//Storyboard Sound Samples
//Background Colour Transformations
3,100,163,162,255

[TimingPoints]
6950,434.783500000003,4,2,1,100

[Colours]
Combo1 : 53,255,194
Combo2 : 255,252,132
Combo3 : 62,86,255

[HitObjects]
48,48,12819,1,0
48,48,13036,1,0
48,160,13471,1,0
48,272,13906,2,0,B|251:292|272:32,1,360
270,48,15428,1,0
464,336,16732,6,0,B|464:256|368:256,1,120
391,257,17384,1,0
256,256,17819,1,0
192,256,18036,1,0
128,256,18254,1,0
128,128,18689,1,0
192,128,18906,1,0
304,80,19341,5,0
368,96,19558,1,0
320,144,19776,1,0
384,160,19993,1,0
336,208,20210,1,0
400,224,20428,1,0
448,336,20863,2,0,B|245:356|224:96,1,360
226,112,22384,1,0
464,48,23689,5,0
464,160,24123,1,0
464,160,24341,1,0
352,112,24776,1,0
240,160,25210,1,0
128,112,25645,1,0
128,176,25863,1,0
128,240,26080,1,0
128,304,26297,1,0
464,48,40645,5,0
464,48,40863,1,0
464,160,41297,1,0
464,272,41732,2,0,B|261:292|240:32,1,360
242,48,43254,1,0
48,336,44558,6,0,B|48:256|144:256,1,120
121,257,45210,1,0
256,256,45645,1,0
320,256,45863,1,0
384,256,46080,1,0
384,192,46297,1,0
384,128,46515,1,0
320,128,46732,1,0
256,128,46950,1,0
256,192,47167,1,0
112,80,47819,5,0
112,144,48037,1,0
112,208,48254,1,0
112,272,48471,1,0
112,336,48689,2,0,B|315:356|304:128,1,300
304,48,50210,1,0
176,320,51732,5,0
144,272,51950,1,0
112,224,52167,1,0
112,160,52384,1,0
144,112,52602,1,0
176,64,52819,1,0
352,96,53471,1,0
352,160,53689,1,0
352,224,53906,1,0
352,288,54124,1,0
464,288,54558,5,0
464,224,54776,1,0
464,160,54993,1,0
464,96,55210,1,0
352,64,55645,2,0,B|149:44|128:304,1,360
129,287,57167,1,0
464,48,58471,6,0,B|464:128|368:128,1,120
391,127,59124,1,0
208,128,59776,1,0
208,192,59993,2,0,B|208:320,2,120
272,192,61080,1,0
272,256,61297,1,0
336,256,61515,1,0
336,192,61732,1,0
400,192,61950,1,0
400,256,62167,1,0
464,256,62384,1,0
464,192,62602,2,0,B|464:80|208:96,1,300
96,96,64124,1,0
376,320,65428,5,0
375,319,65645,2,0,B|303:321|303:241,1,120
303,183,66297,1,0
304,120,66515,1,0
304,56,66732,2,0,B|128:56,1,120
184,120,67384,1,0
184,184,67602,1,0
184,248,67819,1,0
184,312,68037,1,0
64,64,69341,5,0
128,64,69558,1,2
256,64,69993,1,6
256,176,70428,1,2
256,240,70645,1,0
256,304,70863,1,6
320,304,71080,1,0
432,304,71732,1,6
432,240,71950,2,0,B|480:176|432:128,1,120
384,64,73037,5,2
256,64,73471,1,6
256,176,73906,1,2
256,240,74124,1,0
256,304,74341,1,6
192,304,74558,1,0
80,304,75211,1,6
80,240,75428,2,0,B|32:176|80:128,1,120
128,64,76515,5,2
256,64,76950,1,6
256,176,77384,1,6
256,240,77602,1,0
256,304,77819,1,2
320,304,78037,1,0
432,304,78689,1,2
432,240,78906,2,0,B|480:176|432:128,1,120
384,64,79776,5,0
320,64,79993,1,2
256,64,80211,1,0
192,64,80428,2,6,B|144:128|192:176,1,120
256,176,81080,1,0
320,176,81297,1,2
384,176,81515,2,0,B|432:240|384:288,1,120
264,288,82384,2,0,B|216:224|264:176,1,120
96,96,83471,6,6,B|160:48|208:96,2,120
96,160,84558,1,0
96,224,84776,1,0
96,288,84993,2,2,B|160:336|208:288,2,120
416,96,86950,6,6,B|352:48|304:96,2,120
416,208,88254,1,2
352,208,88471,1,0
288,208,88689,1,2
224,208,88906,1,0
224,32,89558,1,2
288,32,89776,1,0
352,32,89993,1,2
416,32,90211,2,0,B|436:235|176:256,1,360
64,256,91950,1,0
432,240,93471,5,2
432,176,93689,1,0
432,112,93906,1,2
432,48,94124,2,0,B|240:48,1,180
256,160,95211,1,0
256,224,95428,1,0
448,320,109776,5,0
384,320,109993,1,2
384,256,110211,1,0
448,256,110428,1,2
448,192,110645,1,0
384,192,110863,1,2
384,128,111080,2,0,B|57:77|80:256,1,360
80,336,112819,1,0
80,64,114124,5,0
80,128,114341,1,2
80,192,114558,1,0
80,256,114776,2,0,B|272:256,1,180
260,256,115645,1,2
256,128,116080,1,0
256,64,116298,1,0
432,64,116950,5,2
368,64,117167,1,0
368,128,117385,1,2
432,128,117602,1,0
432,192,117819,1,2
368,192,118037,1,0
368,256,118254,2,0,B|165:257|192:16,1,300
288,64,119776,1,0
64,320,121298,5,2
112,288,121515,1,0
160,256,121732,1,2
208,224,121950,1,0
256,192,122167,1,2
304,160,122385,1,0
464,64,123037,1,0
464,128,123254,2,0,B|464:256,1,120
464,312,123906,1,2
400,312,124124,5,0
336,312,124341,1,2
336,248,124558,1,0
400,248,124776,1,2
400,184,124993,1,0
336,184,125211,2,2,B|207:-5|72:232,1,300
224,192,126732,1,2
48,352,128254,5,2
112,344,128471,1,0
176,328,128689,2,2,B|224:264|176:216,1,120
120,200,129341,1,0
64,176,129558,2,2,B|16:112|64:64,1,120
120,48,130211,1,2
288,112,130863,5,2
352,112,131080,1,0
416,112,131298,1,2
432,48,131515,1,0
368,48,131732,1,2
304,48,131950,1,0
240,48,132167,2,2,C|217:138|242:244|224:352,1,300
352,336,133689,1,2
128,336,135211,6,2,B|80:272|128:224,1,120
192,224,135863,1,0
256,224,136080,1,2
320,224,136298,1,0
352,160,136515,1,2
288,160,136732,1,0
224,160,136950,1,0
160,160,137167,1,2
64,320,138906,5,0
128,320,139124,1,2
256,320,139558,1,6
256,208,139993,1,2
256,144,140211,1,0
256,80,140428,1,6
320,80,140645,1,0
432,80,141298,1,6
432,144,141515,2,0,B|480:208|432:256,1,120
384,320,142602,5,2
256,320,143037,1,6
256,208,143472,1,2
256,144,143689,1,0
256,80,143906,1,6
192,80,144124,1,0
80,80,144776,1,6
80,144,144993,2,0,B|32:208|80:256,1,120
128,320,146080,5,2
256,320,146515,1,6
256,208,146950,1,6
256,144,147167,1,0
256,80,147385,1,2
320,80,147602,1,0
432,80,148254,1,2
432,144,148472,2,0,B|480:208|432:256,1,120
384,320,149341,5,0
320,320,149558,1,2
256,320,149776,1,0
192,320,149993,2,6,B|144:256|192:208,1,120
256,208,150645,1,0
320,208,150863,1,2
384,208,151080,2,0,B|432:144|384:96,1,120
264,96,151950,2,0,B|216:160|264:208,1,120
96,288,153037,6,6,B|160:336|208:288,2,120
96,224,154124,1,0
96,160,154341,1,0
96,96,154558,2,2,B|160:48|208:96,2,120
480,288,156298,5,0
416,288,156515,2,6,B|352:336|304:288,2,120
416,224,157602,1,0
416,160,157819,1,0
416,96,158037,2,2,B|352:48|304:96,2,120
224,288,159559,1,2
288,288,159776,1,0
352,288,159993,1,0
416,288,160211,2,0,B|424:161|192:192,1,240
112,192,161515,1,0
432,320,162819,5,0
432,256,163037,1,2
432,192,163254,1,0
432,128,163472,1,2
432,64,163689,2,0,B|240:64,1,180
256,176,164776,1,0
256,240,164993,1,0
80,80,180863,5,4
200,80,181298,1,6
320,80,181732,1,4
440,80,182167,1,6
440,200,182602,1,4
320,200,183037,1,6
200,200,183472,1,4
80,200,183906,1,6
80,320,184341,5,4
200,320,184776,1,6
200,200,185211,1,4
80,200,185646,1,6
80,80,186080,1,4
200,80,186515,1,6
320,80,186950,1,4
440,80,187385,1,6
440,200,187819,1,4
432,320,188254,6,6,B|304:320,1,120
192,320,189124,2,6,B|192:184,1,120
312,200,189993,2,6,B|312:72,1,120
192,80,190863,2,6,B|64:80,1,120
72,200,191732,2,6,B|24:264|72:312,1,120
192,312,192602,2,6,B|240:248|192:200,1,120
192,80,193472,2,6,B|256:32|304:80,1,120
304,192,194341,2,6,B|368:240|416:192,1,120
256,64,195211,5,6
256,176,195646,1,2
256,240,195863,1,0
256,304,196080,1,6
192,304,196298,1,0
80,304,196950,1,6
80,240,197167,2,0,B|32:176|80:128,1,120
128,64,198254,5,2
256,64,198689,1,6
256,176,199124,1,2
256,240,199341,1,0
256,304,199559,1,6
320,304,199776,1,0
432,304,200428,1,6
432,240,200646,2,0,B|480:176|432:128,1,120
384,64,201733,5,2
256,64,202167,1,6
256,176,202602,1,6
256,240,202819,1,0
256,304,203037,1,2
192,304,203254,1,0
80,304,203906,1,2
80,240,204124,2,0,B|32:176|80:128,1,120
128,64,204993,5,0
192,64,205211,1,2
256,64,205428,1,0
320,64,205646,2,6,B|368:128|320:176,1,120
256,176,206298,1,0
192,176,206515,1,2
128,176,206733,2,0,B|80:240|128:288,1,120
248,288,207602,2,0,B|296:224|248:176,1,120
416,96,208689,6,6,B|352:48|304:96,2,120
416,160,209776,1,0
416,224,209993,1,0
416,288,210211,2,2,B|352:336|304:288,2,120
32,96,211950,5,0
96,96,212167,2,6,B|160:48|208:96,2,120
96,160,213254,1,0
96,224,213472,1,0
96,288,213689,2,2,B|160:336|208:288,2,120
256,192,215646,12,2,222602
