osu file format v5

[General]
AudioFilename: Coldplay - The Scientist.mp3
AudioLeadIn: 0
PreviewTime: 112318
Countdown: 0
SampleSet: Soft
StackLeniency: 0.6
Mode: 0
LetterboxInBreaks: 1

[Editor]
Bookmarks: 26075,53105,65802,79727,99590,107167,112082,124778,137474,150580,163686,176791,189897,203003,216109,219795
DistanceSpacing: 1.10000002384186
BeatDivisor: 4
GridSize: 8

[Metadata]
Title:The Scientist
Artist:Coldplay
Creator:Gens
Version:Normal
Source:
Tags:

[Difficulty]
HPDrainRate:5
CircleSize:4
OverallDifficulty:6
SliderMultiplier:1.4
SliderTickRate:2

[Events]
//Background and Video events
0,0,"Elderslie Street from Claremont Pass.JPG"
Video,3178,"scientist.avi"
//Break Periods
2,65826,78911
2,124396,136662
2,164126,175983
//Storyboard Layer 0 (Background)
//Storyboard Layer 1 (Fail)
//Storyboard Layer 2 (Pass)
//Storyboard Layer 3 (Foreground)
//Storyboard Sound Samples
//Background Colour Transformations
3,100,235,235,235

[TimingPoints]
92,819.168543927913,4,2,0,70,1,0
111498,-100,4,2,0,70,0,1
111530,-100,4,2,0,70,0,0
137475,-100,4,1,1,50,0,0
222496,-200,4,1,1,50,0,0
222905,-200,4,2,0,50,0,1

[Colours]
Combo1 : 207,139,71
Combo2 : 60,175,56
Combo3 : 57,57,176
Combo4 : 196,53,53

[HitObjects]
496,104,26305,5,2
432,104,26715,2,0,B|352:104,1,70,0|2
296,104,27534,2,0,B|216:104,1,70,0|2
160,104,28353,2,0,B|72:104,1,70,0|2
24,104,29173,1,0
24,168,29582,5,2
88,168,29992,2,0,B|168:168,1,70,0|2
224,168,30811,2,0,B|304:168,1,70,0|2
360,168,31630,1,0
424,168,32040,2,0,B|512:168,2,70,2|2|2
424,232,33268,6,0,B|344:232,1,70,0|2
288,232,34088,2,0,B|208:232,1,70,0|2
152,232,34907,2,0,B|64:232,1,70,0|2
16,232,35726,1,0
16,296,36136,5,2
80,296,36545,2,0,B|160:296,1,70,0|2
216,296,37364,2,0,B|296:296,1,70,0|2
352,296,38183,2,0,B|440:296,1,70,0|2
488,296,39003,1,0
488,360,39412,5,2
488,296,39822,2,0,B|488:208,1,70,0|2
488,160,40641,2,0,B|488:80,1,70,0|2
488,24,41460,2,0,B|392:24,2,70,0|2|0
488,88,42689,5,2
424,88,43098,2,0,B|336:88,1,70,0|2
288,88,43918,2,0,B|192:88,1,70,0|2
152,88,44737,2,0,B|64:88,1,70,0|2
16,88,45556,1,2
16,152,45966,5,2
16,152,46375,2,0,B|112:152,1,70,0|2
152,152,47194,2,0,B|232:152,1,70,0|2
288,152,48013,2,0,B|368:152,1,70,0|2
424,152,48833,1,0
424,216,49242,5,2
360,216,49652,2,0,B|280:216,1,70,0|2
224,216,50471,2,0,B|144:216,1,70,0|2
88,216,51290,1,0
88,152,51700,2,0,B|88:72,1,70,2|0
152,72,52519,6,0,B|208:16|288:16,2,140,2|2|2
152,136,54567,1,0
152,200,54976,1,2
152,264,55386,1,0
152,328,55796,6,0,B|208:376|288:368,2,140,2|2|2
152,264,57843,1,0
216,264,58253,1,2
280,264,58663,1,2
344,264,59072,6,0,B|408:200|488:200,3,140,2|2|2|2
464,136,61939,1,0
464,72,62349,2,0,B|408:16|312:16,3,140,2|2|2|2
256,112,65626,5,2
247,328,79961,6,2,B|191:264|247:168,1,140
296,216,81190,1,0
296,152,81599,2,2,B|340:84|296:0,1,140
256,64,82828,1,0
192,64,83238,2,2,B|80:64|80:168,2,140,2|2|0
256,64,85286,1,4
256,192,86514,6,2,B|160:192|160:88,1,140
160,48,87743,2,2,B|160:0|208:0,1,70,0|4
352,48,88972,1,0
384,104,89381,1,2
352,160,89791,1,0
384,216,90201,1,4
256,192,91020,1,2
256,192,91429,1,0
256,192,91838,1,4
265,328,93067,6,2,B|321:264|265:168,1,140
216,216,94297,1,0
216,152,94706,2,2,B|172:84|216:0,1,140
256,64,95935,1,0
320,64,96344,2,2,B|432:64|432:168,2,140,2|2|0
256,64,98392,1,4
256,192,99621,6,2,B|128:192|128:48,1,210
192,56,101259,1,0
256,56,101669,1,4
256,192,102488,1,2
318,216,102898,1,0
256,256,103307,1,2
318,280,103717,1,0
256,320,104127,1,2
318,344,104536,1,6
224,128,107403,6,4,B|304:128,2,70,4|2|4
256,192,108632,1,2
320,192,109042,1,2
326,125,109451,2,0,C|174:125,1,140,0|2
192,192,110680,1,0
256,192,111089,1,4
256,256,111499,6,0,L|160:256,1,70,0|0
120,256,112318,2,0,L|120:168,1,70,2|0
120,120,113137,2,0,L|208:120,1,70
256,120,113957,2,0,L|256:48,1,70,2|0
320,48,114776,6,0,L|392:48,5,70,2|0|2|0|2|0
392,112,117233,1,2
392,176,117643,1,2
392,240,118052,6,0,L|296:240,1,70,2|0
256,240,118872,2,0,L|160:240,1,70,2|0
120,240,119691,2,0,L|120:136,1,70,2|0
120,104,120510,2,0,L|192:104,1,70,2|0
192,168,121329,6,0,L|264:168,1,70
264,104,122148,2,0,L|360:104,1,70
336,168,122967,2,0,L|408:168,1,70,0|0
408,104,123787,1,2
472,104,124196,1,0
256,192,137712,5,0
320,192,138122,1,0
384,192,138532,1,2
384,128,138941,1,0
384,64,139351,2,0,L|328:64,1,35,2|0
320,64,139760,1,0
256,64,140170,1,2
256,128,140580,1,8
256,192,140989,5,0
192,192,141399,1,0
128,192,141808,1,2
128,128,142218,1,0
128,64,142627,2,0,L|184:64,1,35,2|0
192,64,143037,1,0
256,64,143447,1,2
256,128,143856,1,8
256,192,144266,6,0,L|216:192,1,35
192,192,144675,1,0
192,256,145085,1,2
192,320,145495,1,0
256,320,145904,2,0,L|304:320,1,35,2|0
320,320,146314,1,0
320,256,146723,1,2
320,192,147133,1,8
256,192,147542,6,0,L|216:192,1,35
192,192,147952,1,0
192,128,148362,1,2
192,64,148771,1,0
256,64,149181,2,0,L|304:64,1,35,2|0
320,64,149590,1,0
320,128,150000,1,2
320,192,150410,1,10
256,192,150819,5,4
192,192,151229,1,0
144,144,151638,1,2
144,80,152048,2,0,L|144:40,1,35
192,32,152457,2,0,L|248:32,1,35,2|0
256,32,152867,1,0
304,80,153277,1,2
256,128,153686,1,8
256,192,154096,5,4
320,192,154505,1,0
368,240,154915,1,2
368,304,155325,2,0,L|368:344,1,35
320,352,155734,2,0,L|264:352,1,35,2|0
256,352,156144,1,0
208,304,156553,1,2
256,256,156963,1,8
256,192,157372,5,4
208,144,157782,1,0
256,96,158192,1,2
304,144,158601,2,0,L|352:144,1,35
352,192,159011,2,0,L|352:232,1,35,2|0
304,240,159420,1,0
256,288,159830,1,2
208,240,160240,1,8
256,192,160649,5,4
304,144,161059,1,0
256,96,161468,1,2
208,144,161878,2,0,L|160:144,1,35
160,192,162287,2,0,L|160:232,1,35,2|0
208,240,162697,1,0
256,288,163107,1,2
304,240,163516,1,10
256,192,163926,5,4
256,192,177033,5,4
256,128,177442,1,0
256,64,177852,1,2
320,64,178261,2,0,L|360:104,1,35
384,64,178671,2,0,L|416:96,1,35,2|0
384,128,179080,1,0
384,192,179490,1,2
320,192,179900,1,8
256,192,180309,5,4
256,256,180719,1,0
256,320,181128,1,2
192,320,181538,2,0,L|152:280,1,35
128,320,181948,2,0,L|96:288,1,35,2|0
128,256,182357,1,0
128,192,182767,1,2
192,192,183176,1,8
256,192,183586,6,0,L|256:152,1,35
256,128,183995,1,0
256,64,184405,1,2
192,64,184815,2,0,L|160:96,1,35
144,112,185224,2,0,L|112:144,1,35,2|0
96,160,185634,1,0
128,216,186043,1,2
192,192,186453,1,8
256,192,186863,6,0,L|256:232,1,35
256,256,187272,1,0
256,320,187682,1,2
320,320,188091,2,0,L|352:288,1,35
368,272,188501,2,0,L|400:240,1,35,2|0
416,224,188910,1,0
384,168,189320,1,2
320,192,189730,1,10
256,192,190139,6,0,L|256:144,1,35,4|0
256,128,190549,2,0,L|256:80,1,35
256,64,190958,1,2
192,64,191368,1,8
128,64,191778,2,0,L|128:128,1,35
128,128,192187,2,0,L|128:168,1,35
128,192,192597,1,2
192,192,193006,1,8
256,192,193416,6,0,L|256:240,1,35,0|0
256,256,193825,2,0,L|256:304,1,35
256,320,194235,1,2
320,320,194645,1,8
384,320,195054,2,0,L|384:256,1,35
384,256,195464,2,0,L|384:216,1,35
384,192,195873,1,2
320,192,196283,1,10
256,192,196693,6,0,L|256:136,1,35,4|0
256,128,197102,1,0
256,64,197512,1,2
192,64,197921,2,0,L|136:64,4,35,0|0|2|0|0
256,64,199150,1,2
256,128,199560,1,8
256,192,199969,6,0,L|256:248,1,35,4|0
256,256,200379,1,0
256,320,200788,1,2
320,320,201198,2,0,L|376:320,4,35,0|0|2|0|0
256,320,202427,1,2
256,256,202836,1,8
256,192,203246,6,0,L|256:144,1,35,4|0
256,128,203655,2,0,L|256:80,1,35
256,64,204065,1,2
320,64,204475,1,8
384,64,204884,2,0,L|384:128,1,35
384,128,205294,2,0,L|384:168,1,35
384,192,205703,1,2
320,192,206113,1,8
256,192,206523,6,0,L|256:240,1,35,0|0
256,256,206932,2,0,L|256:304,1,35
256,320,207342,1,2
192,320,207751,1,8
128,320,208161,2,0,L|128:256,1,35
128,256,208571,2,0,L|128:216,1,35
128,192,208980,1,2
192,192,209390,1,10
256,192,209799,5,4
400,192,211028,6,0,C|376:120|320:64,1,140,0|2
264,72,212257,2,0,C|216:120|192:192,1,140,10|4
320,192,213895,1,2
384,192,214305,1,2
346,139,214714,2,4,B|256:-64|167:139,1,280,4|6
224,256,218810,6,4,C|320:256,2,70,2|0|4
256,192,220039,2,0,C|232:160,1,35,8|2
216,136,220448,1,2
256,80,220858,1,0
320,104,221268,2,0,B|416:136|320:176,1,105,2|10
328,192,222087,1,0
256,192,222496,2,0,B|256:265,1,70,4|2
