osu file format v5

[General]
AudioFilename: Coldplay - The Scientist.mp3
AudioLeadIn: 0
PreviewTime: 112318
Countdown: 0
SampleSet: Soft
StackLeniency: 0.6
Mode: 0
LetterboxInBreaks: 1

[Editor]
Bookmarks: 26075,53105,65802,79727,99590,107167,112082,124778,137474,150580,163686,176791,189897,203003,216109,219795
DistanceSpacing: 1.10000002384186
BeatDivisor: 4
GridSize: 8

[Metadata]
Title:The Scientist
Artist:Coldplay
Creator:Gens
Version:Easy
Source:
Tags:

[Difficulty]
HPDrainRate:3
CircleSize:4
OverallDifficulty:2
SliderMultiplier:1
SliderTickRate:2

[Events]
//Background and Video events
0,0,"Elderslie Street from Claremont Pass.JPG"
Video,3178,"scientist.avi"
//Break Periods
2,65825,78401
2,124805,136152
2,164126,175473
2,216553,217250
//Storyboard Layer 0 (Background)
//Storyboard Layer 1 (Fail)
//Storyboard Layer 2 (Pass)
//Storyboard Layer 3 (Foreground)
//Storyboard Sound Samples
//Background Colour Transformations
3,100,233,233,233

[TimingPoints]
92,819.168543927913,4,2,0,70,1,0
111498,-100,4,2,0,70,0,1
111530,-100,4,2,0,70,0,0
137507,-100,4,1,1,50,0,0
222905,-100,4,1,1,50,0,1

[Colours]
Combo1 : 207,139,71
Combo2 : 60,175,56
Combo3 : 57,57,176
Combo4 : 196,53,53

[HitObjects]
384,88,26305,1,0
296,88,27125,1,0
208,88,27944,1,0
120,88,28763,1,2
120,176,29582,5,0
208,176,30401,1,0
296,176,31221,1,0
384,176,32040,2,0,B|384:288,1,100,2|0
296,280,33678,5,0
208,280,34497,1,0
120,280,35316,1,2
120,192,36136,5,0
208,192,36955,1,0
296,192,37774,2,0,L|408:192,2,100,0|2|2
208,192,40231,5,0
120,192,41051,1,0
120,104,41870,1,2
208,104,42689,5,0
296,104,43508,1,0
384,104,44327,1,0
384,192,45146,2,0,L|264:192,1,100,2|0
200,192,46785,5,0
112,192,47604,1,0
112,280,48423,1,2
200,280,49242,5,0
288,280,50061,1,0
376,280,50881,1,0
376,192,51700,2,0,L|376:88,1,100,2|2
288,88,53338,5,0
288,176,54157,1,0
288,264,54976,1,2
200,264,55796,5,2
200,176,56615,1,0
200,88,57434,1,0
112,88,58253,6,2,B|56:88,2,50,2|0|2
200,88,59891,1,0
200,176,60711,1,0
200,264,61530,1,2
200,352,62349,5,2
288,352,63168,1,0
288,264,63987,1,0
288,176,64806,2,0,B|288:72,1,100,2|2
212,56,79961,6,2,B|140:56|140:128,2,100
300,56,82419,2,2,B|372:56|372:120,1,100
256,144,84057,1,4
224,344,86514,6,0,B|120:344|120:240,1,150,0|2
120,224,88153,1,4
120,136,88972,2,2,B|192:136|192:208,1,100
224,192,90201,2,4,B|224:136|296:136,1,100
239,183,93068,6,2,B|240:128|169:128,2,100,2|2|4
376,192,95525,1,2
376,192,95935,1,0
376,192,96344,2,6,B|304:192|304:120,1,100
120,48,99621,6,2,B|48:48|48:120,2,100
152,48,101669,1,4
256,192,102488,12,4,104536
280,72,107403,6,4,B|208:72,2,50,4|2|4
256,112,108632,1,2
216,137,109042,2,2,B|256:192|304:129,2,100
256,112,111089,1,4
168,72,112318,6,0,B|56:72,2,100,0|0|2
256,72,114776,6,0,B|368:72,2,100
256,152,117233,2,0,B|256:216,1,50,2|2
256,232,118052,6,0,B|144:232,2,100
256,320,120510,1,2
344,320,121329,5,0
344,232,122148,1,0
344,144,122967,2,0,L|456:144,2,100,0|2|2
368,192,137712,5,0
256,192,138532,1,2
144,192,139351,1,0
200,192,139760,1,0
256,192,140170,1,2
256,304,140989,5,0
256,192,141808,1,2
256,80,142627,1,0
256,136,143037,1,0
256,192,143447,1,2
336,112,144266,5,0
256,192,145085,1,2
176,272,145904,1,0
216,232,146314,1,0
256,192,146723,1,2
176,112,147542,5,0
256,192,148362,1,2
336,272,149181,1,0
296,232,149590,1,0
256,192,150000,1,2
368,80,150819,5,8
368,192,151638,1,2
368,304,152457,1,0
368,248,152867,1,0
368,192,153277,1,2
256,80,154096,5,8
256,192,154915,1,2
256,304,155734,1,0
256,248,156144,1,0
256,192,156553,1,2
144,80,157372,5,8
144,192,158192,1,2
144,304,159011,1,0
144,248,159420,1,0
144,192,159830,1,2
256,80,160649,5,8
256,192,161468,1,2
256,304,162287,1,0
256,248,162697,1,0
256,192,163107,2,0,B|256:120,2,50,2|8|4
256,192,177033,5,4
336,112,177852,1,2
416,32,178671,2,0,B|360:8|296:40,1,100,0|2
256,192,180309,5,4
176,272,181128,1,2
96,352,181948,2,0,B|152:376|216:344,1,100,0|2
256,192,183586,5,4
176,112,184405,1,2
96,192,185224,2,0,B|96:256,2,50,0|0|2
256,192,186863,5,4
336,272,187682,1,2
416,352,188501,1,0
376,312,188910,2,0,B|336:272,1,50,0|2
296,232,189730,1,8
256,192,190139,5,4
256,80,190958,1,2
144,80,191778,1,0
144,136,192187,1,0
144,192,192597,1,2
144,304,193416,1,0
200,304,193825,1,0
256,304,194235,1,2
368,304,195054,6,0,B|408:264,1,50
368,240,195873,2,2,B|320:192,1,50,2|10
368,176,196693,1,4
256,80,197512,5,2
256,136,197921,1,0
256,192,198331,1,0
256,304,199150,5,2
256,248,199560,1,0
256,192,199969,1,0
368,192,200788,6,0,B|416:152|472:200,2,100,2|0|2
256,192,203246,1,4
256,80,204065,5,2
200,80,204475,1,0
144,80,204884,1,0
144,136,205294,2,0,B|144:200,1,50,0|2
144,248,206113,1,0
144,304,206523,1,0
200,304,206932,1,0
256,304,207342,5,2
312,304,207751,1,0
368,304,208161,1,0
368,248,208571,2,0,B|368:176,1,50
312,192,209390,1,8
256,192,209799,1,4
420,192,211028,6,0,B|420:36|84:32|84:208,1,450,0|4
256,192,216353,1,4
232,128,218810,6,0,C|288:128,2,50,4|0|4
256,192,220038,12,4,222905
