osu file format v5

[General]
AudioFilename: Coldplay - Speed Of Sound.mp3
AudioLeadIn: 0
PreviewTime: 112857
Countdown: 0
SampleSet: Soft
StackLeniency: 0.7
Mode: 0
LetterboxInBreaks: 0

[Editor]
Bookmarks: 80511,82630
DistanceSpacing: 0.800000011920929
BeatDivisor: 4
GridSize: 8

[Metadata]
Title:Speed Of Sound
Artist:Coldplay
Creator:AdvanceBoy
Version:Easy
Source:
Tags:

[Difficulty]
HPDrainRate:4
CircleSize:4
OverallDifficulty:3
SliderMultiplier:0.8
SliderTickRate:2

[Events]
//Background and Video events
0,0,"speed_of_sound.jpg"
//Break Periods
2,101342,104823
//Storyboard Layer 0 (Background)
//Storyboard Layer 1 (Fail)
//Storyboard Layer 2 (Pass)
//Storyboard Layer 3 (Foreground)
Sprite,Foreground,Centre,"coldplay.png",320,240 M,0,19333,,320,240 F,0,19333,19455,0,1 F,0,19455,20187,1,0 F,0,20187,50545,0 F,0,50545,50667,0,1 F,0,50667,51399,1,0 F,0,51399,66151,0,0.01639342 F,0,66151,66273,0.01639342,1 F,0,66273,67005,1,0 F,0,67005,97485,0 F,0,97485,97607,0,1 F,0,97607,98216,1,0 F,0,98216,112969,0,0.004926085 F,0,112969,113091,0.004926085,1 F,0,113091,113822,1,0 F,0,113822,,0 F,0,113822,130525,0 F,0,130525,130647,0,1 F,0,130647,131379,1,0
//Storyboard Sound Samples
//Background Colour Transformations

[TimingPoints]
3888,487.684878048779,4,2,0,30,1,0
49440,-100,4,2,0,40,0,0
65092,-100,4,2,0,40,0,0
66040,-100,4,2,0,60,0,0
81260,-100,4,2,0,80,0,0
97485,-100,4,2,0,80,0,1
112870,-100,4,2,0,100,0,0
113100,-100,4,2,0,100,0,1
126502,-100,4,2,0,100,0,0
177465,-100,4,2,0,100,0,1
192827,-100,4,2,0,100,0,0
193070,-100,4,2,0,100,0,1
214773,-100,4,2,0,100,0,0
245275,487.684878048779,4,2,0,100,1,0
245497,-100,4,2,0,100,0,1
259884,-100,4,2,0,100,0,0

[HitObjects]
256,192,3644,1,8
352,192,4375,1,8
256,64,5594,1,8
256,160,6326,1,8
96,192,7545,5,8
192,192,8277,1,8
256,48,9496,1,8
256,144,10227,1,8
256,304,11447,5,8
296,216,12178,1,8
160,128,13397,1,8
216,48,14129,1,8
128,176,15348,5,8
224,176,16080,1,8
384,176,17299,1,8
256,80,19493,5,4
256,208,20469,2,0,C|176:208,1,80
176,208,21200,1,2
384,152,22907,5,0
384,248,23639,1,8
296,200,24370,2,0,C|344:200,3,40,2|0|2|2
80,64,27296,5,4
168,152,28272,1,0
240,216,29003,1,8
368,120,30222,5,0
296,184,30954,1,8
144,120,32173,5,0
240,120,32905,1,4
456,72,34612,5,0
456,136,35099,2,0,C|240:320,1,280,4|0
80,312,38025,6,0,L|144:248,2,80,2|0|2
80,184,39976,2,0,C|112:152,3,40,2|0|2|8
328,72,42415,5,0
328,136,42902,1,2
224,216,43878,1,0
288,216,44365,2,0,C|336:216,1,40,0|2
256,72,45828,6,0,C|256:192,1,120,0|2
256,352,47779,2,0,B|256:304,1,40
256,248,48511,1,4
64,192,50461,5,0
64,192,50705,1,4
128,192,51193,1,8
288,192,52412,1,8
384,192,53144,1,8
384,32,54363,5,8
288,32,55094,1,8
128,32,56314,1,8
32,32,57045,1,8
72,184,58264,5,8
72,280,58996,1,8
232,280,60215,1,8
232,184,60947,1,8
376,248,62166,5,8
440,176,62897,1,8
288,224,64117,1,8
352,152,64848,1,8
288,152,65336,1,8
256,272,66311,5,4
128,272,67287,1,0
104,176,68018,1,0
264,176,69237,5,0
336,240,69969,2,0,C|336:120,1,120
312,56,71188,2,0,C|360:56,3,40,2|0|2|8
168,64,73626,5,0
208,112,74114,1,4
288,208,75089,1,2
352,272,75821,1,8
208,312,77040,5,2
232,256,77528,1,0
256,200,78016,1,0
304,312,78991,5,2
280,256,79479,1,0
256,200,79966,1,0
256,72,80942,5,4
256,200,81917,5,4
160,200,82649,6,0,B|112:200,3,40,2|0|0|2
120,200,83624,1,2
392,240,85331,6,0,B|392:192,2,40,0|0|2
336,272,86306,1,8
280,304,86794,1,0
280,208,87525,1,2
48,216,89232,5,0
112,216,89720,1,4
240,216,90695,1,0
336,216,91427,1,2
120,176,92646,5,0
216,176,93378,1,2
288,240,94109,1,0
352,240,94597,1,8
448,240,95328,1,2
168,72,98498,5,0
240,128,99230,1,2
168,272,100449,5,0
248,216,101181,1,4
256,160,106301,5,0
256,256,107033,1,0
200,296,107521,1,2
256,328,108008,1,0
312,296,108496,1,2
256,328,108984,5,0
256,200,109959,1,4
256,192,113129,5,4
144,256,114104,1,8
256,192,115080,2,0,C|336:192,1,80
336,192,115811,1,8
208,96,117030,5,0
168,144,117518,1,2
200,200,118006,1,0
248,240,118493,1,2
248,240,118737,1,4
192,192,120932,5,2
320,192,121907,1,8
200,240,122883,2,2,C|336:136,1,160
264,144,124346,5,0
200,144,124833,2,2,C|320:264,2,160
80,192,127759,5,2
200,224,128735,1,2
328,208,129710,5,0
256,144,130442,1,0
256,144,130686,1,4
