osu file format v14

[General]
AudioFilename: Coldplay - Paradise _Live_.mp3
AudioLeadIn: 0
PreviewTime: -1
Countdown: 1
SampleSet: None
StackLeniency: 0.7
Mode: 0
LetterboxInBreaks: 1
EpilepsyWarning: 1
WidescreenStoryboard: 1

[Editor]
DistanceSpacing: 1
BeatDivisor: 4
GridSize: 4
TimelineZoom: 1

[Metadata]
Title:Paradise live
TitleUnicode:Paradise live
Artist:Coldplay
ArtistUnicode:Coldplay
Creator:willjack
Version:paradise! hard
Source:
Tags:grumd Mylo Xyloto
BeatmapID:714883
BeatmapSetID:321349

[Difficulty]
HPDrainRate:6
CircleSize:4
OverallDifficulty:6
ApproachRate:7
SliderMultiplier:1.4
SliderTickRate:1

[Events]
//Background and Video events
0,0,"Coldplay-Live-.jpg",0,0
//Break Periods
2,66020,71867
2,134309,140630
2,212941,226446
2,275467,279972
2,283203,288341
//Storyboard Layer 0 (Background)
//Storyboard Layer 1 (Fail)
//Storyboard Layer 2 (Pass)
//Storyboard Layer 3 (Foreground)
//Storyboard Sound Samples

[TimingPoints]
3925.42105263158,315.789473684211,4,1,0,14,1,0
45506,-100,4,1,0,14,0,1
77015,-100,4,1,0,14,0,0
79757,-100,4,1,0,14,0,1
134671,-100,4,1,0,14,0,0
148377,-100,4,1,0,14,0,1
181708,-100,4,1,0,14,0,0
186282,-100,4,1,0,14,0,1
213607,-100,4,1,0,14,0,0
248036,-100,4,1,0,14,0,1
275340,-100,4,1,0,14,0,0
302856,-100,4,1,0,14,0,1
312898,-100,4,1,0,14,0,0
316435,-100,4,1,0,14,0,1
330229,-100,4,1,0,14,0,0

[Colours]
Combo1 : 64,0,128
Combo2 : 0,202,0
Combo3 : 255,255,0
Combo4 : 0,0,255

[HitObjects]
64,96,45372,5,0,0:0:0:0:
64,96,45767,1,0,0:0:0:0:
64,96,46004,1,0,0:0:0:0:
376,72,46635,1,0,0:0:0:0:
376,72,47030,1,0,0:0:0:0:
376,72,47504,1,0,0:0:0:0:
376,72,47662,1,0,0:0:0:0:
136,256,48293,1,0,0:0:0:0:
136,256,48767,1,0,0:0:0:0:
136,256,49162,1,0,0:0:0:0:
136,256,49320,1,0,0:0:0:0:
336,264,50267,5,0,0:0:0:0:
336,264,50662,1,0,0:0:0:0:
336,264,51057,1,0,0:0:0:0:
336,264,51688,1,0,0:0:0:0:
256,196,52162,5,4,0:0:0:0:
248,188,52793,6,0,B|296:60|416:28|416:28,1,245
444,56,53899,6,0,P|436:300|176:312,1,525
204,200,55635,2,0,P|232:120|296:40,1,175
288,80,56978,1,0,0:0:0:0:
344,48,57451,1,0,0:0:0:0:
412,56,57925,1,0,0:0:0:0:
304,156,58478,1,4,0:0:0:0:
304,112,59109,6,0,B|220:96|220:96|248:116|272:136|188:144|120:136|176:160|240:184|276:196|356:240|356:240|344:240|80:192|76:192|240:304|240:308,1,665
288,316,61083,5,0,0:0:0:0:
388,296,61557,1,0,0:0:0:0:
416,252,62030,1,0,0:0:0:0:
416,152,62425,1,0,0:0:0:0:
348,80,62820,1,0,0:0:0:0:
228,56,63293,1,0,0:0:0:0:
140,76,63767,1,0,0:0:0:0:
96,120,64162,1,0,0:0:0:0:
88,192,64478,1,0,0:0:0:0:
132,200,64872,5,4,0:0:0:0:
204,188,65425,1,4,0:0:0:0:
264,192,65820,1,4,0:0:0:0:
256,192,72767,12,4,76241,0:0:0:0:
180,120,77030,6,0,L|420:148,1,210
364,192,77978,2,0,L|244:236,1,105
208,200,78688,5,4,0:0:0:0:
280,168,79162,1,4,0:0:0:0:
304,116,79635,1,4,0:0:0:0:
304,112,79951,2,2,B|408:128|272:188|212:176|232:116|316:72|316:72|372:60|376:56|396:152|376:180|364:256|184:320|24:312,1,770
96,216,82162,1,8,0:0:0:0:
144,160,82635,1,2,0:0:0:0:
236,96,83030,1,8,0:0:0:0:
280,160,83662,1,2,0:0:0:0:
280,160,83820,1,2,0:0:0:0:
400,168,84372,5,8,0:0:0:0:
320,264,85162,1,8,0:0:0:0:
220,204,85478,1,4,0:0:0:0:
208,328,85635,1,8,0:0:0:0:
200,296,86504,2,2,B|176:236|252:220|288:248|308:264|392:224|332:172|240:136|200:136|208:124|264:112|300:112|404:144|460:116|460:108|300:76|268:76|96:76|96:72,1,595
128,164,88635,1,4,0:0:0:0:
152,244,89109,1,8,0:0:0:0:
112,216,89899,5,0,0:0:0:0:
232,104,90530,1,0,0:0:0:0:
232,104,90767,1,0,0:0:0:0:
460,232,91241,1,0,0:0:0:0:
248,296,92030,1,0,0:0:0:0:
248,212,92504,1,0,0:0:0:0:
256,188,92899,1,0,0:0:0:0:
256,188,93293,1,0,0:0:0:0:
256,192,93372,12,0,96767,0:0:0:0:
52,76,97635,6,0,B|8:24|8:24|44:12|96:8|204:8|232:8|356:28|360:28|192:80|192:80|100:132|96:136|24:212|24:212|84:372|304:304,1,1015
256,192,100399,12,0,106714,0:0:0:0:
36,124,107425,5,0,0:0:0:0:
136,104,107899,1,0,0:0:0:0:
136,104,108925,1,0,0:0:0:0:
136,104,109162,1,0,0:0:0:0:
288,152,109557,5,4,0:0:0:0:
348,96,110425,1,0,0:0:0:0:
216,120,110899,1,0,0:0:0:0:
144,208,111372,1,0,0:0:0:0:
144,208,111530,1,0,0:0:0:0:
228,224,111767,1,4,0:0:0:0:
348,160,112635,1,4,0:0:0:0:
424,96,113109,1,4,0:0:0:0:
272,168,113583,5,0,0:0:0:0:
188,176,113978,1,0,0:0:0:0:
312,180,114767,5,0,0:0:0:0:
200,160,115162,1,0,0:0:0:0:
200,160,115320,1,0,0:0:0:0:
364,108,116109,1,0,0:0:0:0:
364,104,116504,1,4,0:0:0:0:
352,100,117451,2,0,B|256:56|192:56|112:104|112:132|112:136,1,245
108,172,118872,6,0,B|108:272|300:348|400:336|428:320|436:200|432:148|304:96|280:156,1,560
296,136,120846,2,0,P|184:48|80:136,1,280
72,192,121793,2,0,P|144:284|284:184,1,315
120,272,123057,2,0,L|384:80,1,315
448,296,124399,2,0,B|88:88|88:88|56:344|56:344|432:52,1,1120
412,76,127793,6,0,P|200:80|92:144,1,315
104,136,128741,2,0,P|340:208|384:156,1,350
384,116,129925,6,0,L|232:84,1,140
236,88,130714,2,0,L|140:144,1,105
140,144,131425,2,0,L|348:104,1,210
348,104,132530,2,0,B|200:52|108:96|92:104|44:168,1,315
52,156,133478,2,0,L|344:156,1,280
256,192,141530,12,0,148320,0:0:0:0:
376,224,149030,6,4,B|420:108|272:28|192:64|148:80|128:104|96:164|92:184|96:216|96:224|136:288|136:288|224:344|224:348|256:352|264:352|316:332|316:332|344:328|396:316|408:316|436:300|448:292|456:256,1,875
444,280,151714,2,4,B|416:248|352:256|340:268|344:272|240:276|240:272|192:244|192:244|168:200|132:156|128:144|148:84|148:80|208:48|224:48|264:52|328:64|328:64|348:92|344:120|328:152|296:168|296:168|224:208|224:208|176:228|88:288|88:292|52:248|32:164|32:164|28:96|28:96|32:56|64:28,1,1225
84,340,154951,2,4,B|80:236|80:224|92:176|92:172|92:80|92:80|124:56|164:64|196:88|196:92|188:184|184:192|184:244|176:320|176:332|176:360|200:364|256:360|260:360|288:328|288:328|272:252|272:248|272:212|272:204|272:152|268:148|260:112|256:80|256:76|272:52|304:40|332:40|344:40|368:48|416:56|404:96|392:156|384:208|384:224,1,1225
384,220,158504,6,4,B|236:236|216:232|140:144|128:80|128:64|136:60|156:52|224:44|224:44|320:40|372:44|460:52|448:148|460:196|460:232|436:312|444:328|408:344|248:344,1,1015
292,352,162135,2,4,B|200:332|200:332|124:304|112:268|112:268|104:208|104:208|96:124|96:112|116:76|116:76|188:60|248:52|332:44|336:44|440:48|456:124|444:176|424:216|424:216|372:260|304:268|284:268|232:252|208:232|200:216|176:176|176:176|192:160|200:156|220:148|264:136|288:132|304:128|324:128|376:128,1,1330
256,344,166162,2,4,B|168:284|104:136|116:84|116:84|164:48|232:48|264:80|248:104|188:176|96:256|96:256|72:288|64:304|56:324|52:344|424:196,1,1085
328,336,169320,2,4,B|188:352|104:288|104:288|104:248|116:188|120:176|176:68|404:48|432:104|416:164|336:232|288:232|176:260|176:260|136:196|148:140|192:28,1,1085
240,344,172872,6,4,B|196:328|172:308|172:308|264:268|272:284|364:280|416:248|312:116|112:104|48:148|52:168|52:168|52:236|164:216|232:176|284:144|340:80|340:80|368:32,1,980
392,60,175557,2,4,B|400:136|376:152|328:168|300:160|260:140|228:120|124:84|124:84|80:120|60:168|68:208|128:220|196:244|240:216|248:196|248:72|264:40|272:28|320:-16|376:-8|380:-4,1,840
424,44,179030,6,4,B|428:80|408:136|292:184|260:148|228:88|228:88|136:56|136:56|40:108|36:164|36:220|44:224|56:232|172:212|208:204|264:224|268:240|272:304|180:344|100:332|100:332|84:324|84:304|220:192|312:184|432:224|440:260|452:288,1,1330
444,276,182504,2,4,B|372:240|336:240|188:248|184:248|120:192|116:176|120:136|136:124|180:112|200:96|248:72|324:68|392:80|376:148|372:152|272:260|144:336|112:352|60:352|60:352|36:248|36:248|48:148|56:72,1,1190
432,352,186135,2,2,B|76:124|76:124|120:40|204:20|216:20|296:8|300:8|360:32|392:60|392:60|392:116|388:136|368:168|348:192|344:196|312:224,1,945
344,208,188741,1,2,0:0:0:0:
124,348,189609,2,2,B|256:36|256:36|472:168|436:208|384:216|320:240|316:240|288:248|288:248|248:244|216:232,1,770
144,228,192214,5,2,0:0:0:0:
224,316,193083,2,2,B|48:48|48:48|280:60|312:56|340:96|352:140|340:148|340:152|304:164|252:188|188:200|112:204,1,875
112,240,195609,5,2,0:0:0:0:
256,192,196320,12,4,199083,0:0:0:0:
448,72,199951,6,2,B|36:208|40:208|68:324|84:332|256:352|256:352|312:328|324:308|328:280|272:220|212:148,1,910
180,104,202478,1,2,0:0:0:0:
464,348,203346,2,0,B|104:36|104:36|32:156|20:196|44:256|52:256|116:260|136:256|204:248|204:248|256:216|268:184,1,910
324,136,205951,1,0,0:0:0:0:
276,352,206741,2,0,B|144:224|64:92|64:92|64:80|76:56|80:52|112:32|120:24|212:32|220:40|272:76|272:76|324:24|328:24|372:8|384:8|464:68|464:68|416:168|400:188|384:208|344:264|328:300|328:304,1,1050
292,264,210057,5,4,0:0:0:0:
100,208,210530,1,4,0:0:0:0:
100,208,210925,1,4,0:0:0:0:
352,164,211478,1,4,0:0:0:0:
352,164,211714,1,4,0:0:0:0:
156,244,212346,1,4,0:0:0:0:
304,268,212741,1,4,0:0:0:0:
144,176,227346,5,4,0:0:0:0:
144,176,227820,1,4,0:0:0:0:
344,160,228530,1,4,0:0:0:0:
344,160,228688,1,4,0:0:0:0:
440,116,229004,5,0,0:0:0:0:
252,168,229635,1,0,0:0:0:0:
364,160,230267,1,4,0:0:0:0:
200,148,230662,1,4,0:0:0:0:
200,148,231135,1,4,0:0:0:0:
200,148,231609,1,4,0:0:0:0:
200,148,232083,1,4,0:0:0:0:
200,148,232478,1,4,0:0:0:0:
200,148,232872,1,4,0:0:0:0:
200,148,233267,1,4,0:0:0:0:
256,192,233899,12,4,239425,0:0:0:0:
256,192,240057,6,0,B|204:176|196:152|208:132|220:120|256:108|264:104|300:104|340:124|376:160|372:176|368:212|356:232|328:256|320:256|236:296|224:296|128:260|128:260|96:212|100:192|104:184|112:108|140:76|184:16|196:12|268:0|300:8|352:24|408:44|408:48|436:80|460:112|464:124|472:168|472:184|464:216|448:260|424:300|420:308|400:328|392:336|364:344|360:344|328:348|296:356|292:356|240:360|216:360|148:356,1,1505
144,264,244478,1,0,0:0:0:0:
248,104,245267,1,0,0:0:0:0:
248,104,245741,1,0,0:0:0:0:
404,184,246057,1,0,0:0:0:0:
232,352,247951,6,2,B|184:-8|184:-8|384:44|396:96|396:96|380:144|364:168|352:180|304:196|288:196|256:196,1,770
168,168,250083,1,2,0:0:0:0:
120,172,250557,1,2,0:0:0:0:
456,352,251346,6,2,B|40:96|40:96|60:68|80:28|88:24|152:12|152:12|212:12|244:16|284:24|320:84|320:100|304:128|288:152|280:156|272:164|252:180,1,910
196,256,253951,1,2,0:0:0:0:
72,352,254820,6,2,B|404:16|404:16|412:16|460:24|516:104|512:144|512:148|464:188|464:192|408:240|404:240|268:224|264:224|252:184|252:176,1,910
200,128,257425,5,2,0:0:0:0:
256,192,258293,12,2,261688,0:0:0:0:
260,352,262320,6,2,B|224:16|224:16|408:16|412:88|408:104|388:160|360:204|352:204|304:208|288:208|264:208,1,735
448,344,265004,6,2,B|48:120|48:120|48:112|60:72|76:56|88:48|120:36|140:16|168:16|224:20|224:20|308:48|316:116|300:148|288:156|272:176|268:184|260:204|248:216|248:216|240:316,1,1015
72,348,268478,6,2,B|48:20|48:20|104:4|160:0|216:40|224:56|228:80|232:108|232:120|220:144|220:144|192:180|184:184|156:196|144:196|108:200|104:200,1,700
132,236,270688,5,2,0:0:0:0:
184,232,271083,1,2,0:0:0:0:
256,192,271872,12,0,275267,0:0:0:0:
140,348,280872,6,0,B|72:292|72:288|92:236|108:232|176:252|240:328|240:328|292:320|304:308|320:264|316:264|240:228|200:216|156:192|156:192|160:160|164:160|172:140|188:120|192:116|256:92|276:100|336:136|360:152|384:188|384:188|452:156|452:152|416:88,1,945
372,284,289241,6,2,B|64:120|64:92|76:64|108:32|128:20|160:4|160:4|220:-8|252:0|264:32|296:56|296:60|312:104|300:136|264:156|244:160|228:176,1,735
240,224,291214,1,2,0:0:0:0:
240,224,291688,1,2,0:0:0:0:
248,360,292635,6,2,B|220:4|244:0|332:0|348:4|412:72|412:72|400:120|400:120|368:164|348:200|312:204|288:200|256:196|236:192,1,735
192,184,294767,1,2,0:0:0:0:
192,184,295083,1,2,0:0:0:0:
56,360,296030,6,2,B|336:16|336:16|472:84|444:144|436:200|432:200|368:248|364:248|320:280|288:260|256:236|236:220|236:220|208:196|188:184,1,910
148,144,298557,1,2,0:0:0:0:
256,192,299425,2,0,B|180:128|184:120|220:96|264:92|288:84|308:84|376:128|392:172|360:248|260:320|260:320|212:272|212:272|132:240|132:240|88:176|88:164|96:112|96:112|136:64|168:32|176:24|224:12|228:12|296:12|300:12|316:12|344:16|356:16|396:24|408:32|448:56|452:76|468:124|472:136|468:164|464:204|464:208|448:268,1,1330
256,192,302820,12,0,311978,0:0:0:0:
344,80,313004,6,4,B|248:96|112:64|112:64|128:160|128:160|128:252|128:316|136:328|144:328|320:308|384:312|384:312|344:168|340:160|276:164|232:168|224:168|204:208|208:224|220:232|236:232,1,1015
256,192,316320,12,0,326346,0:0:0:0:
404,72,326978,6,4,B|92:72|112:304|192:304|208:304|340:280|372:264|428:208|428:208|408:152|176:112|44:88,1,1015
