osu file format v12

[General]
AudioFilename: Coldplay - Magic (Official audio).mp3
AudioLeadIn: 0
PreviewTime: -1
Countdown: 0
SampleSet: Soft
StackLeniency: 0.7
Mode: 0
LetterboxInBreaks: 1
WidescreenStoryboard: 0

[Editor]
DistanceSpacing: 0.9
BeatDivisor: 2
GridSize: 4
TimelineZoom: 1.6

[Metadata]
Title:Magic
TitleUnicode:Magic
Artist:Coldplay
ArtistUnicode:Coldplay
Creator:Pelaaja_X
Version:Hard
Source:
Tags:ghost stories 2014 coldplay alternative rock
BeatmapID:430890
BeatmapSetID:179239

[Difficulty]
HPDrainRate:6
CircleSize:5
OverallDifficulty:6
ApproachRate:6
SliderMultiplier:1.89999990463257
SliderTickRate:2

[Events]
//Background and Video events
0,0,"coldplaymagic.jpg",0,0
//Break Periods
2,82629,84910
//Storyboard Layer 0 (Background)
//Storyboard Layer 1 (Fail)
//Storyboard Layer 2 (Pass)
//Storyboard Layer 3 (Foreground)
//Storyboard Sound Samples
//Background Colour Transformations
3,100,163,162,255

[TimingPoints]
262.074649782551,641.933994867408,4,2,0,0,1,0

[Colours]
Combo1 : 0,255,255
Combo2 : 0,0,255
Combo3 : 0,128,192
Combo4 : 0,0,128

[HitObjects]
76,288,10533,6,0,P|40:216|104:156,1,142.499992847443
96,144,11174,1,0,0:0:0:0:
292,64,11816,2,0,P|368:92|380:176,1,142.499992847443
392,184,12458,1,0,0:0:0:0:
264,304,13100,5,0,0:0:0:0:
128,316,13582,2,0,P|104:320|76:312,1,47.4999976158143
84,144,14384,2,0,P|104:72|168:32,1,142.499992847443
196,48,15026,2,0,L|276:128,1,94.9999952316285
292,148,15508,1,8,0:0:0:0:
284,192,15668,1,0,0:0:0:0:
156,232,16149,5,0,0:0:0:0:
112,216,16310,2,0,P|72:116|112:32,1,189.999990463257
228,48,17433,1,0,0:0:0:0:
272,52,17594,2,0,B|432:48|464:64|456:108,1,189.999990463257
468,208,18717,2,0,L|464:264,1,47.4999976158143
296,232,19520,6,0,P|272:320|208:312,1,142.499992847443
184,312,20162,2,0,B|136:364|44:364|32:320|24:288,1,189.999990463257
48,172,21285,1,0,0:0:0:0:
56,132,21445,1,0,0:0:0:0:
204,48,22087,6,0,B|276:124|280:200|240:192,1,142.499992847443
252,212,22729,1,0,0:0:0:0:
364,340,23371,2,0,P|408:296|432:212,1,142.499992847443
396,208,24013,1,0,0:0:0:0:
244,128,24655,6,8,B|260:208|204:272|164:276,1,142.499992847443
160,260,25297,2,0,P|104:232|80:192,1,94.9999952316285
68,168,25778,1,0,0:0:0:0:
64,124,25939,1,0,0:0:0:0:
180,64,26420,5,0,0:0:0:0:
224,64,26581,2,0,P|340:88|428:44,1,189.999990463257
444,184,27704,1,0,0:0:0:0:
404,172,27865,2,0,P|292:148|208:208,1,189.999990463257
232,312,28988,2,0,P|280:328|292:312,1,47.4999976158143
440,324,29791,6,0,P|484:216|464:156,1,142.499992847443
452,164,30432,2,0,L|360:120,1,94.9999952316285
328,104,30914,1,0,0:0:0:0:
288,88,31074,1,0,0:0:0:0:
192,212,31556,1,0,0:0:0:0:
156,192,31716,1,0,0:0:0:0:
36,68,32358,6,0,B|104:36|192:56|192:64,1,142.499992847443
216,72,33000,1,0,0:0:0:0:
380,116,33642,1,0,0:0:0:0:
392,244,34124,1,0,0:0:0:0:
392,288,34284,2,0,P|296:352|192:336,1,189.999990463257
104,308,35407,1,0,0:0:0:0:
72,276,35568,2,0,L|64:180,2,94.9999952316285
200,300,36691,5,0,0:0:0:0:
240,292,36852,1,0,0:0:0:0:
392,212,37494,1,0,0:0:0:0:
324,104,37975,1,0,0:0:0:0:
300,68,38136,1,0,0:0:0:0:
132,48,38778,1,0,0:0:0:0:
96,172,39259,1,0,0:0:0:0:
84,212,39420,2,0,P|36:296|124:312,1,189.999990463257
224,292,40543,5,0,0:0:0:0:
260,268,40703,2,0,P|348:200|392:272,1,189.999990463257
460,132,41827,2,0,L|460:76,1,47.4999976158143
292,44,42629,2,0,L|136:44,1,142.499992847443
108,44,43271,2,0,P|52:104|132:160,1,189.999990463257
216,244,44395,5,0,0:0:0:0:
252,264,44555,2,0,P|376:332|456:320,1,189.999990463257
372,92,45678,1,0,0:0:0:0:
144,268,46160,1,0,0:0:0:0:
100,196,46481,6,0,P|72:104|112:56,1,142.499992847443,0|0,0:0|0:0,0:0:0:0:
132,52,47123,1,0,0:0:0:0:
304,52,47765,2,0,B|444:48|472:80|448:96,1,142.499992847443
456,112,48407,1,0,0:0:0:0:
436,280,49049,5,0,0:0:0:0:
308,304,49530,1,0,0:0:0:0:
268,316,49690,2,0,P|152:352|72:328,1,189.999990463257
68,208,50814,1,0,0:0:0:0:
68,164,50974,1,0,0:0:0:0:
72,56,51616,2,0,L|224:48,1,142.499992847443
256,48,52258,1,0,0:0:0:0:
428,44,52900,2,0,B|276:80|280:80,1,142.499992847443
248,88,53542,1,0,0:0:0:0:
76,100,54184,6,0,P|48:196|88:252,1,142.499992847443
88,264,54826,2,0,L|192:272,2,94.9999952316285
144,52,55949,1,0,0:0:0:0:
384,212,56431,1,0,0:0:0:0:
384,296,56752,6,0,L|240:336,1,142.499992847443
204,336,57394,1,0,0:0:0:0:
36,308,58036,2,0,B|192:328|180:328,1,142.499992847443
220,332,58678,1,0,0:0:0:0:
256,192,59320,12,0,61245,0:0:0:0:
264,192,61887,6,0,L|152:112,1,94.9999952316285
152,112,62369,1,0,0:0:0:0:
136,152,62529,2,0,L|100:244,1,94.9999952316285
84,280,63011,1,0,0:0:0:0:
124,292,63171,2,0,L|224:312,1,94.9999952316285
260,296,63653,1,0,0:0:0:0:
244,256,63813,2,0,L|176:76,1,189.999990463257
304,92,64936,6,0,L|364:92|368:92,1,47.4999976158143
412,248,65418,1,0,0:0:0:0:
376,268,65578,1,0,0:0:0:0:
340,288,65739,1,0,0:0:0:0:
136,276,66060,1,0,0:0:0:0:
164,92,66381,1,0,0:0:0:0:
252,32,66702,5,0,0:0:0:0:
292,48,66862,1,0,0:0:0:0:
332,64,67023,2,0,L|428:96,1,94.9999952316285
460,108,67504,1,0,0:0:0:0:
444,148,67665,2,0,L|408:252,1,94.9999952316285
396,276,68146,1,0,0:0:0:0:
352,284,68307,2,0,L|252:296,1,94.9999952316285
216,304,68788,1,0,0:0:0:0:
192,268,68949,2,0,L|136:184,2,94.9999952316285
92,188,70072,5,0,0:0:0:0:
68,156,70232,2,0,P|92:104|96:96,1,47.4999976158143
120,88,70553,2,0,L|172:72,1,47.4999976158143
208,76,70874,2,0,P|260:32|292:56,2,94.9999952316285
180,252,71837,5,0,0:0:0:0:
220,272,71998,1,0,0:0:0:0:
260,288,72158,2,0,P|356:232|364:228,1,94.9999952316285
380,216,72640,1,0,0:0:0:0:
416,192,72800,2,0,L|444:288,1,94.9999952316285
456,324,73282,1,0,0:0:0:0:
412,324,73442,2,0,L|304:320,1,94.9999952316285
272,316,73924,1,0,0:0:0:0:
228,312,74084,2,0,L|196:208,1,94.9999952316285
228,140,74726,1,0,0:0:0:0:
336,72,75207,6,0,L|404:80,1,47.4999976158143
432,164,75689,2,0,L|424:248,1,47.4999976158143
424,252,76010,2,0,P|340:348|332:352,2,94.9999952316285
368,188,76973,6,0,L|332:132,1,47.4999976158143
316,112,77294,1,0,0:0:0:0:
200,44,77615,1,0,0:0:0:0:
172,76,77775,1,0,0:0:0:0:
136,96,77936,1,0,0:0:0:0:
48,200,78257,1,0,0:0:0:0:
76,232,78417,1,0,0:0:0:0:
112,256,78578,1,0,0:0:0:0:
272,312,78898,1,0,0:0:0:0:
280,272,79059,1,0,0:0:0:0:
300,236,79219,1,0,0:0:0:0:
376,84,79861,6,0,L|220:76,1,142.499992847443
192,76,80503,2,0,B|136:96|144:92,1,47.4999976158143
112,116,80824,2,0,L|88:164,1,47.4999976158143
76,192,81145,1,0,0:0:0:0:
256,344,81466,1,0,0:0:0:0:
440,224,81787,1,0,0:0:0:0:
324,168,82108,5,0,0:0:0:0:
324,168,82429,1,0,0:0:0:0:
160,88,85960,6,0,L|140:160,1,47.4999976158143
136,176,86281,1,0,0:0:0:0:
288,340,86602,1,0,0:0:0:0:
440,200,86923,2,0,P|460:120|440:88,2,94.9999952316285
316,164,88046,5,0,0:0:0:0:
284,140,88207,2,0,P|200:76|116:88,1,189.999990463257
76,208,89330,1,0,0:0:0:0:
96,244,89490,2,0,P|196:336|256:328,1,189.999990463257
336,248,90614,2,0,L|384:216,1,47.4999976158143
216,156,91416,6,0,L|104:64,2,142.499992847443
220,196,92540,1,0,0:0:0:0:
220,240,92700,1,0,0:0:0:0:
128,328,93182,1,0,0:0:0:0:
88,340,93342,2,0,P|40:244|44:160,1,189.999990463257
92,44,94465,1,0,0:0:0:0:
132,52,94626,1,0,0:0:0:0:
300,80,95268,6,0,P|392:56|452:88,1,142.499992847443
460,108,95910,1,0,0:0:0:0:
448,216,96231,2,0,L|404:240,1,47.4999976158143
368,260,96552,2,0,P|452:336|464:332,2,142.499992847443
284,208,97836,6,0,L|152:128,1,142.499992847443
128,136,98477,2,0,P|104:328|108:336,1,189.999990463257
228,316,99601,1,0,0:0:0:0:
272,320,99761,2,0,P|456:272|460:268,1,189.999990463257
440,148,100885,1,0,0:0:0:0:
428,108,101045,2,0,P|232:112|220:124,1,189.999990463257
152,180,102169,1,0,0:0:0:0:
248,256,102650,1,0,0:0:0:0:
316,304,102971,6,0,P|456:332|464:328,1,142.499992847443
468,300,103613,2,0,P|432:112|424:104,1,189.999990463257
312,100,104736,1,0,0:0:0:0:
268,100,104897,1,0,0:0:0:0:
96,88,105539,2,0,P|96:240|104:252,1,142.499992847443
116,256,106181,6,0,L|168:292,3,47.4999976158143
188,304,106823,1,0,0:0:0:0:
396,304,107304,1,0,0:0:0:0:
280,188,107786,1,0,0:0:0:0:
280,188,108106,6,0,P|96:192|100:200,1,379.999980926514
120,316,109872,1,0,0:0:0:0:
160,328,110032,2,0,P|356:324|368:320,1,189.999990463257
440,236,111156,1,0,0:0:0:0:
448,196,111316,2,0,P|324:112|284:112,1,189.999990463257
124,188,112440,1,0,0:0:0:0:
256,336,112921,1,0,0:0:0:0:
340,328,113242,6,0,L|416:208,1,142.499992847443
436,168,113884,1,0,0:0:0:0:
320,40,114526,2,0,L|172:40,1,142.499992847443
136,40,115168,2,0,P|100:164|108:168,1,142.499992847443
100,176,115810,1,0,0:0:0:0:
184,272,116291,2,0,L|236:316,1,47.4999976158143
300,336,116773,2,0,L|376:336,1,47.4999976158143
392,336,117094,5,0,0:0:0:0:
420,152,117575,1,0,0:0:0:0:
272,28,118056,1,0,0:0:0:0:
272,28,118377,6,0,P|164:120|160:136,1,142.499992847443
156,148,119019,1,0,0:0:0:0:
172,320,119661,2,0,P|132:180|136:168,1,142.499992847443
144,152,120303,1,0,0:0:0:0:
296,76,120945,2,0,P|448:108|456:112,1,142.499992847443
448,144,121587,2,0,P|424:320|416:328,1,189.999990463257
296,324,122710,1,0,0:0:0:0:
304,196,123192,1,0,0:0:0:0:
304,196,123513,6,0,P|188:108|156:104,1,142.499992847443
152,116,124155,1,0,0:0:0:0:
72,260,124797,2,0,P|116:120|124:112,1,142.499992847443
152,116,125439,1,0,0:0:0:0:
320,84,126081,1,0,0:0:0:0:
412,172,126562,1,0,0:0:0:0:
412,216,126723,2,0,P|384:308|376:312,1,94.9999952316285
356,324,127204,1,0,0:0:0:0:
316,340,127365,5,0,0:0:0:0:
100,216,127846,1,0,0:0:0:0:
244,100,128327,1,0,0:0:0:0:
244,100,128648,1,0,0:0:0:0:
