osu file format v5

[General]
AudioFilename: Cold_Play__Life_In_Technicolor_ii.mp3
AudioLeadIn: 0
PreviewTime: -1
Countdown: 0
SampleSet: Normal
StackLeniency: 0.7
Mode: 0
LetterboxInBreaks: 1
EditorBookmarks: 74128,104393,133678,147418

[Metadata]
Title:Life In Technicolor ii
Artist:Coldplay
Creator:Gladi
Version:Hard
Source:
Tags:

[Difficulty]
HPDrainRate:5
CircleSize:5
OverallDifficulty:5
SliderMultiplier:1.8
SliderTickRate:2

[Events]
//Background and Video events
1,128,"Cold_Play__Video.avi"
//Break Periods
2,133878,146676
//Storyboard Layer 0 (Background)
//Storyboard Layer 1 (Failing)
//Storyboard Layer 2 (Passing)
//Storyboard Layer 3 (Foreground)
//Storyboard Sound Samples
//Background Colour Transformations
3,100,163,162,255

[TimingPoints]
31070,458.015267175572,4,2,0,50,1
104393,-100,4,1,0,30,0

[Colours]
Combo1 : 255,150,0
Combo2 : 5,240,5
Combo3 : 5,5,240
Combo4 : 240,5,5

[HitObjects]
120,144,74352,5,0
152,208,74581,1,2
208,248,74810,2,0,B|296:296|392:256,1,180
336,200,75497,1,2
264,200,75726,2,0,B|200:112|288:24,1,180
320,96,76413,1,2
376,144,76642,1,0
400,208,76871,2,0,B|416:328|264:296,1,180,0|2
232,256,77558,1,0
280,120,78016,5,0
216,88,78245,1,2
144,104,78474,2,0,B|56:168|96:272,1,180
160,272,79161,1,2
208,216,79390,2,0,B|288:152|408:224,1,180
352,272,80077,1,2
424,264,80306,2,0,B|488:176|392:96,1,180
336,128,80993,1,2
264,120,81222,1,0
144,200,81680,6,0,B|96:240|112:296,1,90,0|2
144,336,82138,2,0,B|232:384|328:344,1,180
280,288,82825,1,2
336,248,83054,2,0,B|416:184|328:72,1,180
296,144,83741,1,2
232,112,83970,2,0,B|112:88|80:200,1,180
144,224,84657,1,2
216,240,84886,2,0,B|264:216|320:256,2,90
168,296,85573,1,2
240,312,85802,6,0,B|344:344|464:272|408:136,1,270,0|2
352,200,86718,1,0
288,168,86947,1,0
320,104,87176,2,0,B|352:64|312:8,2,90,0|2|0
248,104,87863,1,0
216,168,88092,1,0
248,232,88321,2,0,B|200:248|152:208,1,90,2|0
120,80,89008,5,0
72,136,89237,1,2
64,208,89466,2,0,B|48:320|184:328,1,180
232,296,90153,1,2
224,224,90382,2,0,B|176:144|272:64,1,180
304,128,91070,1,2
368,168,91299,2,0,B|424:256|360:352,1,180
304,304,91986,1,2
248,256,92215,2,0,B|224:216|248:160,1,90
304,128,92673,5,0
240,96,92902,1,2
176,128,93131,2,0,B|136:224|200:320,1,180
120,328,93818,1,2
72,272,94047,2,0,B|104:184|16:88,1,180
96,80,94734,1,2
160,112,94963,2,0,B|256:152|344:104,1,180
400,136,95650,1,2
352,192,95879,2,0,B|328:232|352:288,2,90
280,200,96566,1,2
224,248,96795,6,0,B|56:200|128:0,1,270,0|2
176,72,97711,2,0,B|224:48|264:80,1,90
280,144,98169,1,0
336,96,98398,2,0,B|368:136|344:192,1,90,2|0
288,216,98856,2,0,B|232:320|376:368,1,180,0|2
360,288,99543,2,0,B|464:240|424:96,1,180
408,72,100230,1,2
336,48,100459,2,0,B|168:64|136:216,1,270,0|2
208,240,101375,5,0
272,208,101604,2,0,B|320:184|368:216,2,90,0|0|2
272,280,102291,2,0,B|376:328|432:232,1,180
416,168,102978,1,2
352,136,103207,1,0
280,136,103436,1,0
216,168,103665,6,0,B|176:192|128:168,2,90,0|2|0
176,104,104352,2,0,B|232:24|352:40,1,180,4|0
400,56,105039,1,0
384,176,105497,6,0,B|336:272|224:288,2,180,0|0|0
312,168,106642,1,0
280,104,106871,2,0,B|232:128|240:184,1,90
176,216,107329,2,0,B|240:320|104:352,2,180
104,208,108474,5,0
152,152,108703,2,0,B|184:112|152:64,2,90
224,168,109390,1,0
288,136,109619,2,0,B|384:184|472:136,1,180,0|0
464,216,110306,1,0
440,288,110535,2,0,B|400:264|352:288,1,90
304,232,110993,5,0
240,192,111222,1,0
168,216,111451,2,0,B|136:256|168:304,2,90
184,144,112138,1,0
320,88,112596,1,0
392,104,112825,5,0
352,168,113054,2,0,B|296:264|376:344,2,180,0|0|0
256,192,114199,12,0,116947
184,152,117405,5,0
152,216,117634,2,0,B|120:264|176:312,2,90,0|0|0
216,240,118321,5,0
288,256,118550,1,0
352,224,118779,2,0,B|424:152|336:40,1,180
296,104,119466,1,0
248,56,119695,2,0,B|152:96|160:224,1,180,0|0
216,240,120382,1,0
