osu file format v13

[General]
AudioFilename: Coldplay - Fix You (Feint Bootleg).mp3
AudioLeadIn: 0
PreviewTime: 60722
Countdown: 0
SampleSet: Soft
StackLeniency: 0.7
Mode: 0
LetterboxInBreaks: 0
WidescreenStoryboard: 1

[Editor]
Bookmarks: 27619,38653,49688,59343,60722,68653,71757,82791,99343,104860,126559
DistanceSpacing: 1.2
BeatDivisor: 4
GridSize: 4
TimelineZoom: 1.8

[Metadata]
Title:Fix You (Feint Bootleg)
TitleUnicode:Fix You (Feint Bootleg)
Artist:Coldplay
ArtistUnicode:Coldplay
Creator:Aka
Version:Hard
Source:
Tags:dnb drum and bass techno remix
BeatmapID:351394
BeatmapSetID:105596

[Difficulty]
HPDrainRate:6
CircleSize:4
OverallDifficulty:7
ApproachRate:7.2
SliderMultiplier:1.5
SliderTickRate:1

[Events]
//Background and Video events
0,0,"fbdsjhbfds.jpg",0,0
//Break Periods
//Storyboard Layer 0 (Background)
//Storyboard Layer 1 (Fail)
//Storyboard Layer 2 (Pass)
//Storyboard Layer 3 (Foreground)
//Storyboard Sound Samples
//Background Colour Transformations
3,100,214,216,224

[TimingPoints]
16585,344.827586206897,4,2,1,90,1,0
27619,-100,4,1,0,75,0,0
28309,-100,4,1,1,75,0,0
35895,-100,4,1,1,80,0,0
38309,-100,4,2,1,85,0,0
38653,-100,4,1,1,90,0,1
38740,-100,4,2,1,90,0,0
60033,-100,4,2,1,100,0,0
60722,-100,4,1,1,90,0,1
60809,-100,4,2,1,90,0,0
82791,-100,4,1,1,90,0,1
82878,-100,4,2,1,90,0,0
104171,-100,4,2,1,100,0,0
104860,689.655172413793,4,2,3,40,1,0
104860,-83.3333333333333,4,1,0,40,0,0
106239,-83.3333333333333,4,2,3,40,0,0
107624,689.655172413793,4,2,3,40,1,0
107624,-83.3333333333333,4,2,3,40,0,0
109003,689.655172413793,4,2,3,40,1,0
109003,-83.3333333333333,4,2,3,40,0,0
110364,689.655172413793,4,2,3,40,1,0
110364,-83.3333333333333,4,2,3,40,0,0
111727,689.655172413793,4,2,3,40,1,0
111727,-83.3333333333333,4,2,3,40,0,0
113124,689.655172413793,4,2,3,40,1,0
113124,-83.3333333333333,4,2,3,40,0,0
117249,689.655172413793,4,2,3,40,1,0
117249,-83.3333333333333,4,2,3,40,0,0
118628,689.655172413793,4,2,3,40,1,0
118628,-83.3333333333333,4,2,3,40,0,0
122421,-100,4,2,1,35,0,0
123110,-100,4,2,1,30,0,0
123800,-100,4,2,1,25,0,0
124490,-100,4,2,1,20,0,0
125179,-100,4,2,1,15,0,0
125869,-100,4,2,1,10,0,0
126559,-100,4,2,2,5,0,0

[Colours]
Combo1 : 214,75,79
Combo2 : 184,209,107
Combo3 : 235,182,82
Combo4 : 115,191,168

[HitObjects]
308,298,27619,5,4,0:0:0:0:
203,85,28309,1,0,0:0:0:0:
217,304,28998,1,4,3:0:0:0:
294,79,29688,1,0,0:0:0:0:
149,244,30378,1,4,3:0:0:0:
362,139,31067,1,0,0:0:0:0:
143,153,31757,1,4,3:0:0:0:
368,230,32447,1,0,0:0:0:0:
204,84,33136,5,4,3:0:0:0:
192,76,33481,1,0,0:0:0:0:
356,133,33826,1,0,0:0:0:0:
370,137,34171,1,0,0:0:0:0:
304,290,34516,1,4,3:0:0:0:
300,304,34860,1,0,0:0:0:0:
148,240,35205,1,0,0:0:0:0:
133,237,35550,1,0,0:0:0:0:
304,104,35895,6,0,P|300:60|288:32,1,75,4|0,3:0|0:0,0:0:0:0:
216,87,36240,2,0,P|184:56|156:43,1,75
136,131,36585,2,0,P|94:115|64:113,1,75
80,201,36929,2,0,P|38:216|14:235,1,75
84,291,37274,2,0,P|73:318|69:340,11,37.5,0|0|0|0|0|0|0|0|0|0|0|0,3:0|0:0|0:0|0:0|0:0|0:0|0:0|0:0|3:0|0:0|0:0|0:0,0:0:0:0:
62,370,38309,1,8,0:0:0:0:
228,316,38653,6,0,P|280:284|376:284,1,150,4|8,3:0|0:0,0:0:0:0:
452,308,39171,1,0,0:0:0:0:
412,208,39343,2,0,P|404:160|408:124,1,75,0|0,0:0|1:0,0:0:0:0:
415,44,39688,1,8,0:0:0:0:
415,44,40033,6,0,P|339:62|239:52,1,150,4|8,3:0|0:0,0:0:0:0:
178,73,40550,1,0,0:0:0:0:
100,119,40722,2,0,P|74:146|66:187,1,75,0|0,0:0|1:0,0:0:0:0:
187,248,41067,2,0,P|178:211|153:184,1,75,8|0,0:0|0:0,0:0:0:0:
99,257,41412,5,4,3:0:0:0:
150,330,41585,1,0,0:0:0:0:
239,330,41757,2,0,P|282:267|255:180,1,150,8|0,0:0|0:0,0:0:0:0:
213,126,42274,1,0,1:0:0:0:
269,198,42447,2,0,L|425:182,1,150,8|0,0:0|0:0,0:0:0:0:
507,170,42964,1,0,1:0:0:0:
450,99,43136,2,0,P|434:64|431:21,2,75,8|0|0,0:0|0:0|0:0,0:0:0:0:
360,108,43653,2,0,P|327:86|302:51,2,75,0|8|0,1:0|0:0|0:0,0:0:0:0:
345,197,44171,5,4,3:0:0:0:
277,256,44343,1,0,0:0:0:0:
187,242,44516,2,0,P|147:186|171:106,1,150,8|0,0:0|0:0,0:0:0:0:
237,57,45033,1,0,1:0:0:0:
319,21,45205,2,0,P|359:77|335:157,1,150,8|4,0:0|3:0,0:0:0:0:
278,216,45722,1,0,0:0:0:0:
366,236,45895,2,0,L|463:240,2,75,8|0|0,0:0|0:0|0:0,0:0:0:0:
260,201,46412,2,0,L|163:195,2,75,0|8|0,1:0|0:0|0:0,0:0:0:0:
157,269,46929,6,0,P|127:248|110:209,1,75,4|0,3:0|0:0,0:0:0:0:
50,147,47274,2,0,P|23:209|32:301,1,150,8|0,0:0|0:0,0:0:0:0:
87,358,47791,1,0,1:0:0:0:
176,346,47964,2,0,P|248:336|345:370,1,150,8|0,0:0|0:0,0:0:0:0:
410,340,48481,1,0,0:0:0:0:
348,274,48653,2,0,P|313:259|259:256,1,75,8|0,0:0|0:0,0:0:0:0:
188,234,48998,2,0,P|159:209|143:175,1,75,0|0,0:0|1:0,0:0:0:0:
210,88,49343,2,0,P|235:119|244:155,1,75,8|0,0:0|0:0,0:0:0:0:
210,88,49688,6,0,P|260:75|367:103,1,150,4|8,3:0|0:0,0:0:0:0:
420,157,50205,1,0,0:0:0:0:
370,235,50378,2,0,L|280:243,1,75,0|0,0:0|1:0,0:0:0:0:
285,333,50722,2,0,L|373:327,1,75,8|0,0:0|0:0,0:0:0:0:
285,333,51067,6,0,P|221:306|205:215,1,150,4|8,3:0|0:0,0:0:0:0:
208,143,51585,1,0,0:0:0:0:
119,156,51757,2,0,L|35:159,1,75,0|0,0:0|1:0,0:0:0:0:
88,80,52102,2,0,L|172:77,1,75,8|0,0:0|0:0,0:0:0:0:
202,158,52447,6,0,P|178:221|192:305,1,150,4|8,3:0|0:0,0:0:0:0:
256,362,52964,1,0,0:0:0:0:
330,311,53136,2,0,P|335:274|329:237,1,75,0|0,0:0|1:0,0:0:0:0:
411,198,53481,2,0,P|428:289|408:359,1,150,8|0,0:0|0:0,0:0:0:0:
325,343,53998,1,0,1:0:0:0:
240,311,54171,2,0,P|158:301|88:328,1,150,8|0,0:0|0:0,0:0:0:0:
13,361,54688,1,0,1:0:0:0:
32,268,54860,2,0,L|38:181,1,75,8|0,0:0|0:0,0:0:0:0:
37,193,55205,6,0,P|97:203|191:165,1,150,4|8,3:0|0:0,0:0:0:0:
240,107,55722,1,0,0:0:0:0:
322,144,55895,2,0,P|382:148|415:136,1,75,0|0,0:0|1:0,0:0:0:0:
467,87,56240,2,0,P|498:148|490:239,1,150,8|4,0:0|3:0,0:0:0:0:
444,303,56757,1,0,0:0:0:0:
357,277,56929,2,0,P|319:273|280:280,1,75,8|0,0:0|0:0,0:0:0:0:
241,360,57274,2,0,P|278:363|317:356,2,75,0|0|8,0:0|1:0|0:0,0:0:0:0:
89,261,57964,5,4,3:0:0:0:
264,221,58309,1,8,0:0:0:0:
51,54,58826,2,0,P|32:86|24:123,1,75,4|12,3:0|0:0,0:0:0:0:
256,192,59343,12,4,60722,3:0:0:0:
150,349,61067,6,0,L|75:358,1,75,8|0,0:0|0:0,0:0:0:0:
33,278,61411,1,0,0:0:0:0:
83,203,61584,1,0,1:0:0:0:
169,228,61757,2,0,L|243:220,1,75,8|0,0:0|0:0,0:0:0:0:
339,250,62102,6,0,P|398:199|473:190,1,150,4|8,1:0|0:0,0:0:0:0:
430,262,62619,2,0,P|389:220|406:128,1,150,0|0,0:0|1:0,0:0:0:0:
439,54,63136,1,8,0:0:0:0:
439,54,63481,6,0,L|273:62,1,150,4|8,3:0|0:0,0:0:0:0:
212,105,63998,1,0,0:0:0:0:
152,173,64171,2,0,P|103:196|56:193,1,75,0|0,0:0|1:0,0:0:0:0:
87,107,64516,2,0,P|35:91|3:56,1,75,8|0,0:0|0:0,0:0:0:0:
160,58,64860,2,0,P|220:94|242:191,1,150,0|8,0:0|0:0,0:0:0:0:
321,105,65378,2,0,P|333:174|279:255,1,150,0|0,0:0|1:0,0:0:0:0:
222,293,65895,1,8,0:0:0:0:
222,293,66240,6,0,L|383:294,1,150,4|8,3:0|0:0,0:0:0:0:
462,291,66757,1,0,0:0:0:0:
462,291,66929,2,0,P|448:249|416:222,1,75,0|0,0:0|1:0,0:0:0:0:
338,208,67274,2,0,P|294:195|268:170,1,75,8|0,0:0|0:0,0:0:0:0:
205,115,67619,2,0,P|160:155|67:154,1,150,4|8,3:0|0:0,0:0:0:0:
117,91,68136,2,0,P|146:158|109:226,1,150,0|0,0:0|1:0,0:0:0:0:
38,273,68653,1,8,0:0:0:0:
209,218,68998,6,0,P|265:192|353:204,1,150,4|8,3:0|0:0,0:0:0:0:
428,250,69516,1,0,0:0:0:0:
374,322,69688,2,0,L|283:318,1,75
209,305,70033,1,8,0:0:0:0:
327,160,70378,2,0,P|289:108|181:97,1,150,0|8,0:0|0:0,0:0:0:0:
209,89,70895,2,0,P|205:152|134:215,1,150,0|0,0:0|1:0,0:0:0:0:
55,210,71412,2,0,P|70:167|105:139,1,75,8|0,0:0|0:0,0:0:0:0:
146,211,71757,6,0,L|138:368,1,150,4|8,3:0|0:0,0:0:0:0:
221,327,72274,1,0,0:0:0:0:
260,246,72447,2,0,L|256:148,1,75,0|0,0:0|1:0,0:0:0:0:
347,170,72791,2,0,L|326:71,1,75,8|0,0:0|0:0,0:0:0:0:
331,96,73136,6,0,P|406:104|462:42,1,150,4|8,3:0|0:0,0:0:0:0:
457,57,73653,2,0,L|448:231,1,150,0|0,0:0|1:0,0:0:0:0:
372,254,74171,2,0,L|364:179,1,75,8|0,0:0|0:0,0:0:0:0:
282,215,74516,6,0,P|218:200|181:130,1,150,4|8,3:0|0:0,0:0:0:0:
170,39,75033,1,0,0:0:0:0:
100,96,75205,2,0,P|77:145|76:191,1,75,0|0,0:0|1:0,0:0:0:0:
129,236,75550,2,0,P|187:222|223:226,1,75,8|0,0:0|0:0,0:0:0:0:
282,264,75895,2,0,P|351:263|422:208,1,150,0|8,0:0|0:0,0:0:0:0:
477,151,76412,2,0,P|505:223|489:313,1,150,0|0,0:0|1:0,0:0:0:0:
458,375,76929,1,8,0:0:0:0:
387,318,77102,1,0,0:0:0:0:
310,364,77274,6,0,L|155:356,1,150,4|8,3:0|0:0,0:0:0:0:
70,348,77791,1,0,0:0:0:0:
70,348,77964,2,0,P|55:278|79:186,1,150,0|8,0:0|0:0,0:0:0:0:
108,120,78481,1,0,0:0:0:0:
108,120,78653,2,0,L|262:113,1,150,4|8,3:0|0:0,0:0:0:0:
214,185,79171,2,0,P|178:137|203:48,1,150,0|0,0:0|1:0,0:0:0:0:
282,25,79688,1,8,0:0:0:0:
306,203,80033,6,0,P|368:164|381:90,1,150,4|8,3:0|0:0,0:0:0:0:
437,21,80550,2,0,P|469:53|479:105,1,75
463,169,80895,1,0,1:0:0:0:
408,240,81067,2,0,L|254:230,1,150,8|0,0:0|0:0,0:0:0:0:
167,223,81585,1,0,1:0:0:0:
203,304,81757,2,0,L|49:294,1,150,8|0,0:0|0:0,0:0:0:0:
11,214,82274,2,0,L|88:218,2,75,0|8|0,1:0|0:0|0:0,0:0:0:0:
58,137,82791,6,0,P|126:148|174:217,1,150,4|8,3:0|0:0,0:0:0:0:
238,272,83309,1,0,0:0:0:0:
317,230,83481,2,0,P|358:220|413:228,1,75,0|0,0:0|1:0,0:0:0:0:
439,297,83826,2,0,P|398:307|343:299,1,75,8|0,0:0|0:0,0:0:0:0:
317,230,84171,6,0,L|323:75,1,150,4|8,3:0|0:0,0:0:0:0:
236,107,84688,2,0,L|230:256,1,150,0|0,0:0|1:0,0:0:0:0:
147,220,85205,2,0,L|150:124,1,75,8|0,0:0|0:0,0:0:0:0:
149,145,85550,6,0,P|79:140|34:73,1,150,4|8,3:0|0:0,0:0:0:0:
18,191,86067,1,0,0:0:0:0:
18,191,86240,2,0,L|12:281,1,75,0|0,0:0|1:0,0:0:0:0:
73,332,86585,1,8,0:0:0:0:
128,261,86757,1,0,0:0:0:0:
201,312,86929,2,0,P|281:301|334:242,1,150,0|8,0:0|0:0,0:0:0:0:
357,168,87447,2,0,P|346:95|294:42,1,150,0|0,0:0|1:0,0:0:0:0:
214,84,87964,2,0,P|178:100|121:93,1,75,8|0,0:0|0:0,0:0:0:0:
166,27,88309,6,0,L|169:186,1,150,4|8,3:0|0:0,0:0:0:0:
169,267,88826,1,0,0:0:0:0:
128,348,88998,2,0,P|77:351|49:341,1,75,0|0,0:0|1:0,0:0:0:0:
96,263,89343,2,0,P|147:260|175:270,1,75,8|0,0:0|0:0,0:0:0:0:
263,246,89688,2,0,P|231:205|223:177,1,75,0|0,1:0|0:0,0:0:0:0:
314,180,90033,2,0,P|345:220|353:248,1,75,8|0,0:0|0:0,0:0:0:0:
387,325,90378,2,0,P|426:312|479:317,2,75,0|0|8,0:0|1:0|0:0,0:0:0:0:
209,330,91067,6,0,P|169:275|189:180,1,150,4|8,3:0|0:0,0:0:0:0:
235,127,91585,1,0,0:0:0:0:
312,82,91757,2,0,P|352:137|332:232,1,150,0|8,0:0|0:0,0:0:0:0:
278,278,92274,1,0,0:0:0:0:
191,251,92447,2,0,P|115:233|37:247,1,150,0|8,0:0|0:0,0:0:0:0:
92,310,92964,2,0,P|127:235|91:169,1,150,0|0,0:0|1:0,0:0:0:0:
36,115,93481,1,8,0:0:0:0:
215,108,93826,6,0,L|373:102,1,150,4|8,3:0|0:0,0:0:0:0:
328,185,94343,2,0,L|236:188,1,75
162,188,94688,1,0,1:0:0:0:
85,235,94860,2,0,P|71:186|82:145,1,75,8|0,0:0|0:0,0:0:0:0:
162,189,95205,2,0,P|185:261|143:351,1,150,4|8,3:0|0:0,0:0:0:0:
163,329,95722,2,0,B|197:297|238:327|278:358|334:302,1,150,0|0,0:0|1:0,0:0:0:0:
372,261,96240,1,8,0:0:0:0:
372,261,96585,6,0,P|322:209|321:133,1,150,4|8,3:0|0:0,0:0:0:0:
347,48,97102,1,0,0:0:0:0:
261,74,97274,2,0,L|177:78,1,75,0|0,0:0|1:0,0:0:0:0:
107,122,97619,2,0,P|80:157|75:205,1,75,8|0,0:0|0:0,0:0:0:0:
85,309,97964,2,0,P|142:270|150:191,1,150,0|8,0:0|0:0,0:0:0:0:
85,310,98481,2,0,L|250:318,1,150,0|0,0:0|1:0,0:0:0:0:
323,301,98998,2,0,P|299:257|273:243,1,75,8|0,0:0|0:0,0:0:0:0:
192,219,99343,6,0,P|126:184|108:102,1,150,4|8,3:0|0:0,0:0:0:0:
152,38,99860,1,0,0:0:0:0:
198,125,100033,2,0,L|351:120,1,150,0|8,0:0|0:0,0:0:0:0:
422,74,100550,1,0,0:0:0:0:
331,48,100722,2,0,P|278:96|298:178,1,150,0|8,1:0|0:0,0:0:0:0:
367,213,101240,2,0,L|214:218,1,150,0|0,0:0|1:0,0:0:0:0:
126,220,101757,1,8,0:0:0:0:
280,312,102102,5,4,3:0:0:0:
266,132,102447,1,8,0:0:0:0:
46,288,102964,2,0,P|28:254|23:217,1,75,4|12,3:0|0:0,0:0:0:0:
256,192,103481,12,4,104860,0:0:0:0:
96,68,106239,6,0,P|165:91|276:60,1,179.999994506836,0|2,0:0|0:0,0:0:0:0:
124,204,107624,2,0,P|72:260|56:367,2,179.999994506836,2|0|2,0:0|0:0|0:0,0:0:0:0:
124,203,109692,2,0,P|108:167|108:111,1,89.9999972534181
132,28,110364,1,2,0:0:0:0:
176,232,111727,6,0,P|253:233|340:172,1,179.999994506836,0|2,0:0|0:0,0:0:0:0:
336,177,113124,2,0,P|312:257|328:356,2,179.999994506836,2|0|2,0:0|0:0|0:0,0:0:0:0:
478,133,115192,2,0,P|485:184|464:223,1,89.9999972534181
398,274,115882,1,2,0:0:0:0:
48,256,117249,6,0,P|78:159|52:68,1,179.999994506836,0|2,0:0|0:0,0:0:0:0:
61,85,118628,2,0,B|125:132|227:86|227:86|324:36|424:108,1,359.999989013672,0|2,0:0|0:0,0:0:0:0:
256,192,121386,12,0,126559,0:0:0:0:
