osu file format v14

[General]
AudioFilename: Fix You Coldplay.mp3
AudioLeadIn: 1996
PreviewTime: 70486
Countdown: 0
SampleSet: Soft
StackLeniency: 0.3
Mode: 0
LetterboxInBreaks: 0
WidescreenStoryboard: 1

[Editor]
DistanceSpacing: 0.6
BeatDivisor: 4
GridSize: 4
TimelineZoom: 1.8

[Metadata]
Title:Fix You
TitleUnicode:Fix You
Artist:Coldplay
ArtistUnicode:Coldplay
Creator:Akagami
Version:Irreparable
Source:
Tags:x&y piano rock emo mainstream beautiful
BeatmapID:302553
BeatmapSetID:117423

[Difficulty]
HPDrainRate:7
CircleSize:4
OverallDifficulty:6
ApproachRate:8
SliderMultiplier:2.4
SliderTickRate:2

[Events]
//Background and Video events
0,0,"__F_I_X___Y_O_U___by_For_Certain.jpg",0,0
//Break Periods
2,91809,104499
2,155171,167887
//Storyboard Layer 0 (Background)
//Storyboard Layer 1 (Fail)
//Storyboard Layer 2 (Pass)
//Storyboard Layer 3 (Foreground)
//Storyboard Sound Samples

[TimingPoints]
87,880.023467292461,4,2,0,50,1,0
38038,-100,4,2,0,5,0,0
41668,-100,4,2,0,50,0,0
66197,-100,4,2,0,5,0,0
70486,-100,4,2,0,50,0,0
129560,-100,4,2,0,5,0,0
131650,-100,4,2,0,50,0,0
154971,427.046263345196,4,2,0,50,1,0
182301,427.47221430607,4,2,0,50,1,0
222483,419.58041958042,4,2,0,50,1,0
223322,437.956204379562,4,2,0,50,1,0
224197,427.47221430607,4,2,0,50,1,0
237021,-100,4,2,0,50,0,1
264380,863.309352517986,4,2,0,50,1,0
271286,810.810810810811,4,2,0,50,1,0
272907,882.352941176471,4,2,0,50,1,0
273789,909.090909090909,4,2,0,50,1,0
274698,857.142857142857,4,2,0,50,1,0
276412,845.070422535211,4,2,0,50,1,0
280637,882.352941176471,4,2,0,50,1,0
281519,845.070422535211,4,2,0,50,1,0

[Colours]
Combo1 : 128,128,64
Combo2 : 0,128,0
Combo3 : 147,255,147
Combo4 : 128,128,0

[HitObjects]
84,60,13507,5,0,0:0:0:0:
84,60,13727,1,0,0:0:0:0:
84,60,13947,2,0,P|176:104|228:164,1,180,0|0,0:0|0:0,0:0:0:0:
164,312,15047,2,0,P|224:336|280:332,1,120,2|0,0:0|0:0,0:0:0:0:
352,304,15707,1,0,0:0:0:0:
420,260,15927,6,0,L|420:136,2,120,0|0|2,0:0|0:0|0:0,0:0:0:0:
332,124,17247,2,0,L|332:244,1,120
428,60,20547,5,0,0:0:0:0:
428,60,20767,1,0,0:0:0:0:
428,60,20987,1,0,0:0:0:0:
256,60,21427,2,0,L|256:176,2,80,0|0|2,0:0|0:0|0:0,0:0:0:0:
84,60,22674,5,0,0:0:0:0:
144,264,22967,1,0,0:0:0:0:
256,84,23261,2,0,L|179:160,1,100
144,264,23848,2,0,P|212:232|368:264,1,240,2|0,0:0|0:0,0:0:0:0:
428,324,27587,5,0,0:0:0:0:
428,324,27807,1,0,0:0:0:0:
428,324,28027,2,0,P|324:288|324:232,1,180
364,88,29127,2,8,P|313:155|233:127,1,180,2|0,0:0|0:0,0:0:0:0:
292,80,30007,5,0,0:0:0:0:
216,52,30227,2,0,L|120:128,1,120
48,92,30887,2,0,P|48:164|196:156,1,240,2|0,0:0|0:0,0:0:0:0:
100,192,33967,5,0,0:0:0:0:
256,80,34407,1,2,0:0:0:0:
412,192,34847,1,0,0:0:0:0:
100,192,35287,6,0,P|212:264|412:192,2,360
256,192,38148,12,0,39248,0:0:0:0:
72,92,41668,5,0,0:0:0:0:
72,92,41815,1,0,0:0:0:0:
72,92,42035,2,0,P|80:184|52:268,1,180
204,324,43208,2,0,P|263:253|342:213,1,180,2|0,0:0|0:0,0:0:0:0:
420,232,44088,6,0,P|405:178|414:113,1,120
499,129,44968,2,0,P|462:41|337:69,1,240,2|0,0:0|0:0,0:0:0:0:
420,176,48708,5,0,0:0:0:0:
420,176,48928,1,0,0:0:0:0:
420,176,49148,2,0,B|409:79|333:23,1,180,0|0,0:0|0:0,0:0:0:0:
176,24,50248,2,0,B|100:80|88:192,1,180,2|0,0:0|0:0,0:0:0:0:
84,260,51128,6,0,P|160:222|173:193,1,120
216,124,51788,1,0,0:0:0:0:
256,196,52008,2,0,P|288:244|428:168,1,240,2|0,0:0|0:0,0:0:0:0:
256,344,55748,5,0,0:0:0:0:
256,344,55968,1,0,0:0:0:0:
256,344,56188,2,0,P|228:276|124:260,1,180
132,136,57288,2,0,L|132:256,1,120,2|0,0:0|0:0,0:0:0:0:
212,272,57948,1,0,0:0:0:0:
292,288,58168,6,0,L|292:168,1,120
364,128,58828,1,0,0:0:0:0:
96,64,59268,2,0,P|68:112|136:208,1,180
256,344,62128,5,0,0:0:0:0:
84,192,62568,1,2,0:0:0:0:
428,192,63008,1,0,0:0:0:0:
256,344,63448,6,0,B|200:192|308:192|256:136|256:136|228:112|268:96|256:0,2,360
256,192,66308,12,0,68287,0:0:0:0:
40,40,70488,5,2,0:0:0:0:
472,344,72248,5,2,0:0:0:0:
256,284,73128,1,0,0:0:0:0:
40,224,74008,6,0,P|84:168|176:112,1,180,2|0,0:0|0:0,0:0:0:0:
176,112,74889,2,0,P|232:144|336:112,1,180
335,111,75769,2,0,P|414:155|472:224,1,180,2|0,0:0|0:0,0:0:0:0:
472,224,76649,1,0,0:0:0:0:
352,264,77089,1,0,0:0:0:0:
256,344,77529,5,2,0:0:0:0:
40,40,79289,5,2,0:0:0:0:
256,100,80169,1,0,0:0:0:0:
472,160,81049,6,0,P|368:208|336:264,1,180,2|0,0:0|0:0,0:0:0:0:
336,261,81929,2,0,P|288:292|176:260,1,180
175,261,82809,2,0,P|123:189|40:160,1,180,2|0,0:0|0:0,0:0:0:0:
40,160,83689,1,0,0:0:0:0:
140,84,84129,1,0,0:0:0:0:
256,132,84569,5,2,0:0:0:0:
44,340,86109,5,0,0:0:0:0:
44,340,86329,2,0,P|140:280|100:180,2,240,2|0|2,0:0|0:0|0:0,0:0:0:0:
412,180,88969,6,0,P|360:140|256:96,1,180
256,96,89849,2,0,P|172:127|99:180,1,180,2|0,0:0|0:0,0:0:0:0:
99,180,90729,1,0,0:0:0:0:
256,192,91169,1,0,0:0:0:0:
412,203,91609,1,2,0:0:0:0:
56,192,105249,5,0,0:0:0:0:
56,192,105469,2,0,P|132:152|152:120,2,120,2|0|0,0:0|0:0|0:0,0:0:0:0:
64,100,106569,2,0,P|176:44|212:64,1,180,2|0,0:0|0:0,0:0:0:0:
300,96,107449,2,0,P|316:160|296:272,1,180,2|0,0:0|0:0,0:0:0:0:
232,216,108329,2,0,P|312:188|376:304,1,240,2|2,0:0|0:0,0:0:0:0:
256,344,109649,6,0,L|136:352,1,120,0|2,0:0|0:0,0:0:0:0:
164,192,110529,1,0,0:0:0:0:
92,232,110749,1,0,0:0:0:0:
92,152,110969,1,2,0:0:0:0:
208,40,111409,2,0,L|328:32,1,120,0|2,0:0|0:0,0:0:0:0:
464,120,112289,1,2,0:0:0:0:
464,120,112510,1,0,0:0:0:0:
400,72,112730,5,2,0:0:0:0:
400,72,112950,2,0,P|348:100|288:100,1,120
188,52,113610,2,0,P|261:68|292:108,1,120,2|0,0:0|0:0,0:0:0:0:
244,168,114270,1,0,0:0:0:0:
184,224,114490,1,2,0:0:0:0:
144,152,114710,2,0,P|56:192|48:212,1,120,0|0,0:0|0:0,0:0:0:0:
60,288,115370,2,0,P|144:292|216:352,1,180,2|0,0:0|0:0,0:0:0:0:
296,351,116250,6,0,B|296:288|296:288|312:224,1,120,2|0,0:0|0:0,0:0:0:0:
296,32,117130,2,0,B|296:96|296:96|312:160,1,120,2|0,0:0|0:0,0:0:0:0:
384,184,117790,1,0,0:0:0:0:
464,204,118010,2,0,B|464:267|464:267|448:331,2,120,2|0|2,0:0|0:0|0:0,0:0:0:0:
384,184,119110,1,0,0:0:0:0:
312,220,119330,1,2,0:0:0:0:
240,256,119550,2,0,P|216:236|184:224,1,60,0|2,0:0|0:0,0:0:0:0:
132,284,119990,6,0,P|108:212|132:168,1,120,0|0,0:0|0:0,0:0:0:0:
196,136,120650,2,0,P|132:94|83:105,1,120,2|0,0:0|0:0,0:0:0:0:
125,175,121310,1,0,0:0:0:0:
168,244,121530,1,2,0:0:0:0:
212,312,121750,2,0,P|280:296|328:316,1,120
384,372,122410,2,0,P|398:272|275:251,1,240,2|2,0:0|0:0,0:0:0:0:
380,116,123730,6,0,L|256:100,1,120,0|2,0:0|0:0,0:0:0:0:
104,60,124610,1,0,0:0:0:0:
64,132,124830,1,0,0:0:0:0:
144,132,125050,1,2,0:0:0:0:
40,348,125490,5,0,0:0:0:0:
404,192,125930,1,2,0:0:0:0:
40,36,126370,1,0,0:0:0:0:
404,192,126810,6,0,B|416:152|360:132|300:152|264:180|248:204|212:232|152:252|96:232|108:192,2,360,2|0|0,0:0|0:0|0:0,0:0:0:0:
256,192,129670,12,0,131210,0:0:0:0:
256,192,131650,5,0,0:0:0:0:
184,152,131870,1,0,0:0:0:0:
124,208,132090,2,0,P|172:256|200:308,1,120,2|0,0:0|0:0,0:0:0:0:
80,140,132970,2,0,P|103:76|106:17,1,120,2|0,0:0|0:0,0:0:0:0:
184,0,133630,1,0,0:0:0:0:
256,40,133850,6,0,P|208:88|180:140,1,120,2|0,0:0|0:0,0:0:0:0:
329,133,134730,2,0,P|299:81|256:40,1,120,2|0,0:0|0:0,0:0:0:0:
168,60,135390,1,0,0:0:0:0:
84,92,135610,2,0,P|68:149|69:209,1,120,2|0,0:0|0:0,0:0:0:0:
200,296,136490,2,0,P|236:280|312:296,1,120,2|0,0:0|0:0,0:0:0:0:
428,292,137370,6,0,P|386:212|328:144,1,180,2|0,0:0|0:0,0:0:0:0:
184,144,138250,2,0,P|255:189|328:144,1,180
184,144,139130,2,0,P|125:212|84:291,1,180,2|0,0:0|0:0,0:0:0:0:
144,360,140010,1,0,0:0:0:0:
256,220,140450,1,0,0:0:0:0:
284,312,140670,1,0,0:0:0:0:
368,360,140890,6,0,P|380:304|380:236,1,120,2|0,0:0|0:0,0:0:0:0:
368,24,141770,2,0,P|380:80|380:148,1,120,2|0,0:0|0:0,0:0:0:0:
464,108,142430,1,0,0:0:0:0:
496,192,142650,2,0,P|447:223|399:271,1,120,2|0,0:0|0:0,0:0:0:0:
328,228,143310,1,0,0:0:0:0:
256,272,143530,2,0,P|196:268|136:272,1,120,2|0,0:0|0:0,0:0:0:0:
52,268,144190,1,0,0:0:0:0:
16,192,144410,6,0,P|48:116|128:136,1,180,2|0,0:0|0:0,0:0:0:0:
128,136,145290,2,0,P|204:104|246:175,1,180
248,176,146170,2,0,P|324:208|304:288,1,180,2|0,0:0|0:0,0:0:0:0:
256,364,147050,1,0,0:0:0:0:
96,284,147490,1,0,0:0:0:0:
92,192,147710,1,0,0:0:0:0:
48,112,147930,6,0,P|128:80|176:72,1,120,2|0,0:0|0:0,0:0:0:0:
48,272,148810,2,0,P|128:304|176:312,1,120,2|0,0:0|0:0,0:0:0:0:
212,236,149470,1,0,0:0:0:0:
256,156,149690,6,0,P|312:128|368:112,1,120,2|0,0:0|0:0,0:0:0:0:
256,156,150571,2,0,P|200:128|144:112,1,120,2|0,0:0|0:0,0:0:0:0:
256,64,151231,1,0,0:0:0:0:
368,112,151451,2,0,P|272:280|144:112,1,480,2|2,0:0|0:0,0:0:0:0:
140,192,153871,5,0,0:0:0:0:
140,192,154091,1,0,0:0:0:0:
256,280,154531,1,0,0:0:0:0:
372,192,154971,1,6,0:0:0:0:
36,196,168637,5,2,0:0:0:0:
4,104,168850,1,0,0:0:0:0:
80,44,169064,1,0,0:0:0:0:
164,96,169277,1,0,0:0:0:0:
224,172,169491,1,2,0:0:0:0:
168,252,169704,1,0,0:0:0:0:
208,340,169918,1,0,0:0:0:0:
304,340,170131,1,0,0:0:0:0:
344,252,170345,5,0,0:0:0:0:
400,172,170558,1,2,0:0:0:0:
472,108,170772,2,0,P|416:76|352:84,1,120
256,56,171199,1,2,0:0:0:0:
256,56,171413,1,0,0:0:0:0:
112,68,171626,1,0,0:0:0:0:
112,68,171840,1,0,0:0:0:0:
40,192,172053,5,2,0:0:0:0:
80,280,172267,1,0,0:0:0:0:
144,352,172480,1,0,0:0:0:0:
196,272,172694,1,0,0:0:0:0:
256,196,172907,1,2,0:0:0:0:
316,272,173121,1,0,0:0:0:0:
368,352,173334,1,0,0:0:0:0:
432,280,173548,1,0,0:0:0:0:
472,192,173761,5,0,0:0:0:0:
440,100,173975,1,2,0:0:0:0:
352,60,174188,2,0,P|296:72|256:120,1,120
132,48,174615,5,2,0:0:0:0:
132,48,174829,1,0,0:0:0:0:
144,192,175042,1,2,0:0:0:0:
144,192,175256,1,0,0:0:0:0:
132,336,175469,5,2,0:0:0:0:
220,296,175683,1,0,0:0:0:0:
308,336,175897,1,0,0:0:0:0:
396,296,176110,1,0,0:0:0:0:
484,256,176324,1,2,0:0:0:0:
396,216,176537,1,0,0:0:0:0:
328,148,176751,1,0,0:0:0:0:
256,84,176964,1,0,0:0:0:0:
184,148,177178,5,0,0:0:0:0:
116,216,177391,1,2,0:0:0:0:
48,148,177605,2,0,P|28:208|36:268,1,120
88,344,178032,1,2,0:0:0:0:
88,344,178245,1,0,0:0:0:0:
208,264,178459,1,0,0:0:0:0:
208,264,178672,1,0,0:0:0:0:
328,344,178886,6,0,L|328:224,1,120
416,264,179313,2,0,P|428:204|448:144,1,120,2|0,0:0|0:0,0:0:0:0:
436,52,179740,2,0,P|376:40|316:20,1,120
256,96,180167,2,0,L|136:104,1,120,2|0,0:0|0:0,0:0:0:0:
160,192,180594,6,0,L|168:312,1,120
256,288,181021,2,0,L|376:280,1,120,2|0,0:0|0:0,0:0:0:0:
352,191,181447,2,0,L|344:72,2,120,0|8|8,0:0|0:3|0:0,0:0:0:0:
72,192,182089,5,0,0:0:0:0:
440,192,182302,1,4,0:0:0:0:
256,40,182729,5,4,0:3:0:0:
440,192,183156,6,0,P|400:240|372:304,1,120,8|0,0:0|0:0,0:0:0:0:
260,328,183584,2,0,L|128:344,1,120,8|0,0:0|0:0,0:0:0:0:
48,276,184011,1,8,0:3:0:0:
80,160,184225,2,0,P|124:204|176:232,1,120,8|0,0:0|0:0,0:0:0:0:
256,144,184652,1,8,0:3:0:0:
337,231,184866,2,0,P|389:202|432:160,1,120,8|0,0:0|0:0,0:0:0:0:
476,48,185294,1,8,0:0:0:0:
364,4,185507,1,0,0:0:0:0:
256,56,185721,6,0,L|256:176,1,120,8|0,0:3|0:0,0:0:0:0:
156,224,186149,2,0,L|156:104,1,120,8|0,0:3|0:0,0:0:0:0:
52,140,186576,2,0,L|52:264,1,120,8|0,0:0|0:0,0:0:0:0:
144,336,187004,2,0,P|167:287|153:220,1,120,8|0,0:0|0:0,0:0:0:0:
136,104,187431,1,8,0:3:0:0:
256,112,187645,2,0,P|308:100|351:42,1,120,8|0,0:0|0:0,0:0:0:0:
468,32,188072,1,8,0:3:0:0:
512,144,188286,2,0,L|384:160,1,120,8|0,0:0|0:0,0:0:0:0:
268,216,188713,2,0,L|388:232,1,120,8|0,0:0|0:0,0:0:0:0:
476,312,189141,5,8,0:3:0:0:
388,232,189355,1,0,0:0:0:0:
332,128,189568,1,8,0:3:0:0:
388,232,189782,1,0,0:0:0:0:
360,348,189996,2,0,P|304:344|240:348,1,120,8|0,0:0|0:0,0:0:0:0:
136,304,190423,2,0,L|128:184,1,120,8|0,0:0|0:0,0:0:0:0:
32,112,190851,1,8,0:3:0:0:
128,40,191065,2,0,P|192:52|248:52,1,120,8|0,0:0|0:0,0:0:0:0:
356,104,191492,1,8,0:3:0:0:
352,224,191706,2,0,L|448:144,1,120,8|0,0:0|0:0,0:0:0:0:
480,264,192133,2,0,L|387:340,1,120,8|0,0:0|0:0,0:0:0:0:
268,348,192560,6,0,L|216:236,1,120,8|0,0:3|0:0,0:0:0:0:
244,36,192987,2,0,L|296:148,1,120,8|0,0:3|0:0,0:0:0:0:
268,348,193416,2,0,P|200:320|144:316,1,120,8|0,0:0|0:0,0:0:0:0:
44,268,193843,1,8,0:0:0:0:
140,192,194057,2,0,L|64:92,1,120,0|8,0:0|0:3,0:0:0:0:
184,64,194484,1,8,0:0:0:0:
256,192,194698,1,0,0:0:0:0:
328,64,194912,1,8,0:3:0:0:
256,192,195126,1,8,0:0:0:0:
256,336,195553,5,2,3:0:0:0:
256,300,195660,1,2,3:0:0:0:
256,264,195767,1,2,3:0:0:0:
256,228,195874,1,2,3:0:0:0:
256,192,195980,5,4,0:0:0:0:
140,52,196408,1,4,0:3:0:0:
372,52,196835,2,0,P|400:112|440:160,1,120,8|0,0:0|0:0,0:0:0:0:
140,52,197263,2,0,P|112:112|72:160,1,120,8|0,0:0|0:0,0:0:0:0:
60,272,197690,2,0,L|172:224,1,120,8|8,0:3|0:0,0:0:0:0:
256,312,198118,1,0,0:0:0:0:
341,224,198332,2,0,L|452:272,1,120,8|8,0:3|0:0,0:0:0:0:
508,164,198759,2,0,L|397:116,1,120,0|8,0:0|0:0,0:0:0:0:
312,32,199187,1,0,0:0:0:0:
256,140,199399,6,0,L|145:188,1,120,8|0,0:3|0:0,0:0:0:0:
200,296,199827,2,0,P|256:276|312:296,1,120,8|0,0:3|0:0,0:0:0:0:
148,188,200255,2,0,L|201:296,1,120,8|0,0:0|0:0,0:0:0:0:
68,324,200683,2,0,L|14:215,1,120,8|0,0:0|0:0,0:0:0:0:
64,120,201109,2,0,P|131:93|182:84,1,120,8|8,0:3|0:0,0:0:0:0:
260,176,201538,1,0,0:0:0:0:
164,252,201751,2,0,L|264:324,1,120,8|8,0:3|0:0,0:0:0:0:
380,344,202179,1,0,0:0:0:0:
480,276,202393,2,0,P|480:220|456:160,1,120,8|0,0:0|0:0,0:0:0:0:
456,40,202820,6,0,P|400:72|352:120,1,120,8|0,0:3|0:0,0:0:0:0:
256,248,203248,2,0,L|256:128,1,120,8|0,0:3|0:0,0:0:0:0:
56,40,203675,2,0,P|108:69|152:110,1,120,8|0,0:0|0:0,0:0:0:0:
256,248,204102,2,0,P|200:276|152:320,1,120,8|0,0:0|0:0,0:0:0:0:
48,264,204530,2,0,P|67:204|70:139,1,120,8|8,0:3|0:0,0:0:0:0:
152,56,204957,1,0,0:0:0:0:
200,168,205171,2,0,P|236:152|312:168,1,120,8|8,0:3|0:0,0:0:0:0:
360,56,205599,1,0,0:0:0:0:
312,168,205812,2,0,P|336:198|340:276,1,120,8|0,0:0|0:0,0:0:0:0:
256,360,206240,5,8,0:3:0:0:
256,248,206454,1,0,0:0:0:0:
256,360,206666,2,0,P|200:340|152:280,1,120,8|0,0:3|0:0,0:0:0:0:
401,108,207094,2,0,P|412:166|384:238,1,120,8|0,0:0|0:0,0:0:0:0:
110,108,207521,2,0,P|155:69|231:57,1,120,8|0,0:0|0:0,0:0:0:0:
316,72,207949,1,8,0:3:0:0:
316,312,208162,1,8,0:0:0:0:
448,192,208376,1,0,0:0:0:0:
196,312,208591,1,8,0:3:0:0:
196,72,208805,1,8,0:0:0:0:
64,192,209018,1,0,0:0:0:0:
208,192,209232,5,2,3:0:0:0:
172,192,209339,1,2,3:0:0:0:
136,192,209446,1,2,3:0:0:0:
100,192,209553,1,2,3:0:0:0:
64,192,209660,5,4,0:0:0:0:
468,40,210087,1,4,0:3:0:0:
468,344,210515,2,0,P|408:328|344:320,1,120,8|0,0:0|0:0,0:0:0:0:
312,208,210942,2,0,P|334:263|350:321,1,120,8|0,0:0|0:0,0:0:0:0:
432,232,211369,2,0,P|420:148|312:44,1,240,2|0,0:0|0:0,0:0:0:0:
200,43,212011,2,0,P|255:128|312:44,1,240,2|0,0:0|0:0,0:0:0:0:
199,44,212652,2,0,P|107:117|80:232,1,240,2|8,0:0|0:3,0:0:0:0:
28,340,213293,5,0,0:0:0:0:
144,368,213507,2,0,P|204:352|268:344,1,120,0|0,0:3|0:0,0:0:0:0:
372,296,213934,1,8,0:0:0:0:
372,296,214148,2,0,P|320:240|340:88,1,240,2|0,0:0|0:0,0:0:0:0:
340,88,214789,2,0,P|280:20|172:88,1,240,2|0,0:0|0:0,0:0:0:0:
172,88,215430,2,0,P|204:199|140:296,1,240,2|0,0:0|0:0,0:0:0:0:
80,192,216072,1,8,0:0:0:0:
140,296,216285,1,0,0:0:0:0:
256,324,216499,6,0,P|280:272|332:240,1,120,8|0,0:3|0:0,0:0:0:0:
256,60,216927,2,0,P|232:112|180:144,1,120,8|0,0:3|0:0,0:0:0:0:
256,324,217354,2,0,P|304:252|440:288,1,240,2|2,0:0|0:0,0:0:0:0:
484,172,217995,1,0,0:0:0:0:
440,60,218209,2,0,P|388:116|256:60,1,240,2|0,0:0|0:0,0:0:0:0:
72,60,218850,2,2,P|164:124|256:59,2,240,2|2|0,0:0|0:0|0:0,0:0:0:0:
164,36,219919,2,0,L|164:284,1,240,2|0,0:0|0:0,0:0:0:0:
256,192,220560,1,0,0:0:0:0:
348,276,220774,2,0,L|348:36,1,240,2|0,0:0|0:0,0:0:0:0:
256,112,221415,5,0,0:0:0:0:
256,272,221629,1,2,0:0:0:0:
344,152,221843,1,0,0:0:0:0:
168,232,222056,1,2,0:0:0:0:
412,216,222270,1,0,0:0:0:0:
100,168,222483,5,2,3:0:0:0:
84,200,222588,1,2,3:0:0:0:
68,232,222693,1,0,3:0:0:0:
52,264,222798,1,0,3:0:0:0:
36,296,222903,1,8,3:0:0:0:
69,310,223008,1,8,3:0:0:0:
102,325,223113,1,4,3:0:0:0:
135,339,223218,1,4,3:0:0:0:
168,352,223323,5,4,0:0:0:0:
344,352,223760,2,0,B|300:240|300:240|320:120,1,240,4|8,0:3|0:0,0:0:0:0:
255,52,224411,2,0,P|218:98|168:131,1,120,0|8,0:0|0:0,0:0:0:0:
116,24,224839,1,0,0:0:0:0:
48,124,225052,2,0,P|76:208|212:244,1,240,2|0,0:0|0:0,0:0:0:0:
160,132,225694,2,0,B|212:108|256:184|256:184|300:108|352:132,1,240,2|0,0:0|0:0,0:0:0:0:
300,244,226335,2,0,P|414:228|464:124,1,240,2|8,0:0|0:3,0:0:0:0:
368,52,226976,5,0,0:0:0:0:
464,124,227190,2,0,P|415:228|475:326,1,240,8|8,0:3|0:0,3:0:0:0:
356,348,227831,2,0,P|304:328|240:336,1,120,0|8,0:0|0:0,0:0:0:0:
120,340,228258,1,0,0:3:0:0:
32,260,228472,2,0,L|68:144,1,120,2|8,0:0|0:0,0:0:0:0:
152,28,228900,2,0,L|184:148,1,120,2|8,0:0|0:3,0:0:0:0:
328,144,229327,2,0,L|358:28,1,120,10|0,0:0|0:0,0:0:0:0:
444,145,229755,2,0,L|480:260,1,120,10|0,0:0|0:0,0:0:0:0:
256,192,230182,5,4,0:0:0:0:
256,192,230289,12,0,233387,0:0:0:0:
256,192,233602,6,0,P|196:172|160:124,1,120,8|0,0:3|0:0,0:0:0:0:
256,52,234029,2,0,P|316:72|352:120,1,120,8|0,0:3|0:0,0:0:0:0:
440,192,234457,1,8,0:0:0:0:
348,272,234670,1,0,0:0:0:0:
256,192,234884,1,8,0:0:0:0:
256,352,235098,1,0,0:0:0:0:
256,352,235312,5,8,0:3:0:0:
256,192,235525,1,8,0:0:0:0:
164,272,235739,2,0,B|152:224|152:224|156:144,1,120,0|8,0:3|0:3,0:0:0:0:
256,48,236167,5,2,3:0:0:0:
284,72,236273,1,2,3:0:0:0:
300,104,236380,1,0,3:0:0:0:
308,140,236487,1,0,3:0:0:0:
228,208,236593,5,2,3:0:0:0:
215,241,236699,1,2,3:0:0:0:
217,277,236806,1,0,3:0:0:0:
228,312,236913,1,0,3:0:0:0:
256,336,237022,5,4,0:0:0:0:
136,128,237449,1,4,0:3:0:0:
376,128,237876,2,0,B|356:184|356:184|344:244,1,120,8|0,0:0|0:0,0:0:0:0:
224,272,238304,2,0,B|244:216|244:216|256:156,1,120,8|0,0:0|0:0,0:0:0:0:
216,44,238731,2,0,P|132:32|16:160,1,240,2|0,0:0|0:0,0:0:0:0:
124,192,239373,2,0,B|184:180|184:180|244:192,2,120,2|0|0,0:0|0:0|0:0,0:0:0:0:
21,255,240014,2,0,P|98:341|214:340,1,240,2|8,0:0|0:3,0:0:0:0:
308,264,240655,6,0,P|240:224|184:224,2,120,0|8|0,0:0|0:3|0:0,0:0:0:0:
364,364,241296,1,8,0:0:0:0:
452,292,241510,2,0,P|504:224|452:92,1,240,2|0,0:0|0:0,0:0:0:0:
340,136,242151,2,0,P|280:204|172:136,1,240,2|0,0:0|0:0,0:0:0:0:
256,88,242792,2,0,L|256:328,1,240,2|0,0:0|0:0,0:0:0:0:
156,260,243434,2,0,P|108:216|72:164,1,120,8|0,0:0|0:0,0:0:0:0:
59,291,243861,5,8,0:3:0:0:
453,291,244289,1,8,0:3:0:0:
436,172,244502,1,0,0:0:0:0:
356,260,244716,2,0,L|304:152,1,120,8|0,0:0|0:0,0:0:0:0:
156,124,245144,2,0,L|208:232,1,120,8|0,0:0|0:0,0:0:0:0:
370,231,245571,2,0,L|292:140,1,120,8|8,0:3|0:0,0:0:0:0:
141,152,245998,2,0,L|219:243,1,120,0|8,0:0|0:3,0:0:0:0:
376,200,246426,2,0,L|277:133,1,120,8|0,0:0|0:0,0:0:0:0:
135,183,246853,2,0,L|234:250,1,120,8|0,0:0|0:0,0:0:0:0:
374,169,247281,6,0,L|261:129,2,120,8|0|8,0:3|0:0|0:3,0:0:0:0:
448,72,247922,1,0,0:0:0:0:
460,192,248136,2,0,P|408:252|288:184,1,240,8|8,0:0|0:0,0:0:0:0:
256,68,248777,1,0,0:0:0:0:
223,184,248991,2,0,P|140:258|52:192,1,240,8|8,0:3|0:0,0:0:0:0:
256,316,249632,1,8,0:3:0:0:
256,68,249846,5,2,3:0:0:0:
268,104,249953,1,2,3:0:0:0:
284,140,250059,1,0,3:0:0:0:
312,168,250166,1,0,3:0:0:0:
340,192,250273,5,8,3:0:0:0:
312,216,250380,1,8,3:0:0:0:
284,244,250487,1,4,3:0:0:0:
268,280,250594,1,4,3:0:0:0:
256,316,250701,5,4,0:0:0:0:
108,60,251128,1,4,0:3:0:0:
404,60,251556,2,0,P|436:112|492:132,1,120,8|0,0:0|0:0,0:0:0:0:
489,252,251983,2,0,P|434:273|404:324,1,120,8|0,0:0|0:0,0:0:0:0:
296,376,252411,2,0,P|336:292|332:148,1,240,2|0,0:0|0:0,0:0:0:0:
180,148,253052,2,0,B|236:148|232:192|232:192|256:160|256:160|280:192|280:192|276:148|332:148,1,240,2|0,0:0|0:0,0:0:0:0:
180,147,253693,2,0,P|170:266|216:376,1,240,2|8,0:0|0:3,0:0:0:0:
256,264,254334,5,0,0:0:0:0:
116,344,254548,2,0,P|100:296|96:216,1,120,8|0,0:3|0:0,0:0:0:0:
80,108,254975,2,0,P|144:108|180:148,1,120,8|0,0:0|0:0,0:0:0:0:
332,146,255403,2,0,P|373:105|432:108,1,120,8|0,0:0|0:0,0:0:0:0:
416,228,255830,6,0,P|371:267|318:295,1,120,8|10,0:3|0:0,0:0:0:0:
292,32,256258,2,0,P|331:76|359:129,1,120,2|8,0:0|0:3,0:0:0:0:
96,156,256685,2,0,P|140:116|193:88,1,120,10|0,0:0|0:0,0:0:0:0:
220,352,257113,2,0,P|180:307|152:254,1,120,10|0,0:0|0:0,0:0:0:0:
256,192,257540,1,4,0:0:0:0:
256,192,257647,12,8,260959,0:3:0:0:
256,384,261387,6,0,P|214:341|208:283,1,120,8|0,0:3|0:0,0:0:0:0:
89,96,261815,2,0,P|146:81|200:105,1,120,8|0,0:0|0:0,0:0:0:0:
422,96,262242,2,0,P|406:152|358:187,1,120,8|0,0:0|0:0,0:0:0:0:
120,327,262670,6,8,P|121:268|158:222,1,120,8|8,0:3|0:0,0:0:0:0:
206,6,263097,2,0,P|256:36|278:91,1,120,0|8,0:0|0:3,0:0:0:0:
441,241,263525,2,0,P|389:270|331:261,1,120,8|0,0:0|0:0,0:0:0:0:
176,192,263952,5,8,3:0:0:0:
208,156,264059,1,8,3:0:0:0:
256,148,264166,1,4,3:0:0:0:
304,156,264273,1,4,3:0:0:0:
336,192,264380,1,2,0:0:0:0:
40,40,266107,5,2,0:0:0:0:
120,192,266970,1,0,0:0:0:0:
40,344,267834,2,0,P|120:320|180:248,1,180,2|0,0:0|0:0,0:0:0:0:
180,248,268697,2,0,P|240:288|332:248,1,180
331,247,269560,2,0,P|387:317|472:344,1,180,2|0,0:0|0:0,0:0:0:0:
472,344,270423,1,0,0:0:0:0:
460,260,270855,1,0,0:0:0:0:
444,176,271285,1,2,0:0:0:0:
108,48,272907,5,2,0:0:0:0:
256,136,273789,1,0,0:0:0:0:
404,48,274698,2,0,P|344:116|316:200,1,180,2|0,0:0|0:0,0:0:0:0:
316,199,275555,2,0,P|255:143|196:200,1,180
196,200,276412,2,0,P|167:115|108:48,1,180,2|0,0:0|0:0,0:0:0:0:
108,48,277257,1,0,0:0:0:0:
56,116,277679,1,0,0:0:0:0:
40,200,278101,1,2,0:0:0:0:
160,340,279581,5,0,0:0:0:0:
160,340,279792,2,0,P|152:256|132:156,1,180,2|0,0:0|0:0,0:0:0:0:
72,224,280637,2,0,P|112:248|220:176,1,180
288,248,281519,2,0,P|329:144|440:160,2,240,2|0|2,0:0|0:0|0:0,0:0:0:0:
372,220,283843,5,0,0:0:0:0:
372,220,284054,1,0,0:0:0:0:
256,40,284477,1,0,0:0:0:0:
140,220,284899,1,2,0:0:0:0:
