osu file format v14

[General]
AudioFilename: Fix You Coldplay.mp3
AudioLeadIn: 1996
PreviewTime: 70486
Countdown: 0
SampleSet: Soft
StackLeniency: 0.3
Mode: 0
LetterboxInBreaks: 0
WidescreenStoryboard: 1

[Editor]
DistanceSpacing: 1
BeatDivisor: 2
GridSize: 4
TimelineZoom: 1.4

[Metadata]
Title:Fix You
TitleUnicode:Fix You
Artist:Coldplay
ArtistUnicode:Coldplay
Creator:Akagami
Version:Fixable
Source:
Tags:x&y piano rock emo mainstream beautiful
BeatmapID:306220
BeatmapSetID:117423

[Difficulty]
HPDrainRate:3
CircleSize:3
OverallDifficulty:3
ApproachRate:5
SliderMultiplier:1.3
SliderTickRate:2

[Events]
//Background and Video events
0,0,"__F_I_X___Y_O_U___by_For_Certain.jpg",0,0
//Break Periods
2,91809,104489
2,155171,167436
//Storyboard Layer 0 (Background)
//Storyboard Layer 1 (Fail)
//Storyboard Layer 2 (Pass)
//Storyboard Layer 3 (Foreground)
//Storyboard Sound Samples

[TimingPoints]
87,880.023467292461,4,2,0,50,1,0
38038,-100,4,2,0,5,0,0
41668,-100,4,2,0,50,0,0
66197,-100,4,2,0,5,0,0
70486,-100,4,2,0,50,0,0
129340,-100,4,2,0,5,0,0
131650,-100,4,2,0,50,0,0
154971,427.046263345196,4,2,0,50,1,0
182301,427.47221430607,4,2,0,50,1,0
222483,419.58041958042,4,2,0,50,1,0
223322,437.956204379562,4,2,0,50,1,0
224197,427.47221430607,4,2,0,50,1,0
237021,-100,4,2,0,50,0,1
264380,863.309352517986,4,2,0,50,1,0
271286,810.810810810811,4,2,0,50,1,0
272907,882.352941176471,4,2,0,50,1,0
273789,909.090909090909,4,2,0,50,1,0
274698,857.142857142857,4,2,0,50,1,0
276412,845.070422535211,4,2,0,50,1,0
280637,882.352941176471,4,2,0,50,1,0
281519,845.070422535211,4,2,0,50,1,0

[Colours]
Combo1 : 128,128,64
Combo2 : 0,128,0
Combo3 : 147,255,147
Combo4 : 128,128,0

[HitObjects]
56,136,13507,5,0,0:0:0:0:
96,84,13947,2,0,P|136:72|208:152,1,162.5,0|2,0:0|0:0,0:0:0:0:
200,216,15487,1,0,0:0:0:0:
184,280,15927,2,0,P|219:348|269:358,2,130,0|2|0,0:0|0:0|0:0,0:0:0:0:
184,280,19447,1,0,0:0:0:0:
64,340,20547,5,0,0:0:0:0:
108,292,20987,2,0,P|128:252|108:140,1,162.5,0|2,0:0|0:0,0:0:0:0:
200,48,22967,2,0,P|256:76|312:48,2,130,0|2|0,0:0|0:0|0:0,0:0:0:0:
376,236,26487,1,0,0:0:0:0:
256,344,27587,5,0,0:0:0:0:
212,296,28027,2,0,P|172:240|188:152,1,162.5,0|2,0:0|0:0,0:0:0:0:
288,236,30007,2,0,P|306:312|286:358,2,130,0|2|0,0:0|0:0|0:0,0:0:0:0:
128,192,33967,6,0,P|120:224|124:264,2,65,0|2|0,0:0|0:0|0:0,0:0:0:0:
168,136,35287,2,0,P|256:100|344:136,2,195
160,264,38808,2,0,B|216:272|256:344|256:344|296:272|352:264,1,260
460,192,41668,5,0,0:0:0:0:
420,244,42108,2,0,P|344:296|284:268,1,162.5,0|2,0:0|0:0,0:0:0:0:
376,176,44088,2,0,P|453:167|493:204,2,130,0|2|0,0:0|0:0|0:0,0:0:0:0:
248,196,46728,2,0,P|171:205|131:168,1,130,0|2,0:0|0:0,0:0:0:0:
256,36,48708,5,0,0:0:0:0:
216,88,49148,2,0,L|280:240,1,162.5,0|2,0:0|0:0,0:0:0:0:
168,308,51128,2,0,L|112:176,2,130,0|2|0,0:0|0:0|0:0,0:0:0:0:
272,384,53768,2,0,L|404:328,1,130,0|2,0:0|0:0,0:0:0:0:
472,192,55748,5,0,0:0:0:0:
444,136,56188,2,0,P|400:88|304:72,1,162.5,0|2,0:0|0:0,0:0:0:0:
252,108,57728,1,0,0:0:0:0:
208,156,58168,2,0,P|133:180|88:158,2,130,0|2|0,0:0|0:0|0:0,0:0:0:0:
256,344,62128,6,0,P|244:296|232:280,1,64.9999999999999,0|2,0:0|0:0,0:0:0:0:
196,232,63008,1,0,0:0:0:0:
156,180,63448,2,0,P|160:100|256:60,2,195
256,192,66308,12,0,68288,0:0:0:0:
256,344,70488,5,2,0:0:0:0:
139,101,72248,2,0,P|106:156|52:192,1,130,2|0,0:0|0:0,0:0:0:0:
99,312,74008,2,0,P|208:245|260:128,1,260,2|2,0:0|0:0,0:0:0:0:
131,129,76649,2,0,P|140:160|132:192,1,65
92,244,77529,1,2,0:0:0:0:
372,101,79289,6,0,P|405:156|460:192,1,130,2|0,0:0|0:0,0:0:0:0:
412,312,81049,2,0,P|302:244|251:127,1,260,2|2,0:0|0:0,0:0:0:0:
380,129,83690,2,0,P|371:160|380:192,1,65
420,244,84570,1,2,0:0:0:0:
208,344,86109,5,0,0:0:0:0:
208,344,86329,2,0,P|204:288|176:220,1,130,2|0,0:0|0:0,0:0:0:0:
152,92,88089,2,0,P|236:156|360:92,1,260,2|2,0:0|0:0,0:0:0:0:
256,40,90509,5,0,0:0:0:0:
256,40,90729,2,0,L|256:172,1,130,0|2,0:0|0:0,0:0:0:0:
96,192,105689,6,0,P|128:152|196:108,1,130,2|2,0:0|0:0,0:0:0:0:
256,100,107009,1,0,0:0:0:0:
318,109,107449,2,0,P|373:142|416:192,1,130,2|2,0:0|0:0,0:0:0:0:
420,256,108769,1,0,0:0:0:0:
420,320,109209,6,0,P|364:286|322:237,1,130,2|2,0:0|0:0,0:0:0:0:
256,244,110529,1,0,0:0:0:0:
189,237,110969,2,0,P|147:286|92:320,2,130,2|2|2,0:0|0:0|0:0,0:0:0:0:
280,144,113610,6,0,P|322:94|377:61,1,130,2|2,0:0|0:0,0:0:0:0:
440,44,114930,1,0,0:0:0:0:
504,32,115370,2,0,L|504:168,1,130,2|2,0:0|0:0,0:0:0:0:
428,268,117130,2,0,P|380:308|316:336,1,130,2|2,0:0|0:0,0:0:0:0:
256,320,118450,1,0,0:0:0:0:
192,336,118890,2,0,P|132:309|82:268,1,130,2|2,0:0|0:0,0:0:0:0:
44,144,120650,6,0,L|168:100,1,130,2|2,0:0|0:0,0:0:0:0:
224,132,121970,1,0,0:0:0:0:
284,160,122410,2,0,L|408:116,2,130,2|2|2,0:0|0:0|0:0,0:0:0:0:
224,188,124610,1,0,0:0:0:0:
164,212,125050,2,0,L|40:256,1,130,2|2,0:0|0:0,0:0:0:0:
56,320,126370,1,0,0:0:0:0:
100,368,126810,6,0,B|180:364|256:328|256:328|332:364|412:368,2,325,2|0|2,0:0|0:0|0:0,0:0:0:0:
128,188,132090,6,0,P|144:144|192:76,1,130,2|2,0:0|0:0,0:0:0:0:
320,76,133850,6,0,P|359:127|384:188,2,130,2|2|2,0:0|0:0|0:0,0:0:0:0:
256,192,136490,1,2,0:0:0:0:
191,307,137370,2,0,P|140:248|180:84,1,260,2|2,0:0|0:0,0:0:0:0:
300,40,140010,2,0,P|336:36|368:40,1,65,2|0,0:0|0:0,0:0:0:0:
420,72,140890,6,0,P|412:124|416:204,1,130,2|2,0:0|0:0,0:0:0:0:
456,252,142210,1,0,0:0:0:0:
392,260,142650,2,0,P|349:291|295:350,1,130,2|2,0:0|0:0,0:0:0:0:
176,308,144410,2,0,P|240:212|368:128,1,260,2|2,0:0|0:0,0:0:0:0:
256,52,147050,2,0,P|228:64|192:68,1,65,2|0,0:0|0:0,0:0:0:0:
128,60,147930,6,0,P|72:108|36:164,1,130,2|2,0:0|0:0,0:0:0:0:
96,192,149250,1,0,0:0:0:0:
40,229,149690,2,0,P|78:282|128:324,1,130,2|2,0:0|0:0,0:0:0:0:
196,212,151451,2,0,P|256:120|316:212,1,260,2|2,0:0|0:0,0:0:0:0:
256,288,153871,5,0,0:0:0:0:
256,288,154091,2,0,L|256:364,2,65,2|0|4,0:0|0:0|0:0,0:0:0:0:
68,192,168636,6,0,P|88:132|128:76,2,130,2|0|2,0:0|0:0|0:0,0:0:0:0:
196,192,169917,2,0,P|176:252|136:308,2,130,0|2|0,0:0|0:0|0:0,0:0:0:0:
208,128,170985,2,0,P|220:96|240:60,1,65,0|2,0:0|0:0,0:0:0:0:
360,40,171625,1,0,0:0:0:0:
468,108,172052,6,0,P|448:172|460:232,1,130,2|0,0:0|0:0,0:0:0:0:
388,340,172906,2,0,P|332:312|276:340,1,130,2|0,0:0|0:0,0:0:0:0:
200,232,173761,2,0,P|212:168|192:107,1,130,2|0,0:0|0:0,0:0:0:0:
144,64,174401,2,0,P|108:36|84:28,1,65,0|2,0:0|0:0,0:0:0:0:
52,152,175042,1,2,0:0:0:0:
72,280,175469,6,0,P|128:312|192:332,2,130,2|0|2,0:0|0:0|0:0,0:0:0:0:
196,236,176750,2,0,P|258:252|325:255,2,130,0|2|0,0:0|0:0|0:0,0:0:0:0:
136,212,177817,2,0,P|100:192|80:168,1,65,0|2,0:0|0:0,0:0:0:0:
168,76,178458,1,0,0:0:0:0:
296,60,178885,6,0,L|408:128,1,130,0|2,0:0|0:0,0:0:0:0:
407,256,179739,2,0,L|296:324,1,130,0|2,0:0|0:0,0:0:0:0:
168,304,180593,2,0,L|279:236,1,130,0|2,0:0|0:0,0:0:0:0:
376,148,181447,2,0,L|376:80,2,65,0|8|8,0:0|0:3|0:0,0:0:0:0:
408,256,182301,6,0,P|380:312|320:336,1,130,4|4,0:0|0:3,0:0:0:0:
191,335,183155,2,0,P|132:312|104:256,1,130,8|8,0:0|0:0,0:0:0:0:
80,128,184011,2,0,P|47:131|17:142,2,65,8|8|0,0:3|0:0|0:0,0:0:0:0:
204,160,184865,2,0,P|244:192|308:160,1,130,8|8,0:0|0:0,0:0:0:0:
212,72,185721,6,0,P|164:80|116:164,1,130,8|8,0:3|0:3,0:0:0:0:
196,248,186576,2,0,P|257:231|290:177,1,130,8|8,0:0|0:0,0:0:0:0:
292,48,187644,2,0,P|276:16|244:-4,2,65,8|8|0,0:3|0:0|0:0,0:0:0:0:
332,172,188285,2,0,L|368:296,1,130,8|8,0:0|0:0,0:0:0:0:
240,264,189140,6,0,L|204:140,1,130,8|8,0:3|0:3,0:0:0:0:
192,8,189995,2,0,P|208:4|320:8,1,130,8|8,0:0|0:0,0:0:0:0:
384,124,190850,2,0,P|396:160|392:196,2,65,8|8|0,0:3|0:0|0:0,0:0:0:0:
260,88,191705,2,0,P|244:92|132:88,1,130,8|8,0:0|0:0,0:0:0:0:
24,164,192560,1,8,0:3:0:0:
148,196,192987,1,8,0:3:0:0:
276,172,193415,1,8,0:0:0:0:
396,124,193842,2,0,P|376:96|344:76,1,65,8|0,0:0|0:0,0:0:0:0:
308,32,194270,2,0,B|256:72|256:72|204:32,1,130,8|0,0:3|0:0,0:0:0:0:
160,78,194911,2,0,P|134:97|116:124,1,65,8|8,0:3|0:0,0:0:0:0:
48,236,195552,2,0,L|48:304,2,65,2|2|4,3:0|3:0|0:0,0:0:0:0:
172,200,196407,5,4,0:3:0:0:
296,164,196835,2,0,P|344:128|388:72,1,130,8|8,0:0|0:0,0:0:0:0:
444,40,197476,2,0,P|476:24|508:16,2,65,0|8|8,0:0|0:3|0:0,0:0:0:0:
388,72,198117,2,0,P|328:80|257:72,1,130,0|8,0:0|0:0,0:0:0:0:
136,32,198972,1,8,0:0:0:0:
40,120,199399,6,0,P|64:172|36:236,1,130,8|8,0:3|0:3,0:0:0:0:
108,344,200254,2,0,P|172:292|180:248,1,130,8|8,0:0|0:0,0:0:0:0:
168,184,200896,2,0,P|188:144|204:120,1,65,0|8,0:0|0:3,0:0:0:0:
256,96,201323,2,0,P|296:116|320:132,1,65,8|0,0:0|0:0,0:0:0:0:
331,248,201965,2,0,P|350:309|404:344,1,130,8|8,0:0|0:0,0:0:0:0:
456,224,202819,6,0,P|437:163|383:128,1,130,8|8,0:3|0:3,0:0:0:0:
256,108,203674,1,8,0:0:0:0:
128,128,204102,2,0,P|132:156|144:192,1,65,8|0,0:0|0:0,0:0:0:0:
192,232,204529,2,0,P|256:220|320:232,1,130,8|0,0:3|0:0,0:0:0:0:
368,190,205170,2,0,P|379:160|384:128,1,65,8|8,0:3|0:0,0:0:0:0:
480,40,205812,2,0,P|469:70|464:102,1,65,8|0,0:0|0:0,0:0:0:0:
472,168,206239,6,0,P|484:220|468:304,1,130,8|8,0:3|0:3,0:0:0:0:
352,344,207093,2,0,P|306:315|258:245,1,130,8|8,0:0|0:0,0:0:0:0:
280,192,207736,2,0,P|243:138|190:102,1,130,0|8,0:0|0:0,0:0:0:0:
128,124,208377,2,0,P|92:104|72:84,1,65,0|8,0:0|0:3,0:0:0:0:
38,34,208803,1,8,0:0:0:0:
168,40,209231,2,0,L|244:40,2,65,2|2|4,3:0|3:0|0:0,0:0:0:0:
256,136,210086,6,0,P|208:176|180:240,1,130,4|8,0:3|0:0,0:0:0:0:
256,340,210941,1,8,0:0:0:0:
331,236,211369,2,0,P|305:177|256:136,1,130,2|0,0:0|0:0,0:0:0:0:
204,96,212010,2,0,P|180:64|172:24,2,65,2|0|0,0:0|0:0|0:0,0:0:0:0:
256,136,212651,2,0,P|314:109|356:60,1,130,2|8,0:0|0:3,0:0:0:0:
388,184,213506,5,8,0:3:0:0:
348,308,213933,1,8,0:0:0:0:
348,308,214147,2,0,P|256:336|164:308,1,195,2|2,0:0|0:0,0:0:0:0:
164,112,215430,2,0,P|256:84|348:112,1,195,2|8,0:0|0:0,0:0:0:0:
436,208,216498,5,8,0:3:0:0:
308,224,216926,1,8,0:3:0:0:
180,240,217353,2,0,L|36:256,2,130,8|8|0,0:0|0:0|0:0,0:0:0:0:
256,136,218636,2,0,L|400:120,2,130,0|8|8,0:0|0:0|0:0,0:0:0:0:
156,52,219919,6,0,P|104:144|156:284,1,260,8|8,0:3|0:0,0:0:0:0:
256,168,221200,1,8,0:0:0:0:
359,281,221628,2,0,P|409:165|356:51,1,260,0|8,0:0|0:0,0:0:0:0:
224,52,222902,2,0,L|160:52,2,65,2|2|4,3:0|3:0|0:0,0:0:0:0:
256,180,223760,5,4,0:3:0:0:
284,312,224197,2,0,P|344:288|412:280,1,130,8|8,0:0|0:0,0:0:0:0:
284,312,225052,2,0,P|196:296|104:236,2,195,2|2|2,0:0|0:0|0:0,0:0:0:0:
396,244,226762,6,0,P|380:196|344:120,1,130,8|8,0:3|0:3,0:0:0:0:
256,48,227617,1,8,0:0:0:0:
196,76,227831,2,0,P|136:144|104:256,2,195,2|2|2,0:0|0:0|0:0,0:0:0:0:
256,48,229326,2,0,P|320:52|392:44,2,130,8|0|4,0:0|0:0|0:0,0:0:0:0:
256,192,230396,12,8,233602,0:3:0:0:
132,192,234457,6,0,P|176:148|192:80,1,130,8|8,0:0|0:0,0:0:0:0:
319,83,235312,2,0,P|334:146|380:192,1,130,8|0,0:3|0:0,0:0:0:0:
312,304,236166,2,0,P|256:276|200:304,2,130,2|8|4,3:0|3:0|0:0,0:0:0:0:
436,348,237449,5,4,0:3:0:0:
476,224,237876,2,0,P|472:160|440:100,1,130,8|8,0:0|0:0,0:0:0:0:
324,48,238731,2,0,B|276:80|256:116|256:116|236:80|188:48,2,195,2|2|2,0:0|0:0|0:0,0:0:0:0:
452,20,240441,6,0,P|420:84|420:156,1,130,8|8,0:3|0:3,0:0:0:0:
448,268,241296,1,8,0:0:0:0:
448,268,241510,2,0,B|384:272|336:320|336:320|268:320,2,195,2|2|2,0:0|0:0|0:0,0:0:0:0:
448,268,243006,2,0,B|452:204|499:156|499:156|500:88,1,195
500,24,243861,6,0,P|436:24|376:52,1,130,8|8,0:3|0:3,0:0:0:0:
276,136,244716,2,0,L|200:248,1,130,8|8,0:0|0:0,0:0:0:0:
196,372,245571,2,0,P|240:352|316:372,1,130,8|0,0:3|0:0,0:0:0:0:
308,243,246426,2,0,L|236:136,1,130,8|8,0:0|0:0,0:0:0:0:
135,51,247281,6,0,P|92:76|104:264,1,260,8|8,0:3|0:0,0:0:0:0:
212,328,248563,1,8,0:0:0:0:
100,260,248991,2,0,P|129:219|314:251,1,260,8|2,0:3|3:0,0:0:0:0:
368,364,250273,2,0,L|300:364,2,65,8|4|4,3:0|3:0|0:0,0:0:0:0:
472,288,251128,5,4,0:3:0:0:
384,192,251555,2,0,P|396:156|448:80,1,130,8|8,0:0|0:0,0:0:0:0:
464,208,252410,2,0,P|404:272|312:232,2,195,2|2|2,0:0|0:0|0:0,0:0:0:0:
348,152,254119,6,0,P|300:148|228:204,1,130,8|8,0:3|0:3,0:0:0:0:
168,304,254975,1,8,0:0:0:0:
104,288,255189,2,0,P|56:260|24:128,2,195,2|2|2,0:0|0:0|0:0,0:0:0:0:
168,304,256685,2,0,P|223:303|317:205,1,195
308,144,257540,1,4,0:0:0:0:
256,192,257754,12,8,260960,0:3:0:0:
216,144,261815,6,0,P|192:116|104:76,2,130,8|8|0,0:0|0:0|0:0,0:0:0:0:
264,264,263097,2,0,P|288:292|376:332,2,130,0|2|8,0:0|3:0|3:0,0:0:0:0:
216,144,264380,1,2,0:0:0:0:
72,192,266107,6,0,P|95:251|90:316,1,130,2|0,0:0|0:0,0:0:0:0:
211,351,267834,2,0,P|225:223|165:110,1,260,2|2,0:0|0:0,0:0:0:0:
36,88,270423,2,0,P|20:52|20:20,2,65,0|0|2,0:0|0:0|0:0,0:0:0:0:
256,336,272907,6,0,P|288:280|332:224,1,130,2|0,0:0|0:0,0:0:0:0:
444,156,274698,2,0,P|336:136|256:16,1,260,2|2,0:0|0:0,0:0:0:0:
152,96,277257,2,0,L|128:160,1,65
160,212,278102,1,2,0:0:0:0:
420,160,279581,5,0,0:0:0:0:
420,192,279792,2,0,P|396:252|340:288,1,130,2|0,0:0|0:0,0:0:0:0:
208,284,281519,2,0,B|208:224|176:172|176:172|200:112|256:56|256:56|312:112|336:172|336:172|304:224|304:284,1,520,2|2,0:0|0:0,0:0:0:0:
