osu file format v14

[General]
AudioFilename: Coldplay_-_A_Sky_Full_Of_Stars.mp3
AudioLeadIn: 0
PreviewTime: 77534
Countdown: 0
SampleSet: Soft
StackLeniency: 0.7
Mode: 3
LetterboxInBreaks: 0
SpecialStyle: 1
WidescreenStoryboard: 1

[Editor]
Bookmarks: 30834,38514,41154,183834,228114,230754
DistanceSpacing: 0.6
BeatDivisor: 4
GridSize: 4
TimelineZoom: 1.2

[Metadata]
Title:A Sky Full of Stars
TitleUnicode:A Sky Full of Stars
Artist:Coldplay
ArtistUnicode:Coldplay
Creator:try24get
Version:Hard
Source:
Tags:Pop English Coldplay A Sky Full of Stars
BeatmapID:703574
BeatmapSetID:315621

[Difficulty]
HPDrainRate:8
CircleSize:4
OverallDifficulty:9
ApproachRate:3
SliderMultiplier:1.4
SliderTickRate:1

[Events]
//Background and Video events
0,0,"starry night wallpapers 2.jpg",0,0
//Break Periods
//Storyboard Layer 0 (Background)
//Storyboard Layer 1 (Fail)
//Storyboard Layer 2 (Pass)
//Storyboard Layer 3 (Foreground)
//Storyboard Sound Samples

[TimingPoints]
834,480,4,2,0,30,1,0
76914,-200,4,2,0,30,0,0
77634,-100,4,2,0,30,0,1
99474,-100,4,2,0,30,0,0
168234,-200,4,2,0,30,0,0
169794,-100,4,2,0,30,0,1
200514,-100,4,2,0,30,0,0

[HitObjects]
192,192,834,5,0,0:0:0:0:
448,192,834,1,0,0:0:0:0:
64,192,834,1,0,0:0:0:0:
192,192,1194,1,0,0:0:0:0:
320,192,1194,1,0,0:0:0:0:
192,192,1554,1,0,0:0:0:0:
320,192,1554,1,0,0:0:0:0:
448,192,2034,1,0,0:0:0:0:
192,192,2034,1,0,0:0:0:0:
448,192,2274,1,0,0:0:0:0:
192,192,2274,1,0,0:0:0:0:
64,192,2274,1,0,0:0:0:0:
64,192,2754,1,0,0:0:0:0:
320,192,2754,1,0,0:0:0:0:
448,192,2754,1,0,0:0:0:0:
64,192,3114,1,0,0:0:0:0:
320,192,3114,1,0,0:0:0:0:
64,192,3474,1,0,0:0:0:0:
320,192,3474,1,0,0:0:0:0:
64,192,3954,1,0,0:0:0:0:
320,192,3954,1,0,0:0:0:0:
64,192,4434,1,0,0:0:0:0:
320,192,4434,1,0,0:0:0:0:
192,192,4674,1,0,0:0:0:0:
448,192,4674,1,0,0:0:0:0:
320,192,4674,1,0,0:0:0:0:
192,192,5034,1,0,0:0:0:0:
448,192,5034,1,0,0:0:0:0:
192,192,5394,1,0,0:0:0:0:
448,192,5394,1,0,0:0:0:0:
192,192,5874,1,0,0:0:0:0:
448,192,5874,1,0,0:0:0:0:
448,192,6354,1,0,0:0:0:0:
320,192,6354,1,0,0:0:0:0:
448,192,6594,1,0,0:0:0:0:
64,192,6594,1,0,0:0:0:0:
192,192,6594,1,0,0:0:0:0:
192,192,6954,1,0,0:0:0:0:
64,192,6954,1,0,0:0:0:0:
192,192,7314,1,0,0:0:0:0:
64,192,7314,1,0,0:0:0:0:
320,192,7794,1,0,0:0:0:0:
64,192,7794,1,0,0:0:0:0:
448,192,8034,1,0,0:0:0:0:
192,192,8034,1,0,0:0:0:0:
320,192,8274,1,0,0:0:0:0:
192,192,8514,1,0,0:0:0:0:
448,192,8514,1,0,0:0:0:0:
64,192,8514,1,0,0:0:0:0:
192,192,8874,1,0,0:0:0:0:
320,192,8874,1,0,0:0:0:0:
192,192,9234,1,0,0:0:0:0:
320,192,9234,1,0,0:0:0:0:
320,192,9714,1,0,0:0:0:0:
64,192,9714,1,0,0:0:0:0:
448,192,9954,1,0,0:0:0:0:
192,192,9954,1,0,0:0:0:0:
320,192,10194,1,0,0:0:0:0:
192,192,10434,1,0,0:0:0:0:
320,192,10434,1,0,0:0:0:0:
448,192,10434,1,0,0:0:0:0:
192,192,10794,1,0,0:0:0:0:
448,192,10794,1,0,0:0:0:0:
192,192,11154,1,0,0:0:0:0:
448,192,11154,1,0,0:0:0:0:
192,192,11634,1,0,0:0:0:0:
448,192,11634,1,0,0:0:0:0:
192,192,12114,1,0,0:0:0:0:
448,192,12114,1,0,0:0:0:0:
448,192,12354,1,0,0:0:0:0:
320,192,12354,1,0,0:0:0:0:
64,192,12354,1,0,0:0:0:0:
448,192,12714,1,0,0:0:0:0:
64,192,12714,1,0,0:0:0:0:
448,192,13074,1,0,0:0:0:0:
64,192,13074,1,0,0:0:0:0:
448,192,13554,1,0,0:0:0:0:
64,192,13554,1,0,0:0:0:0:
320,192,14034,1,0,0:0:0:0:
448,192,14034,1,0,0:0:0:0:
64,192,14274,1,0,0:0:0:0:
192,192,14274,1,0,0:0:0:0:
64,192,14634,1,0,0:0:0:0:
192,192,14634,1,0,0:0:0:0:
64,192,14994,1,0,0:0:0:0:
192,192,14994,1,0,0:0:0:0:
64,192,15474,1,0,0:0:0:0:
192,192,15474,1,0,0:0:0:0:
448,192,15714,1,0,0:0:0:0:
320,192,15714,1,0,0:0:0:0:
192,192,15954,1,0,0:0:0:0:
64,192,15954,1,0,0:0:0:0:
320,192,16194,1,0,0:0:0:0:
448,192,16194,1,0,0:0:0:0:
320,192,16554,1,0,0:0:0:0:
192,192,16554,1,0,0:0:0:0:
320,192,16914,1,0,0:0:0:0:
192,192,16914,1,0,0:0:0:0:
192,192,17394,1,0,0:0:0:0:
64,192,17394,1,0,0:0:0:0:
192,192,17634,1,0,0:0:0:0:
64,192,17634,1,0,0:0:0:0:
448,192,18114,128,0,19074:0:0:0:0:
320,192,18114,1,0,0:0:0:0:
64,192,18114,128,0,19074:0:0:0:0:
192,192,18114,1,0,0:0:0:0:
320,192,18474,1,0,0:0:0:0:
192,192,18474,1,0,0:0:0:0:
320,192,18834,1,0,0:0:0:0:
192,192,18834,1,0,0:0:0:0:
192,192,19314,1,0,0:0:0:0:
320,192,19314,1,0,0:0:0:0:
192,192,19554,1,0,0:0:0:0:
64,192,19554,1,0,0:0:0:0:
320,192,19794,1,0,0:0:0:0:
64,192,19794,1,0,0:0:0:0:
320,192,20034,128,0,20994:0:0:0:0:
192,192,20034,1,0,0:0:0:0:
448,192,20034,128,0,20994:0:0:0:0:
64,192,20034,1,0,0:0:0:0:
192,192,20394,1,0,0:0:0:0:
64,192,20394,1,0,0:0:0:0:
192,192,20754,1,0,0:0:0:0:
64,192,20754,1,0,0:0:0:0:
192,192,21234,1,0,0:0:0:0:
448,192,21234,1,0,0:0:0:0:
64,192,21474,1,0,0:0:0:0:
320,192,21474,1,0,0:0:0:0:
64,192,21714,128,0,22434:0:0:0:0:
320,192,21714,1,0,0:0:0:0:
448,192,21714,128,0,22434:0:0:0:0:
192,192,21714,1,0,0:0:0:0:
320,192,21954,1,0,0:0:0:0:
192,192,21954,1,0,0:0:0:0:
320,192,22314,1,0,0:0:0:0:
192,192,22314,1,0,0:0:0:0:
320,192,22674,1,0,0:0:0:0:
192,192,22674,1,0,0:0:0:0:
64,192,23154,1,0,0:0:0:0:
192,192,23154,1,0,0:0:0:0:
448,192,23394,1,0,0:0:0:0:
320,192,23394,1,0,0:0:0:0:
64,192,23634,1,0,0:0:0:0:
192,192,23634,1,0,0:0:0:0:
320,192,23874,1,0,0:0:0:0:
448,192,23874,1,0,0:0:0:0:
192,192,24234,1,0,0:0:0:0:
320,192,24234,1,0,0:0:0:0:
320,192,24594,1,0,0:0:0:0:
192,192,24594,1,0,0:0:0:0:
192,192,25074,1,0,0:0:0:0:
448,192,25074,1,0,0:0:0:0:
320,192,25314,1,0,0:0:0:0:
448,192,25314,1,0,0:0:0:0:
64,192,25554,1,0,0:0:0:0:
192,192,25554,1,0,0:0:0:0:
448,192,25794,128,0,26754:0:0:0:0:
320,192,25794,1,0,0:0:0:0:
64,192,25794,128,0,26754:0:0:0:0:
192,192,25794,1,0,0:0:0:0:
320,192,26154,1,0,0:0:0:0:
192,192,26154,1,0,0:0:0:0:
320,192,26514,1,0,0:0:0:0:
192,192,26514,1,0,0:0:0:0:
320,192,26994,1,0,0:0:0:0:
192,192,26994,1,0,0:0:0:0:
320,192,27234,1,0,0:0:0:0:
448,192,27234,1,0,0:0:0:0:
64,192,27474,128,0,29154:0:0:0:0:
320,192,27474,1,0,0:0:0:0:
192,192,27474,1,0,0:0:0:0:
448,192,27714,1,0,0:0:0:0:
192,192,27714,1,0,0:0:0:0:
448,192,28074,1,0,0:0:0:0:
192,192,28074,1,0,0:0:0:0:
448,192,28434,1,0,0:0:0:0:
192,192,28434,1,0,0:0:0:0:
448,192,28914,1,0,0:0:0:0:
192,192,28914,1,0,0:0:0:0:
320,192,29394,1,0,0:0:0:0:
448,192,29394,1,0,0:0:0:0:
320,192,29634,1,0,0:0:0:0:
192,192,29634,1,0,0:0:0:0:
320,192,29994,1,0,0:0:0:0:
192,192,29994,1,0,0:0:0:0:
320,192,30354,1,0,0:0:0:0:
192,192,30354,1,0,0:0:0:0:
192,192,30834,1,0,0:0:0:0:
64,192,30834,1,0,0:0:0:0:
448,192,31074,1,0,0:0:0:0:
320,192,31074,1,0,0:0:0:0:
64,192,31314,1,0,0:0:0:0:
192,192,31314,1,0,0:0:0:0:
192,192,31554,1,0,0:0:0:0:
320,192,31554,1,0,0:0:0:0:
448,192,31554,1,0,0:0:0:0:
320,192,31914,1,0,0:0:0:0:
448,192,31914,1,0,0:0:0:0:
192,192,32034,1,0,0:0:0:0:
320,192,32274,1,0,0:0:0:0:
448,192,32274,1,0,0:0:0:0:
192,192,32514,1,0,0:0:0:0:
192,192,32754,1,0,0:0:0:0:
448,192,32754,1,0,0:0:0:0:
192,192,32994,1,0,0:0:0:0:
448,192,32994,1,0,0:0:0:0:
320,192,33474,128,0,34434:0:0:0:0:
192,192,33474,1,0,0:0:0:0:
448,192,33474,1,0,0:0:0:0:
192,192,33834,1,0,0:0:0:0:
64,192,33954,1,0,0:0:0:0:
192,192,34194,1,0,0:0:0:0:
448,192,34434,1,0,0:0:0:0:
64,192,34674,1,0,0:0:0:0:
192,192,34674,1,0,0:0:0:0:
192,192,34914,1,0,0:0:0:0:
192,192,35154,1,0,0:0:0:0:
320,192,35154,1,0,0:0:0:0:
448,192,35394,128,0,36354:0:0:0:0:
320,192,35394,1,0,0:0:0:0:
64,192,35394,1,0,0:0:0:0:
320,192,35754,1,0,0:0:0:0:
192,192,35874,1,0,0:0:0:0:
320,192,36114,1,0,0:0:0:0:
64,192,36354,1,0,0:0:0:0:
320,192,36594,1,0,0:0:0:0:
64,192,36594,1,0,0:0:0:0:
192,192,36834,1,0,0:0:0:0:
64,192,37074,128,0,37794:0:0:0:0:
448,192,37074,1,0,0:0:0:0:
320,192,37314,1,0,0:0:0:0:
192,192,37314,1,0,0:0:0:0:
320,192,37674,1,0,0:0:0:0:
448,192,37794,1,0,0:0:0:0:
320,192,38034,1,0,0:0:0:0:
448,192,38034,1,0,0:0:0:0:
320,192,38274,1,0,0:0:0:0:
192,192,38514,1,0,0:0:0:0:
64,192,38514,1,0,0:0:0:0:
448,192,38754,1,0,0:0:0:0:
64,192,38754,1,0,0:0:0:0:
64,192,38994,1,0,0:0:0:0:
192,192,38994,1,0,0:0:0:0:
320,192,39234,1,0,0:0:0:0:
64,192,39234,1,0,0:0:0:0:
192,192,39594,1,0,0:0:0:0:
64,192,39594,1,0,0:0:0:0:
320,192,39714,1,0,0:0:0:0:
192,192,39954,1,0,0:0:0:0:
64,192,39954,1,0,0:0:0:0:
448,192,40194,1,0,0:0:0:0:
64,192,40434,1,0,0:0:0:0:
192,192,40434,1,0,0:0:0:0:
64,192,40674,1,0,0:0:0:0:
448,192,40674,1,0,0:0:0:0:
192,192,40914,1,0,0:0:0:0:
64,192,40914,1,0,0:0:0:0:
448,192,41154,128,0,42114:0:0:0:0:
320,192,41154,1,0,0:0:0:0:
64,192,41154,1,0,0:0:0:0:
320,192,41514,1,0,0:0:0:0:
192,192,41634,1,0,0:0:0:0:
320,192,41874,1,0,0:0:0:0:
64,192,42114,1,0,0:0:0:0:
320,192,42354,1,0,0:0:0:0:
64,192,42354,1,0,0:0:0:0:
192,192,42594,1,0,0:0:0:0:
64,192,42834,128,0,43314:0:0:0:0:
320,192,42834,1,0,0:0:0:0:
448,192,42834,1,0,0:0:0:0:
448,192,43074,1,0,0:0:0:0:
192,192,43074,1,0,0:0:0:0:
448,192,43434,1,0,0:0:0:0:
192,192,43434,1,0,0:0:0:0:
320,192,43554,1,0,0:0:0:0:
192,192,43794,1,0,0:0:0:0:
320,192,43794,1,0,0:0:0:0:
192,192,44034,1,0,0:0:0:0:
192,192,44274,1,0,0:0:0:0:
320,192,44274,1,0,0:0:0:0:
320,192,44514,1,0,0:0:0:0:
448,192,44754,1,0,0:0:0:0:
192,192,44754,1,0,0:0:0:0:
320,192,44994,1,0,0:0:0:0:
64,192,44994,1,0,0:0:0:0:
192,192,45354,1,0,0:0:0:0:
448,192,45354,1,0,0:0:0:0:
320,192,45474,1,0,0:0:0:0:
192,192,45714,1,0,0:0:0:0:
448,192,45714,1,0,0:0:0:0:
64,192,45954,1,0,0:0:0:0:
192,192,46194,1,0,0:0:0:0:
320,192,46194,1,0,0:0:0:0:
448,192,46434,1,0,0:0:0:0:
64,192,46434,1,0,0:0:0:0:
64,192,46674,1,0,0:0:0:0:
320,192,46674,1,0,0:0:0:0:
320,192,46914,1,0,0:0:0:0:
192,192,46914,1,0,0:0:0:0:
64,192,46914,1,0,0:0:0:0:
320,192,47274,1,0,0:0:0:0:
448,192,47274,1,0,0:0:0:0:
192,192,47394,1,0,0:0:0:0:
320,192,47634,1,0,0:0:0:0:
448,192,47634,1,0,0:0:0:0:
320,192,47874,1,0,0:0:0:0:
320,192,48114,1,0,0:0:0:0:
192,192,48114,1,0,0:0:0:0:
192,192,48354,1,0,0:0:0:0:
448,192,48594,128,0,49794:0:0:0:0:
64,192,48594,1,0,0:0:0:0:
320,192,48834,1,0,0:0:0:0:
192,192,48834,1,0,0:0:0:0:
320,192,49194,1,0,0:0:0:0:
64,192,49314,1,0,0:0:0:0:
320,192,49554,1,0,0:0:0:0:
192,192,49794,1,0,0:0:0:0:
64,192,50034,1,0,0:0:0:0:
320,192,50034,1,0,0:0:0:0:
320,192,50274,1,0,0:0:0:0:
192,192,50514,1,0,0:0:0:0:
448,192,50514,1,0,0:0:0:0:
320,192,50754,128,0,51714:0:0:0:0:
64,192,50754,1,0,0:0:0:0:
448,192,50754,1,0,0:0:0:0:
64,192,51114,1,0,0:0:0:0:
448,192,51114,1,0,0:0:0:0:
192,192,51234,1,0,0:0:0:0:
64,192,51474,1,0,0:0:0:0:
448,192,51474,1,0,0:0:0:0:
448,192,51714,1,0,0:0:0:0:
448,192,51954,1,0,0:0:0:0:
64,192,51954,1,0,0:0:0:0:
320,192,52194,1,0,0:0:0:0:
64,192,52434,128,0,53034:0:0:0:0:
320,192,52434,1,0,0:0:0:0:
192,192,52434,1,0,0:0:0:0:
448,192,52674,1,0,0:0:0:0:
192,192,52674,1,0,0:0:0:0:
448,192,53034,1,0,0:0:0:0:
192,192,53034,1,0,0:0:0:0:
320,192,53394,1,0,0:0:0:0:
448,192,53394,1,0,0:0:0:0:
192,192,53634,1,0,0:0:0:0:
320,192,53874,1,0,0:0:0:0:
192,192,53874,1,0,0:0:0:0:
448,192,54114,1,0,0:0:0:0:
64,192,54354,1,0,0:0:0:0:
320,192,54354,1,0,0:0:0:0:
192,192,54594,1,0,0:0:0:0:
448,192,54594,1,0,0:0:0:0:
192,192,54954,1,0,0:0:0:0:
64,192,54954,1,0,0:0:0:0:
320,192,55074,1,0,0:0:0:0:
192,192,55314,1,0,0:0:0:0:
64,192,55314,1,0,0:0:0:0:
448,192,55554,1,0,0:0:0:0:
320,192,55794,1,0,0:0:0:0:
64,192,55794,1,0,0:0:0:0:
192,192,56034,1,0,0:0:0:0:
448,192,56274,128,0,57474:0:0:0:0:
64,192,56274,1,0,0:0:0:0:
320,192,56274,1,0,0:0:0:0:
192,192,56514,1,0,0:0:0:0:
320,192,56514,1,0,0:0:0:0:
192,192,56874,1,0,0:0:0:0:
320,192,56874,1,0,0:0:0:0:
64,192,56994,1,0,0:0:0:0:
192,192,57234,1,0,0:0:0:0:
320,192,57234,1,0,0:0:0:0:
64,192,57474,1,0,0:0:0:0:
192,192,57714,1,0,0:0:0:0:
320,192,57714,1,0,0:0:0:0:
320,192,57954,1,0,0:0:0:0:
64,192,58194,128,0,58674:0:0:0:0:
448,192,58194,1,0,0:0:0:0:
192,192,58194,1,0,0:0:0:0:
320,192,58434,1,0,0:0:0:0:
192,192,58434,1,0,0:0:0:0:
320,192,58794,1,0,0:0:0:0:
192,192,58794,1,0,0:0:0:0:
320,192,59154,1,0,0:0:0:0:
192,192,59154,1,0,0:0:0:0:
64,192,59394,1,0,0:0:0:0:
320,192,59634,1,0,0:0:0:0:
192,192,59634,1,0,0:0:0:0:
64,192,59874,1,0,0:0:0:0:
448,192,60114,1,0,0:0:0:0:
320,192,60114,1,0,0:0:0:0:
320,192,60354,128,0,61794:0:0:0:0:
192,192,60354,1,0,0:0:0:0:
64,192,60354,1,0,0:0:0:0:
192,192,60714,1,0,0:0:0:0:
64,192,60714,1,0,0:0:0:0:
448,192,60834,1,0,0:0:0:0:
192,192,61074,1,0,0:0:0:0:
64,192,61074,1,0,0:0:0:0:
448,192,61314,1,0,0:0:0:0:
192,192,61554,1,0,0:0:0:0:
64,192,61554,1,0,0:0:0:0:
448,192,61794,1,0,0:0:0:0:
192,192,62034,128,0,62274:0:0:0:0:
320,192,62034,1,0,0:0:0:0:
64,192,62034,1,0,0:0:0:0:
448,192,62274,1,0,0:0:0:0:
64,192,62274,1,0,0:0:0:0:
64,192,62634,1,0,0:0:0:0:
192,192,62634,1,0,0:0:0:0:
320,192,62754,1,0,0:0:0:0:
64,192,62994,1,0,0:0:0:0:
192,192,62994,1,0,0:0:0:0:
320,192,63234,1,0,0:0:0:0:
192,192,63474,1,0,0:0:0:0:
64,192,63474,1,0,0:0:0:0:
448,192,63714,1,0,0:0:0:0:
64,192,63954,1,0,0:0:0:0:
320,192,63954,1,0,0:0:0:0:
64,192,64194,128,0,65154:0:0:0:0:
448,192,64194,1,0,0:0:0:0:
192,192,64194,1,0,0:0:0:0:
320,192,64554,1,0,0:0:0:0:
192,192,64554,1,0,0:0:0:0:
448,192,64674,1,0,0:0:0:0:
320,192,64914,1,0,0:0:0:0:
192,192,64914,1,0,0:0:0:0:
448,192,65154,1,0,0:0:0:0:
64,192,65394,1,0,0:0:0:0:
192,192,65394,1,0,0:0:0:0:
64,192,65634,1,0,0:0:0:0:
192,192,65874,1,0,0:0:0:0:
448,192,65874,1,0,0:0:0:0:
448,192,66114,128,0,67074:0:0:0:0:
320,192,66114,1,0,0:0:0:0:
64,192,66114,1,0,0:0:0:0:
320,192,66474,1,0,0:0:0:0:
64,192,66474,1,0,0:0:0:0:
192,192,66594,1,0,0:0:0:0:
320,192,66834,1,0,0:0:0:0:
64,192,66834,1,0,0:0:0:0:
64,192,67074,1,0,0:0:0:0:
448,192,67314,1,0,0:0:0:0:
320,192,67314,1,0,0:0:0:0:
320,192,67554,1,0,0:0:0:0:
192,192,67794,128,0,68154:0:0:0:0:
64,192,67794,1,0,0:0:0:0:
448,192,67794,1,0,0:0:0:0:
320,192,68034,1,0,0:0:0:0:
448,192,68034,1,0,0:0:0:0:
320,192,68394,1,0,0:0:0:0:
64,192,68394,1,0,0:0:0:0:
448,192,68514,1,0,0:0:0:0:
64,192,68754,1,0,0:0:0:0:
320,192,68754,1,0,0:0:0:0:
448,192,68994,1,0,0:0:0:0:
320,192,69234,1,0,0:0:0:0:
64,192,69234,1,0,0:0:0:0:
448,192,69474,128,0,69714:0:0:0:0:
320,192,69714,1,0,0:0:0:0:
64,192,69714,1,0,0:0:0:0:
192,192,69954,128,0,73794:0:0:0:0:
64,192,69954,1,0,0:0:0:0:
320,192,69954,1,0,0:0:0:0:
64,192,70314,1,0,0:0:0:0:
320,192,70314,1,0,0:0:0:0:
448,192,70434,1,0,0:0:0:0:
64,192,70674,1,0,0:0:0:0:
320,192,70674,1,0,0:0:0:0:
448,192,70914,1,0,0:0:0:0:
64,192,71154,1,0,0:0:0:0:
320,192,71154,1,0,0:0:0:0:
448,192,71394,1,0,0:0:0:0:
64,192,71634,1,0,0:0:0:0:
320,192,71634,1,0,0:0:0:0:
320,192,71874,1,0,0:0:0:0:
64,192,71874,1,0,0:0:0:0:
320,192,72234,1,0,0:0:0:0:
64,192,72234,1,0,0:0:0:0:
448,192,72354,1,0,0:0:0:0:
320,192,72594,1,0,0:0:0:0:
64,192,72594,1,0,0:0:0:0:
448,192,72834,1,0,0:0:0:0:
320,192,73074,1,0,0:0:0:0:
64,192,73074,1,0,0:0:0:0:
448,192,73314,1,0,0:0:0:0:
320,192,73554,1,0,0:0:0:0:
64,192,73554,1,0,0:0:0:0:
320,192,73794,1,0,0:0:0:0:
64,192,73794,1,0,0:0:0:0:
64,192,74154,1,0,0:0:0:0:
192,192,74154,1,0,0:0:0:0:
320,192,74274,128,0,75714:0:0:0:0:
448,192,74274,1,0,0:0:0:0:
64,192,74514,1,0,0:0:0:0:
192,192,74754,1,0,0:0:0:0:
64,192,74994,1,0,0:0:0:0:
448,192,75234,1,0,0:0:0:0:
64,192,75474,1,0,0:0:0:0:
192,192,75714,1,0,0:0:0:0:
448,192,75714,1,0,0:0:0:0:
320,192,76074,1,0,0:0:0:0:
192,192,76074,1,0,0:0:0:0:
448,192,76194,1,0,0:0:0:0:
320,192,76434,1,0,0:0:0:0:
192,192,76434,1,0,0:0:0:0:
448,192,76674,1,0,0:0:0:0:
320,192,76914,1,0,0:0:0:0:
192,192,76914,1,0,0:0:0:0:
64,192,77154,1,0,0:0:0:0:
192,192,77154,1,0,0:0:0:0:
192,192,77274,1,0,0:0:0:0:
320,192,77274,1,0,0:0:0:0:
448,192,77394,1,0,0:0:0:0:
320,192,77394,1,0,0:0:0:0:
448,192,77634,1,8,0:0:0:0:
320,192,77634,1,8,0:0:0:0:
64,192,77634,1,8,0:0:0:0:
320,192,77994,1,0,0:0:0:0:
192,192,77994,1,0,0:0:0:0:
64,192,78114,1,8,0:0:0:0:
320,192,78354,1,0,0:0:0:0:
192,192,78354,1,0,0:0:0:0:
448,192,78594,1,8,0:0:0:0:
192,192,78834,1,0,0:0:0:0:
448,192,78834,1,0,0:0:0:0:
64,192,79074,1,8,0:0:0:0:
448,192,79314,1,0,0:0:0:0:
320,192,79314,1,0,0:0:0:0:
64,192,79554,1,8,0:0:0:0:
320,192,79554,1,8,0:0:0:0:
448,192,79554,1,8,0:0:0:0:
192,192,79914,1,0,0:0:0:0:
64,192,79914,1,0,0:0:0:0:
64,192,80034,1,8,0:0:0:0:
64,192,80274,1,0,0:0:0:0:
192,192,80274,1,0,0:0:0:0:
448,192,80514,1,8,0:0:0:0:
64,192,80754,1,0,0:0:0:0:
192,192,80754,1,0,0:0:0:0:
64,192,80994,1,8,0:0:0:0:
448,192,81234,1,0,0:0:0:0:
192,192,81234,1,0,0:0:0:0:
448,192,81474,1,8,0:0:0:0:
320,192,81474,1,8,0:0:0:0:
64,192,81474,1,8,0:0:0:0:
64,192,81834,1,0,0:0:0:0:
320,192,81834,1,0,0:0:0:0:
192,192,81954,1,8,0:0:0:0:
320,192,82194,1,0,0:0:0:0:
64,192,82194,1,0,0:0:0:0:
448,192,82434,1,8,0:0:0:0:
64,192,82674,1,0,0:0:0:0:
320,192,82674,1,0,0:0:0:0:
64,192,82914,1,8,0:0:0:0:
320,192,83154,1,0,0:0:0:0:
448,192,83154,1,0,0:0:0:0:
192,192,83394,1,8,0:0:0:0:
64,192,83394,1,8,0:0:0:0:
448,192,83394,1,8,0:0:0:0:
448,192,83754,1,0,0:0:0:0:
192,192,83754,1,0,0:0:0:0:
64,192,83874,1,8,0:0:0:0:
192,192,84114,1,0,0:0:0:0:
448,192,84114,1,0,0:0:0:0:
448,192,84354,1,8,0:0:0:0:
64,192,84594,1,0,0:0:0:0:
320,192,84594,1,0,0:0:0:0:
192,192,84834,1,0,0:0:0:0:
64,192,84834,1,0,0:0:0:0:
320,192,85074,1,0,0:0:0:0:
448,192,85074,1,0,0:0:0:0:
192,192,85314,1,8,0:0:0:0:
64,192,85314,1,8,0:0:0:0:
448,192,85314,1,8,0:0:0:0:
64,192,85674,1,0,0:0:0:0:
192,192,85674,1,0,0:0:0:0:
64,192,85794,1,8,0:0:0:0:
192,192,86034,1,0,0:0:0:0:
64,192,86034,1,0,0:0:0:0:
448,192,86274,1,8,0:0:0:0:
64,192,86514,1,0,0:0:0:0:
320,192,86514,1,0,0:0:0:0:
64,192,86754,1,8,0:0:0:0:
320,192,86994,1,0,0:0:0:0:
192,192,86994,1,0,0:0:0:0:
192,192,87234,1,8,0:0:0:0:
448,192,87234,1,8,0:0:0:0:
64,192,87234,1,8,0:0:0:0:
320,192,87594,1,0,0:0:0:0:
448,192,87594,1,0,0:0:0:0:
64,192,87714,1,8,0:0:0:0:
448,192,87954,1,0,0:0:0:0:
320,192,87954,1,0,0:0:0:0:
448,192,88194,1,8,0:0:0:0:
320,192,88434,1,0,0:0:0:0:
448,192,88434,1,0,0:0:0:0:
64,192,88674,1,8,0:0:0:0:
320,192,88914,1,0,0:0:0:0:
448,192,88914,1,0,0:0:0:0:
192,192,89154,1,8,0:0:0:0:
448,192,89154,1,8,0:0:0:0:
64,192,89154,1,8,0:0:0:0:
320,192,89514,1,0,0:0:0:0:
64,192,89514,1,0,0:0:0:0:
64,192,89634,1,8,0:0:0:0:
64,192,89874,1,0,0:0:0:0:
320,192,89874,1,0,0:0:0:0:
448,192,90114,1,8,0:0:0:0:
320,192,90354,1,0,0:0:0:0:
64,192,90354,1,8,0:0:0:0:
64,192,90594,1,0,0:0:0:0:
192,192,90594,1,0,0:0:0:0:
448,192,90834,1,0,0:0:0:0:
320,192,90834,1,0,0:0:0:0:
320,192,91074,1,8,0:0:0:0:
192,192,91074,1,8,0:0:0:0:
448,192,91074,1,8,0:0:0:0:
192,192,91434,1,0,0:0:0:0:
64,192,91434,1,0,0:0:0:0:
64,192,91554,1,8,0:0:0:0:
192,192,91794,1,0,0:0:0:0:
64,192,91794,1,0,0:0:0:0:
448,192,92034,1,8,0:0:0:0:
448,192,92274,1,0,0:0:0:0:
192,192,92274,1,0,0:0:0:0:
192,192,92514,1,0,0:0:0:0:
64,192,92514,1,0,0:0:0:0:
320,192,92754,1,0,0:0:0:0:
448,192,92754,1,0,0:0:0:0:
192,192,92994,1,0,0:0:0:0:
64,192,92994,1,0,0:0:0:0:
448,192,92994,1,0,0:0:0:0:
320,192,93354,1,0,0:0:0:0:
64,192,93354,1,0,0:0:0:0:
448,192,93474,1,8,0:0:0:0:
64,192,93714,1,0,0:0:0:0:
320,192,93714,1,0,0:0:0:0:
192,192,94194,1,0,0:0:0:0:
448,192,94194,1,0,0:0:0:0:
64,192,94434,1,8,0:0:0:0:
448,192,94674,1,0,0:0:0:0:
192,192,94674,1,0,0:0:0:0:
64,192,94914,1,0,0:0:0:0:
448,192,94914,1,0,0:0:0:0:
192,192,95274,1,0,0:0:0:0:
320,192,95274,1,0,0:0:0:0:
64,192,95394,1,8,0:0:0:0:
320,192,95634,1,0,0:0:0:0:
192,192,95634,1,0,0:0:0:0:
192,192,96114,1,0,0:0:0:0:
320,192,96114,1,0,0:0:0:0:
320,192,96354,1,8,0:0:0:0:
448,192,96594,1,0,0:0:0:0:
192,192,96594,1,0,0:0:0:0:
64,192,96834,1,0,0:0:0:0:
320,192,96834,1,0,0:0:0:0:
64,192,97194,1,0,0:0:0:0:
320,192,97194,1,0,0:0:0:0:
448,192,97314,1,8,0:0:0:0:
320,192,97554,1,0,0:0:0:0:
64,192,97554,1,0,0:0:0:0:
320,192,98034,1,0,0:0:0:0:
64,192,98034,1,0,0:0:0:0:
64,192,98274,1,8,0:0:0:0:
320,192,98514,1,0,0:0:0:0:
448,192,98514,1,0,0:0:0:0:
192,192,98754,1,0,0:0:0:0:
448,192,98754,1,0,0:0:0:0:
448,192,99114,1,0,0:0:0:0:
192,192,99114,1,0,0:0:0:0:
64,192,99234,1,8,0:0:0:0:
320,192,99474,1,0,0:0:0:0:
192,192,99474,1,0,0:0:0:0:
448,192,99714,1,0,0:0:0:0:
192,192,99714,1,0,0:0:0:0:
192,192,99954,1,0,0:0:0:0:
320,192,99954,1,0,0:0:0:0:
448,192,100194,1,0,0:0:0:0:
64,192,100194,1,0,0:0:0:0:
192,192,100434,1,0,0:0:0:0:
448,192,100434,1,0,0:0:0:0:
192,192,101154,1,0,0:0:0:0:
448,192,101154,1,0,0:0:0:0:
64,192,101874,1,0,0:0:0:0:
192,192,101874,1,0,0:0:0:0:
448,192,102114,1,0,0:0:0:0:
320,192,102114,1,0,0:0:0:0:
320,192,102594,128,0,103554:0:0:0:0:
192,192,102594,1,0,0:0:0:0:
64,192,102594,1,0,0:0:0:0:
64,192,102954,1,0,0:0:0:0:
192,192,102954,1,0,0:0:0:0:
448,192,103074,1,0,0:0:0:0:
64,192,103314,1,0,0:0:0:0:
192,192,103314,1,0,0:0:0:0:
192,192,103794,1,0,0:0:0:0:
64,192,103794,1,0,0:0:0:0:
320,192,104034,1,0,0:0:0:0:
320,192,104274,1,0,0:0:0:0:
192,192,104274,1,0,0:0:0:0:
448,192,104514,128,0,105474:0:0:0:0:
64,192,104514,1,0,0:0:0:0:
320,192,104514,1,0,0:0:0:0:
320,192,104874,1,0,0:0:0:0:
64,192,104874,1,0,0:0:0:0:
192,192,104994,1,0,0:0:0:0:
320,192,105234,1,0,0:0:0:0:
64,192,105234,1,0,0:0:0:0:
320,192,105714,1,0,0:0:0:0:
192,192,105714,1,0,0:0:0:0:
448,192,105954,1,0,0:0:0:0:
64,192,106194,128,0,106914:0:0:0:0:
448,192,106194,1,0,0:0:0:0:
192,192,106434,1,0,0:0:0:0:
320,192,106434,1,0,0:0:0:0:
192,192,106794,1,0,0:0:0:0:
448,192,106794,1,0,0:0:0:0:
320,192,106914,1,0,0:0:0:0:
448,192,107154,1,0,0:0:0:0:
192,192,107154,1,0,0:0:0:0:
448,192,107634,1,0,0:0:0:0:
192,192,107634,1,0,0:0:0:0:
192,192,107874,1,0,0:0:0:0:
64,192,107874,1,0,0:0:0:0:
320,192,108114,1,0,0:0:0:0:
192,192,108114,1,0,0:0:0:0:
320,192,108354,1,0,0:0:0:0:
448,192,108354,1,0,0:0:0:0:
320,192,108714,1,0,0:0:0:0:
448,192,108714,1,0,0:0:0:0:
192,192,108834,1,0,0:0:0:0:
64,192,109074,1,0,0:0:0:0:
320,192,109074,1,0,0:0:0:0:
192,192,109554,1,0,0:0:0:0:
320,192,109554,1,0,0:0:0:0:
448,192,109794,1,0,0:0:0:0:
192,192,110034,1,0,0:0:0:0:
64,192,110034,1,0,0:0:0:0:
320,192,110274,128,0,111234:0:0:0:0:
64,192,110274,1,0,0:0:0:0:
448,192,110274,1,0,0:0:0:0:
448,192,110634,1,0,0:0:0:0:
64,192,110634,1,0,0:0:0:0:
192,192,110754,1,0,0:0:0:0:
448,192,110994,1,0,0:0:0:0:
64,192,110994,1,0,0:0:0:0:
448,192,111474,1,0,0:0:0:0:
64,192,111474,1,0,0:0:0:0:
320,192,111714,1,0,0:0:0:0:
64,192,111954,128,0,112674:0:0:0:0:
448,192,111954,1,0,0:0:0:0:
192,192,112194,1,0,0:0:0:0:
320,192,112194,1,0,0:0:0:0:
320,192,112554,1,0,0:0:0:0:
192,192,112554,1,0,0:0:0:0:
448,192,112674,1,0,0:0:0:0:
192,192,112914,1,0,0:0:0:0:
320,192,112914,1,0,0:0:0:0:
192,192,113394,1,0,0:0:0:0:
320,192,113394,1,0,0:0:0:0:
320,192,113634,1,0,0:0:0:0:
448,192,113874,128,0,114594:0:0:0:0:
192,192,113874,1,0,0:0:0:0:
64,192,114114,1,0,0:0:0:0:
320,192,114114,1,0,0:0:0:0:
320,192,114474,1,0,0:0:0:0:
64,192,114474,1,0,0:0:0:0:
192,192,114834,128,0,115554:0:0:0:0:
320,192,114834,1,0,0:0:0:0:
64,192,114834,1,0,0:0:0:0:
64,192,115314,1,0,0:0:0:0:
320,192,115314,1,0,0:0:0:0:
320,192,115554,1,0,0:0:0:0:
448,192,115554,1,0,0:0:0:0:
64,192,116034,1,0,0:0:0:0:
192,192,116034,1,0,0:0:0:0:
320,192,116274,1,0,0:0:0:0:
192,192,116394,1,0,0:0:0:0:
64,192,116394,1,0,0:0:0:0:
448,192,116514,1,0,0:0:0:0:
192,192,116754,1,0,0:0:0:0:
64,192,116754,1,0,0:0:0:0:
192,192,117234,1,0,0:0:0:0:
448,192,117234,1,0,0:0:0:0:
64,192,117474,1,0,0:0:0:0:
192,192,117714,1,0,0:0:0:0:
448,192,117714,1,0,0:0:0:0:
320,192,117954,128,0,118914:0:0:0:0:
64,192,117954,1,0,0:0:0:0:
448,192,117954,1,0,0:0:0:0:
192,192,118194,1,0,0:0:0:0:
448,192,118314,1,0,0:0:0:0:
64,192,118314,1,0,0:0:0:0:
192,192,118434,1,0,0:0:0:0:
448,192,118674,1,0,0:0:0:0:
64,192,118674,1,0,0:0:0:0:
192,192,119154,1,0,0:0:0:0:
448,192,119154,1,0,0:0:0:0:
320,192,119394,1,0,0:0:0:0:
192,192,119634,128,0,120834:0:0:0:0:
64,192,119874,1,0,0:0:0:0:
448,192,119874,1,0,0:0:0:0:
320,192,120114,1,0,0:0:0:0:
64,192,120234,1,0,0:0:0:0:
448,192,120234,1,0,0:0:0:0:
320,192,120354,1,0,0:0:0:0:
64,192,120594,1,0,0:0:0:0:
448,192,120594,1,0,0:0:0:0:
320,192,121074,1,0,0:0:0:0:
64,192,121074,1,0,0:0:0:0:
192,192,121314,1,0,0:0:0:0:
448,192,121794,128,0,122274:0:0:0:0:
64,192,121794,1,0,0:0:0:0:
320,192,121794,1,0,0:0:0:0:
320,192,122034,1,0,0:0:0:0:
192,192,122154,1,0,0:0:0:0:
64,192,122154,1,0,0:0:0:0:
320,192,122274,1,0,0:0:0:0:
192,192,122514,1,0,0:0:0:0:
64,192,122514,1,0,0:0:0:0:
192,192,122994,1,0,0:0:0:0:
320,192,122994,1,0,0:0:0:0:
320,192,123234,1,0,0:0:0:0:
448,192,123234,1,0,0:0:0:0:
64,192,123714,1,0,0:0:0:0:
192,192,123714,1,0,0:0:0:0:
320,192,123954,1,0,0:0:0:0:
192,192,124074,1,0,0:0:0:0:
64,192,124074,1,0,0:0:0:0:
448,192,124194,1,0,0:0:0:0:
64,192,124434,1,0,0:0:0:0:
192,192,124434,1,0,0:0:0:0:
192,192,124914,1,0,0:0:0:0:
64,192,124914,1,0,0:0:0:0:
320,192,125154,1,0,0:0:0:0:
192,192,125394,1,0,0:0:0:0:
448,192,125394,1,0,0:0:0:0:
320,192,125634,128,0,126594:0:0:0:0:
64,192,125634,1,0,0:0:0:0:
192,192,125634,1,0,0:0:0:0:
448,192,125874,1,0,0:0:0:0:
192,192,125994,1,0,0:0:0:0:
64,192,125994,1,0,0:0:0:0:
448,192,126114,1,0,0:0:0:0:
192,192,126354,1,0,0:0:0:0:
64,192,126354,1,0,0:0:0:0:
192,192,126834,1,0,0:0:0:0:
448,192,126834,1,0,0:0:0:0:
192,192,127074,1,0,0:0:0:0:
320,192,127074,1,0,0:0:0:0:
64,192,127314,128,0,128034:0:0:0:0:
192,192,127554,1,0,0:0:0:0:
320,192,127554,1,0,0:0:0:0:
448,192,127794,1,0,0:0:0:0:
320,192,127914,1,0,0:0:0:0:
192,192,127914,1,0,0:0:0:0:
448,192,128034,1,0,0:0:0:0:
192,192,128274,1,0,0:0:0:0:
320,192,128274,1,0,0:0:0:0:
192,192,128754,1,0,0:0:0:0:
320,192,128754,1,0,0:0:0:0:
320,192,128994,1,0,0:0:0:0:
192,192,129474,1,0,0:0:0:0:
320,192,129474,1,0,0:0:0:0:
320,192,129714,1,0,0:0:0:0:
192,192,129714,1,0,0:0:0:0:
64,192,129834,1,0,0:0:0:0:
448,192,129834,1,0,0:0:0:0:
320,192,129954,1,0,0:0:0:0:
192,192,130194,1,0,0:0:0:0:
320,192,130194,1,0,0:0:0:0:
320,192,130674,128,0,131154:0:0:0:0:
64,192,130674,1,0,0:0:0:0:
448,192,130674,1,0,0:0:0:0:
192,192,130914,1,0,0:0:0:0:
448,192,130914,1,0,0:0:0:0:
192,192,131394,1,0,0:0:0:0:
64,192,131394,1,0,0:0:0:0:
448,192,131394,1,0,0:0:0:0:
192,192,131874,1,0,0:0:0:0:
192,192,132354,1,0,0:0:0:0:
320,192,132594,1,0,0:0:0:0:
448,192,132594,1,0,0:0:0:0:
192,192,132834,1,0,0:0:0:0:
448,192,133074,128,0,134274:0:0:0:0:
64,192,133314,1,0,0:0:0:0:
320,192,133314,1,0,0:0:0:0:
320,192,133554,1,0,0:0:0:0:
192,192,133674,1,0,0:0:0:0:
64,192,133674,1,0,0:0:0:0:
320,192,133794,1,0,0:0:0:0:
64,192,134034,1,0,0:0:0:0:
192,192,134034,1,0,0:0:0:0:
320,192,134274,1,0,0:0:0:0:
64,192,134514,1,0,0:0:0:0:
320,192,134514,1,0,0:0:0:0:
192,192,134754,1,0,0:0:0:0:
192,192,134994,1,0,0:0:0:0:
448,192,134994,1,0,0:0:0:0:
448,192,135234,128,0,136194:0:0:0:0:
192,192,135234,1,0,0:0:0:0:
64,192,135234,1,0,0:0:0:0:
192,192,135474,1,0,0:0:0:0:
320,192,135594,1,0,0:0:0:0:
64,192,135594,1,0,0:0:0:0:
192,192,135714,1,0,0:0:0:0:
64,192,135954,1,0,0:0:0:0:
320,192,135954,1,0,0:0:0:0:
192,192,136194,1,0,0:0:0:0:
192,192,136434,1,0,0:0:0:0:
64,192,136434,1,0,0:0:0:0:
320,192,136674,1,0,0:0:0:0:
64,192,136914,128,0,137514:0:0:0:0:
192,192,137154,1,0,0:0:0:0:
320,192,137154,1,0,0:0:0:0:
448,192,137394,1,0,0:0:0:0:
192,192,137514,1,0,0:0:0:0:
320,192,137514,1,0,0:0:0:0:
320,192,137634,1,0,0:0:0:0:
192,192,137874,1,0,0:0:0:0:
448,192,137874,1,0,0:0:0:0:
64,192,138114,128,0,139074:0:0:0:0:
320,192,138114,1,0,0:0:0:0:
192,192,138354,1,0,0:0:0:0:
448,192,138354,1,0,0:0:0:0:
320,192,138594,1,0,0:0:0:0:
448,192,138834,1,0,0:0:0:0:
192,192,138834,1,0,0:0:0:0:
320,192,139074,1,0,0:0:0:0:
448,192,139074,128,0,140034:0:0:0:0:
192,192,139074,1,0,0:0:0:0:
192,192,139314,1,0,0:0:0:0:
320,192,139434,1,0,0:0:0:0:
64,192,139434,1,0,0:0:0:0:
192,192,139554,1,0,0:0:0:0:
320,192,139794,1,0,0:0:0:0:
64,192,139794,1,0,0:0:0:0:
192,192,140034,1,0,0:0:0:0:
320,192,140274,1,0,0:0:0:0:
64,192,140274,1,0,0:0:0:0:
192,192,140514,1,0,0:0:0:0:
448,192,140754,128,0,141954:0:0:0:0:
64,192,140754,1,0,0:0:0:0:
320,192,140754,1,0,0:0:0:0:
192,192,140994,1,0,0:0:0:0:
64,192,140994,1,0,0:0:0:0:
320,192,141234,1,0,0:0:0:0:
192,192,141354,1,0,0:0:0:0:
64,192,141354,1,0,0:0:0:0:
320,192,141474,1,0,0:0:0:0:
192,192,141714,1,0,0:0:0:0:
64,192,141714,1,0,0:0:0:0:
320,192,141954,1,0,0:0:0:0:
320,192,142194,1,0,0:0:0:0:
192,192,142194,1,0,0:0:0:0:
448,192,142434,1,0,0:0:0:0:
64,192,142674,1,0,0:0:0:0:
320,192,142674,1,0,0:0:0:0:
448,192,142914,1,0,0:0:0:0:
64,192,142914,1,0,0:0:0:0:
320,192,142914,1,0,0:0:0:0:
192,192,143154,1,0,0:0:0:0:
320,192,143274,1,0,0:0:0:0:
448,192,143274,1,0,0:0:0:0:
192,192,143394,1,0,0:0:0:0:
320,192,143634,1,0,0:0:0:0:
448,192,143634,1,0,0:0:0:0:
320,192,143874,1,0,0:0:0:0:
320,192,144114,1,0,0:0:0:0:
448,192,144114,1,0,0:0:0:0:
192,192,144354,1,0,0:0:0:0:
320,192,144594,128,0,146274:0:0:0:0:
64,192,144594,1,0,0:0:0:0:
192,192,144834,1,0,0:0:0:0:
448,192,144834,1,0,0:0:0:0:
64,192,145074,1,0,0:0:0:0:
192,192,145194,1,0,0:0:0:0:
448,192,145194,1,0,0:0:0:0:
64,192,145314,1,0,0:0:0:0:
192,192,145554,1,0,0:0:0:0:
448,192,145554,1,0,0:0:0:0:
64,192,145794,1,0,0:0:0:0:
192,192,146034,1,0,0:0:0:0:
448,192,146034,1,0,0:0:0:0:
64,192,146274,1,0,0:0:0:0:
320,192,146514,128,0,146754:0:0:0:0:
64,192,146514,1,0,0:0:0:0:
448,192,146514,1,0,0:0:0:0:
448,192,146754,1,0,0:0:0:0:
64,192,146754,1,0,0:0:0:0:
64,192,147114,1,0,0:0:0:0:
320,192,147114,1,0,0:0:0:0:
192,192,147234,1,0,0:0:0:0:
64,192,147474,1,0,0:0:0:0:
320,192,147474,1,0,0:0:0:0:
448,192,147714,1,0,0:0:0:0:
192,192,147954,1,0,0:0:0:0:
320,192,147954,1,0,0:0:0:0:
64,192,148194,1,0,0:0:0:0:
320,192,148434,1,0,0:0:0:0:
192,192,148434,1,0,0:0:0:0:
320,192,148674,128,0,149634:0:0:0:0:
448,192,148674,1,0,0:0:0:0:
64,192,148674,1,0,0:0:0:0:
448,192,149034,1,0,0:0:0:0:
192,192,149034,1,0,0:0:0:0:
64,192,149154,1,0,0:0:0:0:
448,192,149394,1,0,0:0:0:0:
192,192,149394,1,0,0:0:0:0:
64,192,149634,1,0,0:0:0:0:
64,192,149874,1,0,0:0:0:0:
448,192,149874,1,0,0:0:0:0:
448,192,150114,1,0,0:0:0:0:
192,192,150354,1,0,0:0:0:0:
448,192,150354,1,0,0:0:0:0:
448,192,150594,128,0,151554:0:0:0:0:
320,192,150594,1,0,0:0:0:0:
64,192,150594,1,0,0:0:0:0:
320,192,150954,1,0,0:0:0:0:
64,192,150954,1,0,0:0:0:0:
192,192,151074,1,0,0:0:0:0:
320,192,151314,1,0,0:0:0:0:
64,192,151314,1,0,0:0:0:0:
64,192,151554,1,0,0:0:0:0:
192,192,151794,1,0,0:0:0:0:
320,192,151794,1,0,0:0:0:0:
192,192,152034,1,0,0:0:0:0:
64,192,152274,128,0,152754:0:0:0:0:
192,192,152274,1,0,0:0:0:0:
320,192,152274,1,0,0:0:0:0:
320,192,152514,1,0,0:0:0:0:
448,192,152514,1,0,0:0:0:0:
320,192,152874,1,0,0:0:0:0:
448,192,152874,1,0,0:0:0:0:
192,192,152994,1,0,0:0:0:0:
64,192,153234,1,0,0:0:0:0:
320,192,153234,1,0,0:0:0:0:
448,192,153474,1,0,0:0:0:0:
320,192,153714,1,0,0:0:0:0:
64,192,153714,1,0,0:0:0:0:
192,192,153954,1,0,0:0:0:0:
64,192,154194,1,0,0:0:0:0:
448,192,154194,1,0,0:0:0:0:
320,192,154434,128,0,158274:0:0:0:0:
192,192,154434,1,0,0:0:0:0:
448,192,154434,1,0,0:0:0:0:
192,192,154794,1,0,0:0:0:0:
448,192,154794,1,0,0:0:0:0:
64,192,154914,1,0,0:0:0:0:
192,192,155154,1,0,0:0:0:0:
448,192,155154,1,0,0:0:0:0:
64,192,155394,1,0,0:0:0:0:
192,192,155634,1,0,0:0:0:0:
448,192,155634,1,0,0:0:0:0:
64,192,155874,1,0,0:0:0:0:
192,192,156114,1,0,0:0:0:0:
448,192,156354,1,0,0:0:0:0:
192,192,156354,1,0,0:0:0:0:
448,192,156714,1,0,0:0:0:0:
192,192,156714,1,0,0:0:0:0:
64,192,156834,1,0,0:0:0:0:
448,192,157074,1,0,0:0:0:0:
192,192,157074,1,0,0:0:0:0:
64,192,157314,1,0,0:0:0:0:
448,192,157554,1,0,0:0:0:0:
192,192,157554,1,0,0:0:0:0:
64,192,157794,1,0,0:0:0:0:
448,192,158034,1,0,0:0:0:0:
192,192,158034,1,0,0:0:0:0:
64,192,158274,1,0,0:0:0:0:
448,192,158274,1,0,0:0:0:0:
192,192,158634,1,0,0:0:0:0:
448,192,158634,1,0,0:0:0:0:
64,192,158754,1,0,0:0:0:0:
192,192,158994,1,0,0:0:0:0:
448,192,158994,1,0,0:0:0:0:
320,192,159234,1,0,0:0:0:0:
192,192,159474,1,0,0:0:0:0:
448,192,159474,1,0,0:0:0:0:
320,192,159714,1,0,0:0:0:0:
64,192,159954,1,0,0:0:0:0:
320,192,159954,1,0,0:0:0:0:
448,192,160194,1,0,0:0:0:0:
192,192,160194,128,0,161154:0:0:0:0:
64,192,160194,1,0,0:0:0:0:
320,192,160554,1,0,0:0:0:0:
64,192,160554,1,0,0:0:0:0:
448,192,160674,1,0,0:0:0:0:
64,192,160914,1,0,0:0:0:0:
320,192,160914,1,0,0:0:0:0:
64,192,161154,128,0,162114:0:0:0:0:
448,192,161154,1,0,0:0:0:0:
320,192,161394,1,0,0:0:0:0:
192,192,161394,1,0,0:0:0:0:
448,192,161634,1,0,0:0:0:0:
320,192,161874,1,0,0:0:0:0:
192,192,161874,1,0,0:0:0:0:
448,192,162114,128,0,165954:0:0:0:0:
192,192,162114,1,0,0:0:0:0:
320,192,162114,1,0,0:0:0:0:
192,192,162474,1,0,0:0:0:0:
320,192,162474,1,0,0:0:0:0:
64,192,162594,1,0,0:0:0:0:
192,192,162834,1,0,0:0:0:0:
320,192,162834,1,0,0:0:0:0:
64,192,163074,1,0,0:0:0:0:
192,192,163314,1,0,0:0:0:0:
320,192,163314,1,0,0:0:0:0:
64,192,163554,1,0,0:0:0:0:
192,192,163794,1,0,0:0:0:0:
320,192,163794,1,0,0:0:0:0:
320,192,164034,1,0,0:0:0:0:
64,192,164034,1,0,0:0:0:0:
320,192,164394,1,0,0:0:0:0:
64,192,164394,1,0,0:0:0:0:
192,192,164514,128,0,165954:0:0:0:0:
320,192,164754,1,0,0:0:0:0:
64,192,164754,1,0,0:0:0:0:
320,192,165234,1,0,0:0:0:0:
64,192,165234,1,0,0:0:0:0:
320,192,165714,1,0,0:0:0:0:
64,192,165714,1,0,0:0:0:0:
64,192,165954,1,0,0:0:0:0:
320,192,165954,1,0,0:0:0:0:
192,192,166314,1,0,0:0:0:0:
64,192,166314,1,0,0:0:0:0:
448,192,166434,1,0,0:0:0:0:
192,192,166674,128,0,167154:0:0:0:0:
64,192,166674,1,0,0:0:0:0:
448,192,166674,128,0,167154:0:0:0:0:
320,192,166674,1,0,0:0:0:0:
320,192,166914,1,0,0:0:0:0:
64,192,167154,1,0,0:0:0:0:
320,192,167154,1,0,0:0:0:0:
192,192,167394,128,0,167754:0:0:0:0:
448,192,167394,1,0,0:0:0:0:
320,192,167394,128,0,167754:0:0:0:0:
448,192,167634,1,0,0:0:0:0:
64,192,167634,1,0,0:0:0:0:
192,192,167874,1,0,0:0:0:0:
320,192,167874,1,0,0:0:0:0:
192,192,168234,1,0,0:0:0:0:
320,192,168234,1,0,0:0:0:0:
64,192,168594,1,0,0:0:0:0:
192,192,168594,1,0,0:0:0:0:
320,192,168834,1,0,0:0:0:0:
192,192,169074,1,0,0:0:0:0:
448,192,169074,1,0,0:0:0:0:
320,192,169314,1,0,0:0:0:0:
64,192,169314,1,0,0:0:0:0:
192,192,169434,1,0,0:0:0:0:
448,192,169434,1,0,0:0:0:0:
448,192,169554,1,0,0:0:0:0:
320,192,169554,1,0,0:0:0:0:
320,192,169794,1,8,0:0:0:0:
64,192,169794,1,8,0:0:0:0:
448,192,169794,1,8,0:0:0:0:
192,192,170154,1,0,0:0:0:0:
64,192,170154,1,0,0:0:0:0:
64,192,170274,1,8,0:0:0:0:
192,192,170514,1,0,0:0:0:0:
64,192,170514,1,0,0:0:0:0:
448,192,170754,1,8,0:0:0:0:
320,192,170994,1,0,0:0:0:0:
64,192,170994,1,0,0:0:0:0:
64,192,171234,1,8,0:0:0:0:
192,192,171474,1,0,0:0:0:0:
320,192,171474,1,0,0:0:0:0:
192,192,171714,1,8,0:0:0:0:
448,192,171714,1,8,0:0:0:0:
64,192,171714,1,8,0:0:0:0:
448,192,172074,1,0,0:0:0:0:
192,192,172074,1,0,0:0:0:0:
448,192,172194,1,8,0:0:0:0:
448,192,172434,1,0,0:0:0:0:
192,192,172434,1,0,0:0:0:0:
64,192,172674,1,8,0:0:0:0:
448,192,172914,1,0,0:0:0:0:
192,192,172914,1,0,0:0:0:0:
448,192,173154,1,8,0:0:0:0:
320,192,173394,1,0,0:0:0:0:
320,192,173634,1,8,0:0:0:0:
448,192,173634,1,8,0:0:0:0:
64,192,173634,1,8,0:0:0:0:
320,192,173994,1,0,0:0:0:0:
64,192,173994,1,0,0:0:0:0:
448,192,174114,1,8,0:0:0:0:
320,192,174354,1,0,0:0:0:0:
64,192,174354,1,0,0:0:0:0:
64,192,174594,1,8,0:0:0:0:
64,192,174834,1,0,0:0:0:0:
320,192,174834,1,0,0:0:0:0:
448,192,175074,1,8,0:0:0:0:
192,192,175314,1,0,0:0:0:0:
320,192,175314,1,0,0:0:0:0:
192,192,175554,1,8,0:0:0:0:
64,192,175554,1,8,0:0:0:0:
448,192,175554,1,8,0:0:0:0:
192,192,175914,1,0,0:0:0:0:
64,192,175914,1,0,0:0:0:0:
64,192,176034,1,8,0:0:0:0:
192,192,176274,1,0,0:0:0:0:
320,192,176274,1,0,0:0:0:0:
448,192,176514,1,0,0:0:0:0:
64,192,176514,1,0,0:0:0:0:
320,192,176754,1,0,0:0:0:0:
192,192,176754,1,0,0:0:0:0:
64,192,176994,1,0,0:0:0:0:
448,192,176994,1,0,0:0:0:0:
448,192,177234,1,0,0:0:0:0:
192,192,177234,1,0,0:0:0:0:
192,192,177474,1,8,0:0:0:0:
64,192,177474,1,8,0:0:0:0:
448,192,177474,1,8,0:0:0:0:
192,192,177834,1,0,0:0:0:0:
64,192,177834,1,0,0:0:0:0:
64,192,177954,1,8,0:0:0:0:
192,192,178194,1,0,0:0:0:0:
64,192,178194,1,0,0:0:0:0:
448,192,178434,1,8,0:0:0:0:
320,192,178674,1,0,0:0:0:0:
64,192,178674,1,0,0:0:0:0:
64,192,178914,1,8,0:0:0:0:
192,192,179154,1,0,0:0:0:0:
320,192,179154,1,0,0:0:0:0:
192,192,179394,1,8,0:0:0:0:
448,192,179394,1,8,0:0:0:0:
64,192,179394,1,8,0:0:0:0:
320,192,179754,1,0,0:0:0:0:
448,192,179754,1,0,0:0:0:0:
448,192,179874,1,8,0:0:0:0:
448,192,180114,1,0,0:0:0:0:
320,192,180114,1,0,0:0:0:0:
64,192,180354,1,8,0:0:0:0:
320,192,180594,1,0,0:0:0:0:
448,192,180594,1,0,0:0:0:0:
448,192,180834,1,8,0:0:0:0:
448,192,181074,1,0,0:0:0:0:
192,192,181074,1,0,0:0:0:0:
320,192,181314,1,8,0:0:0:0:
64,192,181314,1,8,0:0:0:0:
448,192,181314,1,8,0:0:0:0:
320,192,181674,1,0,0:0:0:0:
64,192,181674,1,0,0:0:0:0:
64,192,181794,1,8,0:0:0:0:
64,192,182034,1,0,0:0:0:0:
320,192,182034,1,0,0:0:0:0:
448,192,182274,1,8,0:0:0:0:
320,192,182514,1,0,0:0:0:0:
64,192,182514,1,0,0:0:0:0:
64,192,182754,1,8,0:0:0:0:
448,192,182994,1,0,0:0:0:0:
320,192,182994,1,0,0:0:0:0:
320,192,183234,1,0,0:0:0:0:
192,192,183234,1,0,0:0:0:0:
320,192,183594,1,0,0:0:0:0:
192,192,183594,1,0,0:0:0:0:
64,192,183954,1,0,0:0:0:0:
192,192,183954,1,0,0:0:0:0:
448,192,184194,1,0,0:0:0:0:
320,192,184194,1,0,0:0:0:0:
192,192,184434,1,0,0:0:0:0:
320,192,184434,1,0,0:0:0:0:
320,192,184674,1,0,0:0:0:0:
64,192,184674,1,0,0:0:0:0:
448,192,184914,1,0,0:0:0:0:
192,192,184914,1,0,0:0:0:0:
320,192,185154,1,8,0:0:0:0:
192,192,185154,1,8,0:0:0:0:
64,192,185154,1,8,0:0:0:0:
320,192,185634,1,8,0:0:0:0:
64,192,185634,1,8,0:0:0:0:
64,192,185874,1,0,0:0:0:0:
192,192,185874,1,0,0:0:0:0:
320,192,186114,1,0,0:0:0:0:
64,192,186114,1,0,0:0:0:0:
192,192,186354,1,0,0:0:0:0:
448,192,186354,1,0,0:0:0:0:
448,192,186594,1,0,0:0:0:0:
64,192,186594,1,0,0:0:0:0:
320,192,186834,1,0,0:0:0:0:
192,192,186834,1,0,0:0:0:0:
192,192,187074,1,8,0:0:0:0:
64,192,187074,1,8,0:0:0:0:
448,192,187074,1,8,0:0:0:0:
192,192,187554,1,8,0:0:0:0:
320,192,187554,1,8,0:0:0:0:
192,192,187794,1,0,0:0:0:0:
448,192,187794,1,0,0:0:0:0:
448,192,188034,1,0,0:0:0:0:
64,192,188034,1,0,0:0:0:0:
64,192,188274,1,0,0:0:0:0:
192,192,188274,1,0,0:0:0:0:
320,192,188514,1,0,0:0:0:0:
448,192,188514,1,0,0:0:0:0:
448,192,188754,1,0,0:0:0:0:
192,192,188754,1,0,0:0:0:0:
320,192,188994,1,8,0:0:0:0:
64,192,188994,1,8,0:0:0:0:
448,192,188994,1,8,0:0:0:0:
320,192,189474,1,8,0:0:0:0:
64,192,189474,1,8,0:0:0:0:
320,192,189714,1,0,0:0:0:0:
192,192,189714,1,0,0:0:0:0:
448,192,189954,1,0,0:0:0:0:
64,192,189954,1,0,0:0:0:0:
64,192,190194,1,0,0:0:0:0:
320,192,190194,1,0,0:0:0:0:
448,192,190434,1,0,0:0:0:0:
64,192,190434,1,0,0:0:0:0:
320,192,190674,1,0,0:0:0:0:
192,192,190674,1,0,0:0:0:0:
64,192,190914,1,8,0:0:0:0:
320,192,190914,1,8,0:0:0:0:
448,192,190914,1,8,0:0:0:0:
320,192,191394,1,8,0:0:0:0:
448,192,191394,1,8,0:0:0:0:
192,192,191634,1,0,0:0:0:0:
320,192,191634,1,0,0:0:0:0:
448,192,191874,1,0,0:0:0:0:
64,192,191874,1,0,0:0:0:0:
192,192,192114,1,0,0:0:0:0:
64,192,192114,1,0,0:0:0:0:
320,192,192354,1,0,0:0:0:0:
448,192,192354,1,0,0:0:0:0:
448,192,192594,1,0,0:0:0:0:
192,192,192594,1,0,0:0:0:0:
192,192,192834,1,8,0:0:0:0:
64,192,192834,1,8,0:0:0:0:
448,192,192834,1,8,0:0:0:0:
192,192,193314,1,8,0:0:0:0:
64,192,193314,1,8,0:0:0:0:
192,192,193554,1,0,0:0:0:0:
448,192,193554,1,0,0:0:0:0:
448,192,193794,1,0,0:0:0:0:
64,192,193794,1,0,0:0:0:0:
64,192,194034,1,0,0:0:0:0:
192,192,194034,1,0,0:0:0:0:
320,192,194274,1,0,0:0:0:0:
448,192,194274,1,0,0:0:0:0:
192,192,194514,1,0,0:0:0:0:
320,192,194514,1,0,0:0:0:0:
320,192,194754,1,8,0:0:0:0:
64,192,194754,1,8,0:0:0:0:
448,192,194754,1,8,0:0:0:0:
320,192,195234,1,8,0:0:0:0:
448,192,195234,1,8,0:0:0:0:
192,192,195474,128,0,196674:0:0:0:0:
320,192,195474,1,0,0:0:0:0:
64,192,195474,1,0,0:0:0:0:
64,192,195954,1,0,0:0:0:0:
320,192,195954,1,0,0:0:0:0:
64,192,196434,1,0,0:0:0:0:
320,192,196674,1,0,0:0:0:0:
448,192,196674,1,0,0:0:0:0:
448,192,197034,1,0,0:0:0:0:
320,192,197034,1,0,0:0:0:0:
192,192,197394,128,0,198594:0:0:0:0:
320,192,197394,1,0,0:0:0:0:
448,192,197394,1,0,0:0:0:0:
448,192,197874,1,0,0:0:0:0:
320,192,197874,1,0,0:0:0:0:
64,192,198354,1,0,0:0:0:0:
320,192,198594,1,0,0:0:0:0:
448,192,198594,1,0,0:0:0:0:
320,192,198954,1,0,0:0:0:0:
448,192,198954,1,0,0:0:0:0:
64,192,199074,1,8,0:0:0:0:
64,192,199314,1,0,0:0:0:0:
320,192,199314,1,0,0:0:0:0:
320,192,199554,1,0,0:0:0:0:
448,192,199554,1,0,0:0:0:0:
192,192,199794,1,0,0:0:0:0:
448,192,199794,1,0,0:0:0:0:
320,192,200034,1,0,0:0:0:0:
64,192,200034,1,0,0:0:0:0:
448,192,200274,1,0,0:0:0:0:
192,192,200274,1,0,0:0:0:0:
448,192,200514,128,0,200994:0:0:0:0:
64,192,200514,1,8,0:0:0:0:
320,192,200514,1,8,0:0:0:0:
320,192,200994,1,0,0:0:0:0:
192,192,200994,1,0,0:0:0:0:
64,192,201234,1,0,0:0:0:0:
320,192,201234,1,0,0:0:0:0:
448,192,201474,1,0,0:0:0:0:
64,192,201474,1,0,0:0:0:0:
192,192,201714,1,0,0:0:0:0:
448,192,201714,1,0,0:0:0:0:
448,192,201954,1,0,0:0:0:0:
64,192,201954,1,0,0:0:0:0:
320,192,202194,1,0,0:0:0:0:
192,192,202194,1,0,0:0:0:0:
192,192,202434,128,0,202914:0:0:0:0:
64,192,202434,128,0,202914:0:0:0:0:
448,192,202434,1,0,0:0:0:0:
320,192,202914,1,0,0:0:0:0:
320,192,203154,1,0,0:0:0:0:
448,192,203154,1,0,0:0:0:0:
448,192,203394,1,0,0:0:0:0:
64,192,203394,1,0,0:0:0:0:
192,192,203634,1,0,0:0:0:0:
64,192,203634,1,0,0:0:0:0:
320,192,203874,1,0,0:0:0:0:
448,192,203874,1,0,0:0:0:0:
448,192,204114,1,0,0:0:0:0:
64,192,204114,1,0,0:0:0:0:
192,192,204354,1,0,0:0:0:0:
320,192,204354,1,0,0:0:0:0:
64,192,204594,128,0,204834:0:0:0:0:
320,192,204594,128,0,204834:0:0:0:0:
448,192,204834,1,0,0:0:0:0:
64,192,205074,128,0,205314:0:0:0:0:
320,192,205074,128,0,205314:0:0:0:0:
192,192,205074,1,0,0:0:0:0:
448,192,205314,1,0,0:0:0:0:
320,192,205554,128,0,205794:0:0:0:0:
64,192,205554,128,0,205794:0:0:0:0:
192,192,205554,1,0,0:0:0:0:
448,192,205794,1,0,0:0:0:0:
64,192,206034,128,0,206274:0:0:0:0:
320,192,206034,128,0,206274:0:0:0:0:
192,192,206034,1,0,0:0:0:0:
448,192,206274,1,0,0:0:0:0:
192,192,206514,128,0,206754:0:0:0:0:
448,192,206514,128,0,206754:0:0:0:0:
64,192,206754,1,0,0:0:0:0:
448,192,206994,128,0,207234:0:0:0:0:
192,192,206994,128,0,207234:0:0:0:0:
320,192,206994,1,0,0:0:0:0:
64,192,207234,1,0,0:0:0:0:
192,192,207474,128,0,207714:0:0:0:0:
448,192,207474,128,0,207714:0:0:0:0:
320,192,207474,1,0,0:0:0:0:
64,192,207714,1,0,0:0:0:0:
448,192,207954,128,0,208194:0:0:0:0:
192,192,207954,128,0,208194:0:0:0:0:
320,192,207954,1,0,0:0:0:0:
64,192,208194,128,0,208674:0:0:0:0:
320,192,208674,1,0,0:0:0:0:
192,192,208914,1,0,0:0:0:0:
64,192,208914,1,0,0:0:0:0:
320,192,209154,1,0,0:0:0:0:
448,192,209154,1,0,0:0:0:0:
64,192,209394,1,0,0:0:0:0:
320,192,209394,1,0,0:0:0:0:
448,192,209634,1,0,0:0:0:0:
64,192,209634,1,0,0:0:0:0:
192,192,209874,1,0,0:0:0:0:
64,192,209874,1,0,0:0:0:0:
320,192,210114,128,0,210594:0:0:0:0:
448,192,210114,1,0,0:0:0:0:
64,192,210594,1,0,0:0:0:0:
192,192,210834,1,0,0:0:0:0:
448,192,210834,1,0,0:0:0:0:
448,192,211074,1,0,0:0:0:0:
64,192,211074,1,0,0:0:0:0:
64,192,211314,1,0,0:0:0:0:
320,192,211314,1,0,0:0:0:0:
192,192,211554,1,0,0:0:0:0:
448,192,211554,1,0,0:0:0:0:
320,192,211794,1,0,0:0:0:0:
64,192,211794,1,0,0:0:0:0:
64,192,212034,1,0,0:0:0:0:
448,192,212034,1,0,0:0:0:0:
320,192,212274,128,0,212514:0:0:0:0:
448,192,212274,128,0,212514:0:0:0:0:
192,192,212514,1,0,0:0:0:0:
320,192,212754,128,0,212994:0:0:0:0:
448,192,212754,128,0,212994:0:0:0:0:
64,192,212754,1,0,0:0:0:0:
192,192,212994,1,0,0:0:0:0:
320,192,213234,128,0,213474:0:0:0:0:
448,192,213234,128,0,213474:0:0:0:0:
64,192,213234,1,0,0:0:0:0:
192,192,213474,1,0,0:0:0:0:
320,192,213714,128,0,213954:0:0:0:0:
448,192,213714,128,0,213954:0:0:0:0:
64,192,213714,1,0,0:0:0:0:
192,192,213954,1,0,0:0:0:0:
192,192,214194,128,0,214434:0:0:0:0:
64,192,214194,128,0,214434:0:0:0:0:
320,192,214434,1,0,0:0:0:0:
64,192,214674,128,0,214914:0:0:0:0:
192,192,214674,128,0,214914:0:0:0:0:
448,192,214674,1,0,0:0:0:0:
320,192,214914,1,0,0:0:0:0:
192,192,215154,128,0,215394:0:0:0:0:
64,192,215154,128,0,215394:0:0:0:0:
448,192,215154,1,0,0:0:0:0:
320,192,215394,1,0,0:0:0:0:
192,192,215634,128,0,215874:0:0:0:0:
64,192,215634,128,0,215874:0:0:0:0:
448,192,215634,1,0,0:0:0:0:
320,192,215874,1,0,0:0:0:0:
448,192,215874,1,0,0:0:0:0:
192,192,216114,128,0,216354:0:0:0:0:
320,192,216114,128,0,216354:0:0:0:0:
448,192,216354,1,0,0:0:0:0:
192,192,216594,128,0,216834:0:0:0:0:
320,192,216594,128,0,216834:0:0:0:0:
64,192,216594,1,0,0:0:0:0:
448,192,216834,1,0,0:0:0:0:
448,192,217074,128,0,217314:0:0:0:0:
64,192,217074,1,0,0:0:0:0:
192,192,217314,1,0,0:0:0:0:
64,192,217314,1,0,0:0:0:0:
320,192,217554,1,0,0:0:0:0:
192,192,217554,128,0,218274:0:0:0:0:
448,192,217794,1,0,0:0:0:0:
320,192,217794,1,0,0:0:0:0:
64,192,218274,1,0,0:0:0:0:
320,192,218274,1,0,0:0:0:0:
192,192,218514,1,0,0:0:0:0:
64,192,218514,1,0,0:0:0:0:
320,192,218754,1,0,0:0:0:0:
448,192,218754,1,0,0:0:0:0:
320,192,218994,128,0,219234:0:0:0:0:
64,192,218994,1,0,0:0:0:0:
192,192,219234,1,0,0:0:0:0:
64,192,219234,1,0,0:0:0:0:
448,192,219474,1,0,0:0:0:0:
64,192,219474,128,0,220674:0:0:0:0:
320,192,219714,1,0,0:0:0:0:
192,192,219714,1,0,0:0:0:0:
320,192,219954,128,0,220194:0:0:0:0:
192,192,219954,128,0,220194:0:0:0:0:
448,192,220194,1,0,0:0:0:0:
192,192,220434,128,0,220674:0:0:0:0:
320,192,220434,128,0,220674:0:0:0:0:
448,192,220674,1,0,0:0:0:0:
64,192,220914,1,0,0:0:0:0:
192,192,220914,128,0,221154:0:0:0:0:
320,192,220914,128,0,221154:0:0:0:0:
448,192,221394,128,0,221874:0:0:0:0:
64,192,221394,1,0,0:0:0:0:
320,192,221394,128,0,221634:0:0:0:0:
192,192,221394,128,0,221634:0:0:0:0:
64,192,222114,1,0,0:0:0:0:
320,192,222114,1,0,0:0:0:0:
192,192,222354,1,0,0:0:0:0:
64,192,222354,1,0,0:0:0:0:
448,192,222594,1,0,0:0:0:0:
192,192,222594,1,0,0:0:0:0:
192,192,222834,1,0,0:0:0:0:
64,192,222834,1,0,0:0:0:0:
448,192,223074,128,0,223314:0:0:0:0:
64,192,223074,1,0,0:0:0:0:
192,192,223074,1,0,0:0:0:0:
320,192,223314,1,0,0:0:0:0:
320,192,223554,128,0,227394:0:0:0:0:
448,192,223554,1,0,0:0:0:0:
64,192,224034,1,0,0:0:0:0:
64,192,224274,1,0,0:0:0:0:
448,192,224514,1,0,0:0:0:0:
192,192,224514,1,0,0:0:0:0:
64,192,224754,1,0,0:0:0:0:
64,192,224994,1,0,0:0:0:0:
448,192,224994,1,0,0:0:0:0:
192,192,225234,1,0,0:0:0:0:
448,192,225474,1,0,0:0:0:0:
64,192,225954,1,0,0:0:0:0:
64,192,226194,1,0,0:0:0:0:
448,192,226434,1,0,0:0:0:0:
192,192,226434,1,0,0:0:0:0:
64,192,226674,1,0,0:0:0:0:
64,192,226914,1,0,0:0:0:0:
448,192,226914,1,0,0:0:0:0:
192,192,227154,1,0,0:0:0:0:
448,192,227394,1,0,0:0:0:0:
320,192,227634,128,0,227874:0:0:0:0:
192,192,227634,128,0,227874:0:0:0:0:
64,192,228114,1,0,0:0:0:0:
192,192,228114,128,0,228354:0:0:0:0:
320,192,228114,128,0,228354:0:0:0:0:
448,192,228354,1,0,0:0:0:0:
64,192,228354,1,0,0:0:0:0:
192,192,228594,128,0,228834:0:0:0:0:
320,192,228594,128,0,228834:0:0:0:0:
448,192,228834,1,0,0:0:0:0:
64,192,228834,1,0,0:0:0:0:
64,192,229074,1,0,0:0:0:0:
192,192,229074,1,0,0:0:0:0:
448,192,229314,1,0,0:0:0:0:
320,192,229314,1,0,0:0:0:0:
320,192,229554,1,0,0:0:0:0:
64,192,229554,1,0,0:0:0:0:
448,192,229794,1,0,0:0:0:0:
192,192,229794,1,0,0:0:0:0:
64,192,230034,1,0,0:0:0:0:
320,192,230034,1,0,0:0:0:0:
448,192,230274,1,0,0:0:0:0:
192,192,230274,1,0,0:0:0:0:
64,192,230514,1,0,0:0:0:0:
320,192,230514,1,0,0:0:0:0:
320,192,230754,128,0,230994:0:0:0:0:
64,192,230754,1,0,0:0:0:0:
448,192,230754,1,0,0:0:0:0:
448,192,230994,1,0,0:0:0:0:
192,192,231234,128,0,235074:0:0:0:0:
448,192,231234,1,0,0:0:0:0:
64,192,231714,1,0,0:0:0:0:
64,192,231954,1,0,0:0:0:0:
448,192,232194,1,0,0:0:0:0:
320,192,232194,1,0,0:0:0:0:
64,192,232434,1,0,0:0:0:0:
64,192,232674,1,0,0:0:0:0:
448,192,232674,1,0,0:0:0:0:
320,192,232914,1,0,0:0:0:0:
448,192,233154,1,0,0:0:0:0:
64,192,233634,1,0,0:0:0:0:
64,192,233874,1,0,0:0:0:0:
448,192,234114,1,0,0:0:0:0:
320,192,234114,1,0,0:0:0:0:
64,192,234354,1,0,0:0:0:0:
64,192,234594,1,0,0:0:0:0:
320,192,234594,1,0,0:0:0:0:
448,192,234834,1,0,0:0:0:0:
448,192,235074,1,0,0:0:0:0:
192,192,235314,128,0,235554:0:0:0:0:
320,192,235314,128,0,235554:0:0:0:0:
64,192,235554,1,0,0:0:0:0:
64,192,235794,1,0,0:0:0:0:
320,192,235794,128,0,236034:0:0:0:0:
192,192,235794,128,0,236034:0:0:0:0:
448,192,236034,1,0,0:0:0:0:
192,192,236274,128,0,236514:0:0:0:0:
320,192,236274,128,0,236514:0:0:0:0:
448,192,236514,1,0,0:0:0:0:
64,192,236514,1,0,0:0:0:0:
320,192,236754,1,0,0:0:0:0:
448,192,236754,1,0,0:0:0:0:
64,192,236994,1,0,0:0:0:0:
192,192,236994,1,0,0:0:0:0:
320,192,237474,1,0,0:0:0:0:
64,192,237474,1,0,0:0:0:0:
448,192,237474,1,0,0:0:0:0:
64,192,237714,1,0,0:0:0:0:
192,192,237714,1,0,0:0:0:0:
64,192,237954,1,0,0:0:0:0:
448,192,237954,1,0,0:0:0:0:
192,192,238194,1,0,0:0:0:0:
320,192,238194,1,0,0:0:0:0:
320,192,238434,1,0,0:0:0:0:
192,192,238434,1,0,0:0:0:0:
448,192,238434,1,0,0:0:0:0:
64,192,238434,1,0,0:0:0:0:
320,192,238674,1,0,0:0:0:0:
192,192,238674,1,0,0:0:0:0:
