osu file format v12

[General]
AudioFilename: Coldplay - Princess of China.mp3
AudioLeadIn: 0
PreviewTime: 67994
Countdown: 0
SampleSet: Soft
StackLeniency: 0.7
Mode: 0
LetterboxInBreaks: 0
WidescreenStoryboard: 1

[Editor]
Bookmarks: -34,34112,56700,67994,79288,101877,141406,163994,186582,231759
DistanceSpacing: 1.1
BeatDivisor: 4
GridSize: 4

[Metadata]
Title:Princess of China
TitleUnicode:Princess of China
Artist:Coldplay & Rihanna
ArtistUnicode:Coldplay & Rihanna
Creator:narakucrimson
Version:Hard
Source:
Tags:Mylo Xyloto
BeatmapID:330575
BeatmapSetID:131221

[Difficulty]
HPDrainRate:5
CircleSize:4
OverallDifficulty:6
ApproachRate:7
SliderMultiplier:2.2
SliderTickRate:2

[Events]
//Background and Video events
0,0,"95383-1600x900.jpg",0,0
//Break Periods
2,56900,67094
2,141606,150741
2,153406,161877
//Storyboard Layer 0 (Background)
//Storyboard Layer 1 (Fail)
//Storyboard Layer 2 (Pass)
//Storyboard Layer 3 (Foreground)
//Storyboard Sound Samples
//Background Colour Transformations
3,100,163,162,255

[TimingPoints]
230,705.882352941176,4,2,0,80,1,0
67818,-90.9090909090909,4,2,0,90,0,0
79200,-133.333333333333,4,2,0,40,0,0
84053,-133.333333333333,4,2,0,80,0,0
88377,-117.647058823529,4,2,0,80,0,0
90406,-117.647058823529,4,2,0,80,0,0
95788,-100,4,2,0,80,0,0
101877,-90.9090909090909,4,2,0,90,0,1
124465,-100,4,2,0,90,0,0
141402,-100,4,2,0,40,0,0
151465,-125,4,2,0,50,0,0
152612,-125,4,2,0,70,0,0
159759,-125,4,2,0,40,0,0
160024,-125,4,2,0,50,0,0
161082,-125,4,2,0,40,0,0
163906,-90.9090909090909,4,2,0,90,0,0
170788,-90.9090909090909,4,2,0,90,0,0
184729,-90.9090909090909,4,2,0,90,0,0
185788,-90.9090909090909,4,2,0,92,0,0
186582,-90.9090909090909,4,2,0,95,0,1
186935,-90.9090909090909,4,2,0,95,0,0
223024,-83.3333333333333,4,2,0,95,0,0
226024,-90.9090909090909,4,2,0,30,0,0
226112,-90.9090909090909,4,2,0,30,0,0

[Colours]
Combo1 : 77,121,176
Combo2 : 197,92,121
Combo3 : 84,154,177
Combo4 : 177,75,167

[HitObjects]
416,312,34112,2,0,P|376:264|332:256,1,110,4|2,3:0|0:0,0:0:0:0:
184,296,34818,2,0,P|105:277|57:212,1,165,8|0,3:2|0:0,0:0:0:0:
64,136,35524,1,4,3:0:0:0:
176,92,35877,2,0,L|292:104,1,110,2|8,0:0|0:0,0:0:0:0:
404,72,36582,1,0,0:0:0:0:
484,164,36935,6,0,P|480:196|468:220,1,55,4|0,3:0|0:0,0:0:0:0:
396,240,37288,2,0,P|352:264|292:268,1,110,2|8,0:0|0:0,0:0:0:0:
188,212,37994,1,2,0:0:0:0:
188,212,38171,1,0,3:0:0:0:
68,200,38524,1,0,0:0:0:0:
68,200,38700,1,2,0:0:0:0:
32,264,38877,1,0,0:0:0:0:
44,336,39053,2,0,P|88:360|148:364,1,110,8|0,0:0|0:0,0:0:0:0:
256,316,39759,1,4,3:0:0:0:
428,292,40465,6,0,P|464:220|428:92,2,220,8|4|8,0:0|3:0|0:0,0:0:0:0:
312,260,42229,1,0,3:0:0:0:
256,152,42582,1,4,3:0:0:0:
84,292,43288,6,0,P|48:220|84:92,2,220,10|4|8,0:0|3:0|0:0,0:0:0:0:
212,256,45053,1,0,3:0:0:0:
244,140,45406,6,0,P|304:124|340:92,1,110,4|2,0:0|0:0,0:0:0:0:
456,120,46112,2,0,P|496:196|492:276,1,165,8|0,0:0|3:0,0:0:0:0:
428,316,46818,2,0,B|384:320|356:304|312:308,1,110,4|2,3:0|0:0,0:0:0:0:
196,336,47524,1,8,0:0:0:0:
108,252,47877,2,0,P|84:240|56:236,1,55,2|0,0:0|3:0,0:0:0:0:
184,260,48229,6,0,P|236:252|284:216,1,110,4|2,3:0|0:0,0:0:0:0:
356,212,48759,2,0,P|380:225|407:229,1,55,0|8,0:0|0:0,0:0:0:0:
412,108,49288,1,2,0:0:0:0:
412,108,49465,2,0,P|360:116|312:152,1,110,0|0,3:0|0:0,0:0:0:0:
280,220,49994,1,2,0:0:0:0:
236,284,50171,1,0,0:0:0:0:
164,312,50347,2,0,L|52:300,1,110,8|0,0:0|3:0,0:0:0:0:
8,188,51053,6,0,P|140:153|181:88,1,220,4|8,3:0|0:0,0:0:0:0:
352,152,52288,1,0,3:0:0:0:
352,152,52465,2,0,P|296:204|208:216,1,165,4|0,3:0|0:0,0:0:0:0:
156,272,53171,1,8,0:0:0:0:
256,336,53524,1,0,0:0:0:0:
356,272,53877,1,4,3:0:0:0:
452,148,54582,6,0,P|380:110|301:126,1,165,10|4,2:0|3:0,0:0:0:0:
212,160,55288,2,0,P|161:177|61:138,1,165,0|0,3:0|3:0,0:0:0:0:
10,67,55995,1,10,0:0:0:0:
151,42,56347,1,0,3:0:0:0:
280,104,56700,1,4,0:0:0:0:
403,131,67994,6,0,P|289:109|212:196,1,242.000007385254,4|0,3:2|1:0,0:0:0:0:
256,320,69053,1,2,0:0:0:0:
299,195,69406,2,0,P|222:109|108:131,1,242.000007385254,0|0,3:3|1:0,0:0:0:0:
68,260,70465,1,2,0:2:0:0:
120,316,70641,6,0,P|172:324|244:324,1,121.000003692627,4|0,3:2|3:0,0:0:0:0:
372,300,71347,1,0,0:0:0:0:
448,320,71524,2,0,P|476:261|470:207,1,121.000003692627,0|2,1:0|0:0,0:0:0:0:
434,138,72053,1,0,0:0:0:0:
369,95,72229,2,0,P|310:84|254:105,1,121.000003692627,0|2,3:0|0:0,0:0:0:0:
136,164,72935,2,0,P|100:160|76:152,2,60.5000018463135,0|2|0,1:0|0:0|0:0,0:0:0:0:
236,204,73465,6,0,P|240:144|213:91,1,121.000003692627,4|2,2:0|0:0,0:0:0:0:
36,124,74171,1,0,3:0:0:0:
36,124,74347,2,2,P|31:183|58:236,1,121.000003692627,0|2,1:0|0:0,0:0:0:0:
124,284,74877,2,0,P|152:272|182:272,1,60.5000018463135,0|0,3:0|3:0,0:0:0:0:
388,292,75406,2,0,P|360:304|329:303,1,60.5000018463135,2|0,0:0|3:0,0:0:0:0:
256,288,75759,1,0,1:0:0:0:
200,168,76112,2,0,P|256:148|312:168,1,121.000003692627,2|4,0:0|3:2,0:0:0:0:
256,192,76641,12,4,79288,0:0:0:0:
180,320,79994,6,0,P|284:344|332:320,1,165.000006294251,2|2,3:0|0:0,0:0:0:0:
300,232,81053,1,0,0:0:0:0:
212,232,81406,1,2,3:0:0:0:
96,160,81935,1,0,0:0:0:0:
96,160,82112,2,0,P|44:180|4:280,2,165.000006294251,2|2|0,3:0|0:0|0:0,0:0:0:0:
188,148,83877,1,0,0:0:0:0:
256,84,84229,1,8,0:0:0:0:
320,192,84935,6,0,P|272:236|216:240,1,123.750004720688,4|0,3:0|0:0,0:0:0:0:
192,228,85641,2,0,B|156:252|112:236|112:236|68:220|32:244,1,165.000006294251,8|4,0:0|3:0,0:0:0:0:
144,164,86700,1,2,0:0:0:0:
80,308,87053,1,8,0:0:0:0:
236,291,87406,1,2,0:0:0:0:
384,344,87759,2,0,P|424:300|440:236,1,123.750004720688,4|2,3:0|3:2,0:0:0:0:
424,220,88465,6,0,P|363:216|304:164,1,140.250002675057,8|2,0:0|3:2,0:0:0:0:
340,88,89171,2,0,P|400:91|459:143,1,140.250002675057,4|2,3:0|0:0,0:0:0:0:
424,220,89877,2,0,L|328:228,1,93.500001783371,8|2,3:2|0:0,0:0:0:0:
236,168,90582,6,0,L|140:176,1,93.500001783371,4|2,3:2|0:0,0:0:0:0:
24,172,91288,2,0,P|20:216|32:264,1,93.500001783371,8|2,0:0|0:0,0:0:0:0:
156,256,91994,2,0,P|184:289|226:315,1,93.500001783371,4|2,3:0|0:0,0:0:0:0:
308,222,92700,2,0,P|352:226|400:214,1,93.500001783371,8|2,0:0|0:0,0:0:0:0:
204,162,93406,6,0,P|160:158|112:170,1,93.500001783371,4|2,0:0|0:0,0:0:0:0:
104,308,94112,2,0,P|146:326|193:329,1,93.500001783371,8|2,0:0|0:0,0:0:0:0:
256,288,94641,1,0,3:0:0:0:
318,329,94818,2,0,P|365:326|408:308,1,93.500001783371,4|2,3:0|0:0,0:0:0:0:
478,154,95524,2,0,P|484:176|484:200,1,46.7500008916855,8|0,0:0|0:0,0:0:0:0:
408,184,95877,6,0,B|360:144|280:144|256:192|232:240|152:240|104:200,1,330,4|8,0:0|0:0,0:0:0:0:
176,40,97465,1,0,3:0:0:0:
236,84,97641,2,0,L|348:80,1,110,4|2,3:0|0:0,0:0:0:0:
376,196,98347,2,0,L|266:199,1,110,8|2,0:0|0:0,0:0:0:0:
148,164,99053,1,4,3:0:0:0:
124,296,99406,6,0,P|97:290|71:281,2,55,2|0|8,0:0|0:0|0:0,0:0:0:0:
256,264,100112,1,2,0:0:0:0:
388,296,100465,2,0,P|414:290|440:281,2,55,0|0|2,3:0|3:0|3:0,0:0:0:0:
256,264,101171,1,2,3:0:0:0:
24,112,101877,6,0,P|52:124|84:128,1,60.5000018463135,4|0,0:2|3:0,0:0:0:0:
152,104,102229,2,0,P|176:100|212:100,1,60.5000018463135,2|0,0:0|0:0,0:0:0:0:
260,156,102582,2,0,P|309:190|367:203,1,121.000003692627,0|2,1:2|0:0,0:0:0:0:
492,152,103288,1,4,3:0:0:0:
508,224,103465,2,0,L|500:288,1,60.5000018463135,0|2,0:0|0:0,0:0:0:0:
376,332,103994,2,0,L|391:211,1,121.000003692627,0|2,1:0|0:0,0:0:0:0:
356,100,104700,6,0,P|324:96|296:84,1,60.5000018463135,4|0,3:2|0:0,0:0:0:0:
212,84,105053,2,0,P|184:95|155:99,2,60.5000018463135,2|0|0,0:0|0:0|1:0,0:0:0:0:
315,176,105759,2,2,P|255:184|196:176,1,121.000003692627,2|0,0:0|3:0,0:0:0:0:
224,288,106465,2,0,P|256:292|288:288,1,60.5000018463135,2|0,0:0|0:0,0:0:0:0:
316,360,106818,2,2,P|236:368|196:360,1,121.000003692627,0|2,1:0|2:0,0:0:0:0:
72,280,107524,6,2,P|64:168|172:148,1,242.000007385254,4|0,3:2|1:0,0:0:0:0:
256,260,108582,2,0,P|224:264|196:264,1,60.5000018463135,2|0,0:0|3:0,0:0:0:0:
132,220,108935,1,4,3:0:0:0:
256,140,109288,1,0,0:0:0:0:
380,220,109641,1,0,1:0:0:0:
380,220,109994,1,2,3:2:0:0:
440,280,110347,6,2,P|448:168|340:148,1,242.000007385254,4|0,3:2|1:0,0:0:0:0:
220,204,111406,1,2,0:0:0:0:
160,248,111582,1,0,3:0:0:0:
88,232,111759,2,0,P|68:184|108:64,1,181.500005538941,4|0,3:0|0:0,0:0:0:0:
168,112,112465,2,0,L|288:104,1,121.000003692627,0|2,1:0|0:0,0:0:0:0:
456,212,113171,6,0,L|392:208,1,60.5000018463135,4|0,3:2|0:0,0:0:0:0:
324,176,113524,2,0,L|264:184,1,60.5000018463135,2|0,0:0|0:0,0:0:0:0:
200,232,113877,1,0,1:0:0:0:
32,264,114229,2,0,P|72:216|128:200,1,121.000003692627,2|4,0:0|3:0,0:0:0:0:
192,152,114759,2,0,L|200:88,1,60.5000018463135,0|2,0:0|0:0,0:0:0:0:
260,224,115288,2,0,L|268:352,1,121.000003692627,0|2,1:0|0:0,0:0:0:0:
344,360,115818,1,0,0:0:0:0:
420,340,115994,6,0,P|466:303|479:245,1,121.000003692627,4|2,3:2|0:0,3:0:0:0:
404,136,116700,1,0,1:0:0:0:
272,116,117053,2,0,P|225:152|212:210,1,121.000003692627,2|0,0:2|3:0,3:0:0:0:
192,280,117582,2,0,L|124:272,1,60.5000018463135,0|2,0:0|0:0,0:0:0:0:
28,356,118112,2,0,P|88:368|144:352,1,121.000003692627,0|2,1:0|0:0,0:0:0:0:
304,344,118818,6,2,P|428:298|445:202,1,242.000007385254,4|0,3:2|1:0,0:0:0:0:
328,144,119877,2,0,P|308:172|288:188,1,60.5000018463135,2|0,0:0|3:0,0:0:0:0:
220,228,120229,2,0,P|164:200|104:200,1,121.000003692627,4|0,3:0|0:0,0:0:0:0:
136,328,120935,1,0,1:0:0:0:
220,228,121288,1,2,3:2:0:0:
66,202,121641,6,2,P|96:314|208:344,1,242.000007385254,4|0,3:2|1:0,0:0:0:0:
328,304,122700,1,2,0:0:0:0:
400,328,122877,1,0,0:0:0:0:
476,320,123052,2,0,P|504:268|484:152,1,181.500005538941,4|0,3:0|0:0,0:0:0:0:
412,128,123759,1,0,1:0:0:0:
336,136,123935,1,2,0:0:0:0:
336,136,124465,6,0,P|284:140|228:120,1,110,4|0,3:2|0:0,0:0:0:0:
212,240,125171,2,0,P|263:258|317:254,1,110,0|2,1:2|0:0,0:0:0:0:
432,216,125877,1,2,3:2:0:0:
484,272,126053,2,0,P|444:340|360:352,2,165,0|0|0,3:0|1:0|3:0,0:0:0:0:
432,216,127288,6,0,P|400:172|388:116,1,110,2|0,3:2|0:0,0:0:0:0:
280,172,127994,2,0,P|236:204|180:216,1,110,0|2,1:2|0:0,0:0:0:0:
56,184,128700,1,2,3:2:0:0:
28,112,128877,2,0,P|68:44|152:32,2,165,0|0|0,3:0|1:0|3:0,0:0:0:0:
56,184,130112,5,2,3:2:0:0:
140,272,130465,1,0,0:0:0:0:
256,304,130818,1,2,1:2:0:0:
372,272,131171,1,0,0:0:0:0:
456,184,131524,1,0,3:0:0:0:
456,184,131700,1,0,3:0:0:0:
308,76,132229,2,0,P|236:56|156:92,1,165,0|0,1:0|0:0,0:0:0:0:
136,164,132935,6,0,P|124:224|88:256,2,110,2|0|0,3:2|0:0|1:0,0:0:0:0:
256,124,133994,1,0,0:0:0:0:
376,164,134347,1,2,0:0:0:0:
375,164,134524,2,0,P|384:217|422:255,2,110,0|0|2,3:2|3:3|3:2,0:0:0:0:
240,88,135759,6,0,B|224:132|224:180|256:192|288:204|288:252|272:296,1,220,4|0,0:0|1:0,0:0:0:0:
168,232,136818,2,0,P|144:196|136:128,1,110,2|2,0:0|3:2,0:0:0:0:
135,130,137347,1,0,3:0:0:0:
344,152,137877,2,0,P|368:188|376:256,1,110,0|2,1:0|3:2,0:0:0:0:
256,192,138582,12,4,141406,0:0:0:0:
334,225,151641,5,0,3:0:0:0:
289,113,151994,1,2,0:0:0:0:
177,158,152347,1,0,0:0:0:0:
222,270,152699,1,0,0:0:0:0:
222,270,152876,1,2,0:0:0:0:
403,253,163994,6,0,P|289:275|212:188,1,242.000007385254,4|0,3:2|1:0,0:0:0:0:
256,64,165053,1,2,0:0:0:0:
299,189,165406,2,0,P|222:275|108:253,1,242.000007385254,0|0,3:3|1:0,0:0:0:0:
68,124,166465,1,2,2:2:0:0:
120,68,166641,6,0,P|172:60|244:60,1,121.000003692627,4|0,3:2|3:0,0:0:0:0:
372,84,167347,1,0,0:0:0:0:
448,64,167524,2,0,P|476:123|470:177,1,121.000003692627,0|2,1:0|0:0,0:0:0:0:
434,246,168053,1,0,0:0:0:0:
369,289,168229,2,0,P|310:300|254:279,1,121.000003692627,0|2,3:0|0:0,0:0:0:0:
136,220,168935,2,0,P|100:224|76:232,2,60.5000018463135,0|2|0,1:0|0:0|0:0,0:0:0:0:
236,180,169465,6,0,P|240:240|213:293,1,121.000003692627,4|2,2:0|0:0,0:0:0:0:
36,260,170171,1,0,3:0:0:0:
36,260,170347,2,2,P|31:201|58:148,1,121.000003692627,0|2,1:0|0:0,0:0:0:0:
124,100,170877,6,0,P|152:112|182:112,1,60.5000018463135,0|0,3:0|3:0,0:0:0:0:
388,124,171406,2,0,P|360:112|329:113,2,60.5000018463135,2|0|0,0:0|3:0|1:0,0:0:0:0:
388,260,172112,2,0,P|360:271|330:271,1,60.5000018463135,2|0,0:0|0:0,0:0:0:0:
316,342,172465,2,0,P|376:343|432:320,1,121.000003692627,0|2,3:0|0:0,0:0:0:0:
404,188,173171,2,0,P|343:186|288:210,1,121.000003692627,0|2,1:0|0:0,0:0:0:0:
232,256,173700,2,0,L|172:248,1,60.5000018463135,0|4,0:0|3:0,0:0:0:0:
92,144,174229,2,0,L|152:152,1,60.5000018463135,2|0,0:0|0:0,0:0:0:0:
208,106,174582,2,0,P|263:82|323:83,1,121.000003692627,0|2,1:0|0:0,0:0:0:0:
460,64,175288,6,0,P|508:116|496:276,1,242.000007385254,4|0,3:2|1:0,0:0:0:0:
368,244,176347,1,2,0:0:0:0:
296,236,176524,1,0,0:0:0:0:
224,256,176700,2,0,P|160:256|116:216,1,121.000003692627,0|2,3:0|0:0,0:0:0:0:
160,96,177406,2,0,P|224:96|268:136,1,121.000003692627,0|2,1:0|0:0,0:0:0:0:
372,212,178112,6,0,P|320:256|192:176,1,242.000007385254,4|0,3:2|1:0,0:0:0:0:
100,80,179171,2,0,P|84:112|64:132,1,60.5000018463135,2|0,3:2|3:0,0:0:0:0:
100,196,179524,2,0,B|96:240|120:272|116:316,1,121.000003692627,0|2,3:0|0:0,0:0:0:0:
248,300,180229,2,0,B|252:256|228:224|232:180,1,121.000003692627,0|2,1:0|0:0,0:0:0:0:
304,168,180759,2,0,L|312:104,1,60.5000018463135,0|4,0:0|3:3,0:0:0:0:
456,116,181288,6,0,L|463:55,1,60.5000018463135,2|0,0:0|3:0,0:0:0:0:
396,24,181641,2,2,P|340:40|280:24,1,121.000003692627,0|2,1:0|0:0,0:0:0:0:
208,20,182171,1,0,3:0:0:0:
140,44,182347,1,0,3:0:0:0:
45,137,182700,1,2,0:0:0:0:
61,270,183053,1,0,1:0:0:0:
174,341,183406,1,2,0:0:0:0:
300,296,183759,2,0,P|352:340|480:260,1,242.000007385254,4|0,3:3|1:0,0:0:0:0:
404,132,184818,38,0,L|348:156,1,60.5000018463135,4|0,3:3|3:0,0:0:0:0:
276,128,185171,2,0,L|220:152,1,60.5000018463135,4|0,3:3|3:0,0:0:0:0:
148,124,185524,2,0,L|92:148,1,60.5000018463135,2|0,3:3|3:0,0:0:0:0:
140,256,185877,22,0,P|180:248|212:232,1,60.5000018463135,8|8,3:3|3:0,0:0:0:0:
372,256,186229,2,0,P|332:248|300:232,1,60.5000018463135,4|0,3:3|0:0,0:0:0:0:
256,80,186582,5,4,1:1:0:0:
256,80,187288,2,0,P|312:100|380:88,2,121.000003692627,0|0|2,1:0|0:0|0:0,0:0:0:0:
136,20,188347,1,0,0:0:0:0:
36,108,188700,5,2,1:2:0:0:
88,304,189053,1,0,0:0:0:0:
232,161,189406,2,0,P|296:104|440:128,1,242.000007385254,4|2,3:1|1:2,0:0:0:0:
396,252,190465,6,0,P|400:280|388:324,1,60.5000018463135,2|0,3:2|3:0,0:0:0:0:
324,276,190818,2,0,P|307:298|267:321,1,60.5000018463135,2|0,3:2|0:0,0:0:0:0:
256,242,191171,2,2,P|204:248|140:216,1,121.000003692627,2|0,3:2|1:0,0:0:0:0:
188,96,191877,1,0,0:0:0:0:
324,96,192229,5,4,1:1:0:0:
464,256,192935,2,0,P|400:313|256:289,1,242.000007385254,0|2,1:0|3:2,0:0:0:0:
160,196,193994,1,0,0:0:0:0:
128,324,194347,5,0,1:0:0:0:
256,164,194700,1,0,0:0:0:0:
384,324,195053,2,0,P|440:204|384:124,1,242.000007385254,4|2,3:1|1:2,0:0:0:0:
256,88,196112,6,0,P|260:60|248:16,1,60.5000018463135,2|0,3:2|3:0,0:0:0:0:
184,64,196465,2,0,P|167:41|127:18,1,60.5000018463135,2|0,3:2|0:0,0:0:0:0:
116,98,196818,2,2,P|64:92|0:124,1,121.000003692627,2|0,3:2|1:0,0:0:0:0:
88,224,197524,1,0,3:0:0:0:
256,192,197877,5,4,1:0:0:0:
504,100,198582,1,2,1:2:0:0:
256,8,199288,1,2,3:2:0:0:
8,100,199994,5,2,1:2:0:0:
88,264,200347,1,0,0:0:0:0:
256,332,200700,2,2,B|284:276|256:244|228:212|256:156,1,181.500005538941,4|0,3:1|0:0,0:0:0:0:
324,200,201406,2,0,L|384:212,1,60.5000018463135,2|0,1:2|0:0,0:0:0:0:
452,284,201759,6,0,P|428:304|400:312,1,60.5000018463135,2|0,3:2|3:2,0:0:0:0:
324,308,202112,1,2,3:2:0:0:
256,276,202288,1,0,0:0:0:0:
189,309,202465,2,2,P|130:315|80:284,1,121.000003692627,2|0,3:2|1:2,0:0:0:0:
164,180,203171,1,0,0:0:0:0:
256,32,203524,5,4,1:1:0:0:
348,180,204229,2,0,P|416:188|504:120,1,181.500005538941,0|0,1:0|3:0,0:0:0:0:
452,68,204935,2,0,B|420:68|392:76|364:84|332:84,1,121.000003692627,2|0,3:2|0:0,0:0:0:0:
204,48,205641,5,2,1:2:0:0:
256,212,205994,1,0,0:0:0:0:
128,324,206347,2,0,P|72:204|128:124,1,242.000007385254,4|2,3:1|1:2,0:0:0:0:
256,88,207406,6,0,P|252:60|264:16,1,60.5000018463135,2|0,3:2|3:0,0:0:0:0:
328,64,207759,2,0,P|345:41|385:18,1,60.5000018463135,2|0,3:2|0:0,0:0:0:0:
396,98,208112,2,2,P|448:92|512:124,1,121.000003692627,2|0,3:2|1:0,0:0:0:0:
424,256,208818,1,4,3:0:0:0:
256,328,209171,5,4,1:1:0:0:
64,188,209877,2,0,P|124:204|192:200,1,121.000003692627,0|0,1:2|3:0,0:0:0:0:
196,68,210582,2,0,P|137:52|77:54,2,121.000003692627,2|0|0,0:2|3:2|1:0,0:0:0:0:
312,132,211641,5,4,3:0:0:0:
312,132,211818,2,0,P|344:208|432:240,1,181.500005538941,4|0,0:0|0:0,0:0:0:0:
508,132,212700,2,0,P|452:104|396:112,1,121.000003692627,2|2,1:2|0:0,0:0:0:0:
316,100,213229,6,0,P|286:110|267:130,1,60.5000018463135,0|2,3:0|3:2,0:0:0:0:
187,106,213582,2,0,P|187:138|200:162,1,60.5000018463135,0|2,3:0|3:2,0:0:0:0:
153,231,213935,2,0,P|183:240|210:235,1,60.5000018463135,0|0,3:0|1:2,0:0:0:0:
261,301,214288,2,0,P|279:275|283:248,1,60.5000018463135,0|2,3:0|3:2,0:0:0:0:
362,220,214818,5,4,1:0:0:0:
364,68,215524,2,0,P|252:20|148:68,1,242.000007385254,0|2,1:0|3:2,0:0:0:0:
108,192,216582,1,0,3:2:0:0:
316,264,216935,1,2,1:2:0:0:
196,264,217288,1,0,3:0:0:0:
404,192,217641,1,4,1:1:0:0:
256,148,218347,1,0,1:0:0:0:
148,264,218700,6,0,P|156:296|160:324,1,60.5000018463135,2|0,3:2|0:0,0:0:0:0:
256,240,219053,2,0,L|256:304,1,60.5000018463135,2|0,3:2|0:0,0:0:0:0:
364,264,219406,2,0,P|356:296|352:324,1,60.5000018463135,2|0,3:2|0:0,0:0:0:0:
456,316,219759,5,0,1:0:0:0:
256,148,220112,1,8,3:0:0:0:
56,316,220465,1,4,1:1:0:0:
320,300,221171,6,0,P|364:260|380:200,1,121.000003692627,0|0,1:0|0:0,0:0:0:0:
256,192,221877,1,4,3:0:0:0:
131,181,222229,2,0,P|147:124|192:84,1,121.000003692627,2|0,3:2|1:2,0:0:0:0:
324,92,222935,1,2,3:2:0:0:
376,264,223288,6,0,P|256:316|140:264,1,263.99999194336,4|2,1:0|1:2,0:0:0:0:
256,192,224347,12,4,226112,0:1:0:0:
