osu file format v12

[General]
AudioFilename: Coldplay - Princess of China.mp3
AudioLeadIn: 0
PreviewTime: 67994
Countdown: 0
SampleSet: Soft
StackLeniency: 0.7
Mode: 0
LetterboxInBreaks: 0
WidescreenStoryboard: 1

[Editor]
Bookmarks: -34,34112,56700,67994,79288,101877,141406,163994,186582,231759
DistanceSpacing: 1
BeatDivisor: 4
GridSize: 4

[Metadata]
Title:Princess of China
TitleUnicode:Princess of China
Artist:Coldplay & Rihanna
ArtistUnicode:Coldplay & Rihanna
Creator:narakucrimson
Version:Easy
Source:
Tags:Mylo Xyloto
BeatmapID:336333
BeatmapSetID:131221

[Difficulty]
HPDrainRate:2
CircleSize:3
OverallDifficulty:2
ApproachRate:3
SliderMultiplier:1.6
SliderTickRate:2

[Events]
//Background and Video events
0,0,"95383-1600x900.jpg",0,0
//Break Periods
2,56900,66554
2,141606,162554
//Storyboard Layer 0 (Background)
//Storyboard Layer 1 (Fail)
//Storyboard Layer 2 (Pass)
//Storyboard Layer 3 (Foreground)
//Storyboard Sound Samples
//Background Colour Transformations
3,100,163,162,255

[TimingPoints]
230,705.882352941176,4,2,0,80,1,0
67818,-90.9090909090909,4,2,0,90,0,0
79200,-117.647058823529,4,2,0,40,0,0
84053,-117.647058823529,4,2,0,80,0,0
90053,-100,4,2,0,80,0,0
95788,-100,4,2,0,80,0,0
101877,-90.9090909090909,4,2,0,90,0,1
124465,-100,4,2,0,90,0,0
141402,-100,4,2,0,40,0,0
151465,-125,4,2,0,50,0,0
152612,-125,4,2,0,70,0,0
159759,-125,4,2,0,40,0,0
160024,-125,4,2,0,50,0,0
161082,-125,4,2,0,40,0,0
163906,-90.9090909090909,4,2,0,90,0,0
170788,-90.9090909090909,4,2,0,90,0,0
184729,-90.9090909090909,4,2,0,90,0,0
185788,-90.9090909090909,4,2,0,92,0,0
186582,-90.9090909090909,4,2,0,95,0,1
186935,-90.9090909090909,4,2,0,95,0,0
226024,-90.9090909090909,4,2,0,30,0,0
226112,-90.9090909090909,4,2,0,30,0,0

[Colours]
Combo1 : 77,121,176
Combo2 : 197,92,121
Combo3 : 84,154,177
Combo4 : 177,75,167

[HitObjects]
124,248,34112,2,0,P|112:172|148:96,1,160,4|8,3:0|0:0,0:0:0:0:
256,192,35524,1,4,3:0:0:0:
366,285,36229,2,0,P|399:213|388:136,1,160,8|4,0:0|3:0,0:0:0:0:
336,76,37288,5,2,0:0:0:0:
256,80,37641,2,0,P|172:112|104:104,1,160,8|4,0:0|3:0,0:0:0:0:
28,80,38700,1,2,0:0:0:0:
4,156,39053,2,0,P|8:212|16:240,1,80,8|0,0:0|0:0,0:0:0:0:
40,312,39759,1,4,3:0:0:0:
200,316,40465,6,0,P|300:300|344:248,2,160,8|4|8,0:0|3:0|0:0,0:0:0:0:
120,300,42229,1,0,3:0:0:0:
120,300,42582,1,4,3:0:0:0:
200,160,43288,6,0,L|364:168,2,160,10|4|8,0:0|3:0|0:0,0:0:0:0:
120,156,45053,1,0,3:0:0:0:
72,92,45406,6,0,P|112:48|208:40,1,160,4|8,0:0|0:0,0:0:0:0:
360,88,46818,2,0,B|448:80,2,80,4|2|8,3:0|0:0|0:0,0:0:0:0:
200,104,48229,1,4,3:0:0:0:
260,156,48582,6,0,P|272:196|272:236,1,80,2|8,0:0|0:0,0:0:0:0:
256,312,49288,1,2,0:0:0:0:
336,328,49641,2,0,P|388:356|488:348,1,160,4|8,3:0|0:0,0:0:0:0:
508,188,51053,6,0,P|456:160|356:168,1,160,4|8,3:0|0:0,0:0:0:0:
208,228,52465,1,4,3:0:0:0:
52,268,53171,1,8,0:0:0:0:
28,192,53524,1,0,0:0:0:0:
52,116,53877,6,0,P|104:92|168:96,1,120,4|0,3:0|0:0,0:0:0:0:
204,104,54582,2,0,B|256:116|308:92|308:92|332:108|360:116,1,160,10|4,3:2|3:0,0:0:0:0:
400,268,55994,1,8,0:0:0:0:
256,340,56700,1,4,0:0:0:0:
424,256,67994,6,0,P|348:76|92:176,1,528.000016113282,4|0,3:2|1:0,0:0:0:0:
180,324,70818,6,0,B|228:316|316:288|368:228|344:124|256:104|168:124|144:228|196:288|284:316|332:324,1,528.000016113282,4|0,3:2|1:0,0:0:0:0:
420,176,73641,6,0,P|215:54|88:256,1,528.000016113282,4|0,3:0|1:0,0:0:0:0:
256,192,76465,12,4,79288,0:0:0:0:
12,264,79994,6,0,P|80:284|144:272,1,136.000002593994,2|2,3:0|0:0,0:0:0:0:
256,192,81406,1,2,3:0:0:0:
369,111,82112,2,0,P|435:100|500:120,2,136.000002593994,2|2|0,3:0|0:0|0:0,0:0:0:0:
256,192,84229,1,8,0:0:0:0:
124,228,84935,6,0,P|120:288|152:356,1,136.000002593994,4|8,3:0|0:0,0:0:0:0:
256,268,86347,1,4,3:0:0:0:
360,355,87053,2,0,P|390:295|388:228,1,136.000002593994,8|4,0:0|3:0,0:0:0:0:
256,188,88465,6,0,B|244:120|268:120|256:52,2,136.000002593994,8|4|8,3:2|3:0|0:0,0:0:0:0:
368,268,90582,6,0,P|448:264|484:200,2,160,4|8|4,3:2|0:0|3:0,0:0:0:0:
292,236,92347,1,2,0:0:0:0:
256,164,92700,1,8,0:0:0:0:
144,268,93406,6,0,P|64:264|28:200,2,160,4|8|4,3:2|0:0|3:0,0:0:0:0:
220,236,95171,1,2,0:0:0:0:
256,164,95524,1,8,0:0:0:0:
192,116,95877,6,0,P|240:36|320:116,1,240,4|8,0:0|0:0,0:0:0:0:
296,276,97641,2,0,P|336:276|376:288,1,80,4|2,3:0|0:0,0:0:0:0:
444,328,98347,2,0,P|476:304|496:192,1,160,8|4,0:0|3:0,0:0:0:0:
420,168,99406,6,0,P|388:176|340:172,1,80,2|8,3:2|0:0,0:0:0:0:
264,144,100112,2,0,P|224:139|185:148,1,80,2|0,3:2|3:0,0:0:0:0:
108,176,100817,1,2,3:0:0:0:
28,184,101171,1,2,3:0:0:0:
116,344,101877,6,0,P|216:340|272:292,1,176.000005371094,4|0,0:2|1:0,0:0:0:0:
308,212,102935,2,0,P|300:160|460:128,1,264.000008056641,2|0,0:2|1:2,0:0:0:0:
396,344,104700,6,0,P|296:340|240:292,1,176.000005371094,4|0,0:2|1:0,0:0:0:0:
204,212,105758,2,0,P|212:160|52:128,1,264.000008056641,2|0,0:2|1:2,0:0:0:0:
52,216,107171,1,2,0:0:0:0:
96,292,107524,6,2,B|140:332|200:336|256:292|256:292|312:336|372:332|416:292,1,352.000010742188,4|4,3:2|3:0,0:0:0:0:
452,212,109288,1,0,0:0:0:0:
448,124,109641,1,0,1:0:0:0:
384,64,109994,1,2,3:2:0:0:
300,44,110347,6,2,B|256:60|216:100|228:172|256:192|288:212|296:284|256:324|212:340,1,352.000010742188,4|4,3:2|3:0,0:0:0:0:
64,248,112465,2,0,P|108:240|152:244,1,88.000002685547,0|2,1:0|0:0,0:0:0:0:
236,260,113171,6,0,P|279:263|322:255,1,88.000002685547,4|2,3:2|0:0,0:0:0:0:
404,220,113877,1,0,1:0:0:0:
488,252,114229,2,0,P|448:344|380:360,1,176.000005371094,2|0,0:0|3:2,0:0:0:0:
296,344,115288,2,0,P|252:356|208:352,1,88.000002685547,0|2,1:0|0:0,0:0:0:0:
200,264,115994,6,0,P|244:252|288:256,1,88.000002685547,4|2,3:2|0:0,0:0:0:0:
372,244,116700,1,0,1:0:0:0:
320,172,117053,2,0,P|232:164|148:189,1,176.000005371094,2|0,3:2|3:0,0:0:0:0:
72,232,118112,1,0,1:0:0:0:
96,68,118818,6,2,B|140:28|200:24|256:68|256:68|312:24|372:28|416:68,1,352.000010742188,4|4,3:2|3:0,0:0:0:0:
468,140,120582,1,0,0:0:0:0:
460,228,120935,1,0,1:0:0:0:
408,300,121288,1,2,3:2:0:0:
325,330,121641,6,2,B|278:321|232:289|231:216|256:192|284:166|279:94|233:62|186:53,1,352.000010742188,4|4,3:2|3:0,0:0:0:0:
104,84,123406,1,2,0:2:0:0:
52,156,123759,1,0,1:0:0:0:
180,256,124465,6,0,P|236:276|332:256,1,160,4|0,0:0|1:0,0:0:0:0:
456,152,125877,1,2,3:2:0:0:
332,52,126582,2,0,P|276:72|180:52,1,160,0|4,1:0|3:0,0:0:0:0:
56,152,127994,5,0,1:2:0:0:
60,312,128700,2,0,P|136:292|188:232,1,160,2|0,3:2|1:0,0:0:0:0:
324,151,130112,6,0,P|375:92|452:72,1,160,4|0,3:2|1:0,0:0:0:0:
456,232,131524,1,2,3:2:0:0:
312,324,132229,2,0,P|236:336|160:300,1,160,0|2,1:0|3:2,0:0:0:0:
256,192,133641,5,0,1:0:0:0:
349,82,134347,2,0,P|277:49|200:60,1,160,2|0,0:0|1:0,0:0:0:0:
140,112,135406,1,0,0:0:0:0:
64,136,135759,1,4,3:2:0:0:
192,236,136465,6,0,B|212:224|228:200|228:200|284:184|284:184|300:160|320:148,2,160,0|0|0,1:0|3:0|1:0,0:0:0:0:
256,192,138582,12,4,141406,0:0:0:0:
424,128,163994,22,0,P|348:308|92:208,1,528.000016113282,4|0,3:2|1:0,0:0:0:0:
180,60,166818,6,0,B|228:68|316:96|368:156|344:260|256:280|168:260|144:156|196:96|284:68|332:60,1,528.000016113282,4|0,3:2|1:0,0:0:0:0:
420,208,169641,6,0,P|215:330|88:128,1,528.000016113282,4|0,3:0|1:0,0:0:0:0:
148,64,172112,1,2,0:0:0:0:
212,124,172465,6,0,P|256:132|300:124,1,88.000002685547,4|2,3:0|0:0,0:0:0:0:
364,64,173171,1,0,1:0:0:0:
411,255,173877,1,4,3:0:0:0:
243,359,174582,1,0,1:0:0:0:
93,232,175288,5,4,3:2:0:0:
167,49,175994,1,0,1:2:0:0:
256,32,176347,1,0,3:0:0:0:
344,49,176700,1,4,3:0:0:0:
448,192,177406,1,0,1:0:0:0:
320,312,178112,6,0,B|249:314|204:269|204:269|180:284|158:286,1,176.000005371094,4|0,3:2|1:0,3:0:0:0:
12,192,179524,1,4,3:0:0:0:
158,97,180229,2,0,B|180:100|204:114|204:114|249:69|320:72,1,176.000005371094,0|4,1:2|3:0,3:0:0:0:
408,92,181288,5,2,0:0:0:0:
496,92,181641,2,2,P|505:154|466:257,1,176.000005371094,0|4,1:0|3:0,0:0:0:0:
386,296,182700,1,2,0:0:0:0:
299,305,183053,1,0,1:0:0:0:
221,266,183406,1,2,3:2:0:0:
159,203,183759,2,2,P|151:116|187:36,1,176.000005371094,4|0,3:0|1:0,0:0:0:0:
264,80,184818,6,0,L|360:92,1,88.000002685547,4|4,3:3|3:0,0:0:0:0:
392,168,185524,2,0,L|488:180,2,88.000002685547,4|8|4,3:0|3:0|3:0,0:0:0:0:
336,236,186582,5,4,1:1:0:0:
160,168,187288,2,0,P|68:196|20:256,1,176.000005371094,0|2,1:0|0:0,0:0:0:0:
176,336,188700,1,2,1:2:0:0:
256,300,189053,1,0,0:0:0:0:
336,336,189406,6,0,B|396:348|423:331|448:316|509:327,2,176.000005371094,4|2|0,3:1|1:2|3:0,0:0:0:0:
256,300,191171,1,2,0:0:0:0:
328,252,191524,2,0,B|388:264|415:247|440:232|501:243,1,176.000005371094,0|4,1:0|1:0,0:0:0:0:
480,68,192935,6,2,P|412:128|328:128,1,176.000005371094,0|2,1:2|3:2,0:0:0:0:
256,84,193994,1,0,0:0:0:0:
180,128,194347,5,2,1:2:0:0:
104,288,195053,2,2,P|172:348|256:348,1,176.000005371094,4|0,3:1|1:2,0:0:0:0:
332,312,196112,1,0,3:0:0:0:
364,228,196465,1,2,3:2:0:0:
344,144,196818,1,4,3:0:0:0:
168,144,197524,1,0,3:0:0:0:
148,228,197877,5,4,1:0:0:0:
364,228,198582,2,0,P|456:200|504:140,1,176.000005371094,0|2,1:0|0:0,0:0:0:0:
336,48,199994,1,2,1:2:0:0:
256,84,200347,1,0,0:0:0:0:
176,48,200700,6,0,B|116:36|88:52|64:68|2:56,2,176.000005371094,4|2|0,3:1|1:2|3:0,0:0:0:0:
256,84,202465,1,2,0:0:0:0:
184,132,202818,2,0,B|124:120|96:136|72:152|10:140,1,176.000005371094,0|4,1:0|1:0,0:0:0:0:
24,316,204229,6,0,P|100:348|188:328,1,176.000005371094,0|2,1:0|3:2,0:0:0:0:
256,272,205288,1,0,0:0:0:0:
324,328,205641,2,0,P|408:348|488:316,1,176.000005371094,0|4,1:0|3:1,0:0:0:0:
468,140,207053,6,0,P|420:148|388:172,1,88.000002685547,0|2,1:0|0:0,0:0:0:0:
332,100,207759,2,0,P|304:136|298:179,1,88.000002685547,0|2,3:0|0:0,0:0:0:0:
214,207,208465,2,0,P|207:249|180:284,1,88.000002685547,0|2,1:0|0:0,0:0:0:0:
122,213,209171,5,4,1:0:0:0:
172,44,209877,2,2,B|216:44|256:68|256:68|296:44|340:44,2,176.000005371094,0|4|0,1:0|3:0|1:0,0:0:0:0:
16,128,211994,6,0,P|24:170|52:204,1,88.000002685547,4|0,3:1|0:0,0:0:0:0:
132,172,212700,2,0,P|168:196|212:204,1,88.000002685547,0|2,1:0|0:0,0:0:0:0:
300,204,213406,2,0,P|342:196|379:171,1,88.000002685547,2|0,3:2|3:0,0:0:0:0:
460,204,214112,2,0,P|487:170|496:127,1,88.000002685547,0|0,1:0|0:0,0:0:0:0:
492,40,214818,5,4,1:0:0:0:
316,52,215524,2,0,B|252:64|227:136|256:192|256:192|284:248|260:319|195:331,1,352.000010742188,0|0,1:0|1:2,0:0:0:0:
121,286,217288,1,0,3:0:0:0:
104,199,217641,6,0,B|137:144|212:146|256:192|256:192|299:237|374:239|408:183,1,352.000010742188,4|2,1:0|3:2,0:0:0:0:
412,88,219406,2,0,P|376:48|344:40,1,88.000002685547,2|0,3:0|1:0,0:0:0:0:
256,52,220112,1,4,3:0:0:0:
168,40,220465,1,4,1:1:0:0:
52,168,221171,6,0,P|92:184|136:176,1,88.000002685547,0|2,1:0|0:0,0:0:0:0:
220,168,221877,2,0,B|256:180|256:204|292:216,1,88.000002685547,4|2,3:0|0:0,0:0:0:0:
376,207,222582,2,0,P|419:199|460:216,1,88.000002685547,0|2,1:0|0:0,0:0:0:0:
412,284,223288,1,4,1:0:0:0:
256,192,223994,12,4,226112,0:1:0:0:
