osu file format v14

[General]
AudioFilename: ColBreakz - Fantasy.mp3
AudioLeadIn: 0
PreviewTime: -1
Countdown: 3
SampleSet: Normal
StackLeniency: 1
Mode: 0
LetterboxInBreaks: 1
CountdownOffset: 3
WidescreenStoryboard: 0

[Editor]
DistanceSpacing: 0.8
BeatDivisor: 3
GridSize: 32
TimelineZoom: 1.2

[Metadata]
Title:Fantasy
TitleUnicode:Fantasy
Artist:Colbreakz
ArtistUnicode:Colbreakz
Creator:SrNakazae007
Version:Narumode!
Source:
Tags:Glicht Hop,Electronic,Dubstep,Colbreakz,VideoGame
BeatmapID:1330240
BeatmapSetID:630135

[Difficulty]
HPDrainRate:10
CircleSize:4
OverallDifficulty:10
ApproachRate:10
SliderMultiplier:1.09999990463257
SliderTickRate:1

[Events]
//Background and Video events
//Break Periods
//Storyboard Layer 0 (Background)
//Storyboard Layer 1 (Fail)
//Storyboard Layer 2 (Pass)
//Storyboard Layer 3 (Foreground)
//Storyboard Sound Samples

[TimingPoints]
26854,194.174757281553,4,1,0,100,1,0

[Colours]
Combo1 : 115,73,146
Combo2 : 51,106,198
Combo3 : 87,51,181
Combo4 : 253,255,255

[HitObjects]
96,160,188,5,0,0:0:0:0:
160,160,442,2,0,P|192:224|224:192,2,130.000000596046
128,256,1093,1,0,0:0:0:0:
224,192,1187,2,0,P|352:224|352:192,1,130.000000596046
320,192,1417,1,0,0:0:0:0:
320,192,1551,1,0,0:0:0:0:
320,192,1734,1,0,0:0:0:0:
256,128,1934,2,0,L|160:256,2,130.000000596046
160,160,2646,2,6,P|288:192|288:160,1,130.000000596046
448,96,3010,5,0,0:0:0:0:
352,64,3193,1,0,0:0:0:0:
256,64,3375,1,0,0:0:0:0:
288,128,3557,2,0,B|448:160|416:160,1,130.000000596046
224,224,3922,2,0,L|128:128,1,130.000000596046
64,192,4200,2,0,L|160:288,1,130.000000596046
288,160,4523,2,0,L|192:64,1,130.000000596046
160,160,4912,2,0,L|288:288,1,130.000000596046
224,96,5300,1,0,0:0:0:0:
384,160,5430,5,0,0:0:0:0:
320,64,5494,1,0,0:0:0:0:
68,154,5624,2,0,L|164:58,1,130.000000596046
224,128,5928,2,0,L|352:256,1,130.000000596046
192,320,6336,2,0,L|480:320,1,260.000001192092
288,256,7022,2,0,L|448:256,2,130.000000596046
352,96,7630,1,0,0:0:0:0:
192,64,7752,5,0,0:0:0:0:
64,160,7934,1,0,0:0:0:0:
96,256,8117,2,0,L|288:320,1,130.000000596046
256,224,8407,2,0,L|96:160,1,130.000000596046
160,288,8795,1,0,0:0:0:0:
224,128,8860,1,0,0:0:0:0:
352,320,9029,2,0,L|352:160,1,130.000000596046
288,128,9393,2,0,B|352:64|448:128|448:192|416:192,1,130.000000596046
352,192,9576,1,0,0:0:0:0:
352,96,10123,2,0,L|224:192,1,130.000000596046
160,192,10487,5,0,0:0:0:0:
160,192,10543,2,0,L|352:192,1,190.000000596046
352,256,10931,2,0,L|160:256|224:256,1,190.000000596046
256,320,11384,1,0,0:0:0:0:
256,160,11514,1,0,0:0:0:0:
384,96,11902,5,0,0:0:0:0:
352,224,12096,2,0,L|192:96,1,190.000000596046
224,288,12485,2,0,L|416:352,1,190.000000596046
288,192,12873,1,0,0:0:0:0:
256,224,13067,1,0,0:0:0:0:
192,96,13261,2,0,L|320:96,1,109.999990463257
256,224,13650,2,0,L|128:224,1,109.999990463257
128,128,14038,2,0,L|288:128,1,109.999990463257
64,288,14297,2,0,L|64:160,1,109.999990463257
448,192,14556,6,0,L|448:320,1,109.999990463257
160,160,14815,2,0,L|384:160,1,219.999980926513
256,288,15332,1,0,0:0:0:0:
288,256,15397,2,0,L|448:96,1,219.999980926513
128,96,15980,2,0,L|128:224,1,109.999990463257
64,160,16368,2,0,L|64:32,1,109.999990463257
128,256,16627,2,0,L|256:256,1,109.999990463257
192,160,16821,1,0,0:0:0:0:
256,96,16886,2,0,L|352:160,1,109.999990463257
352,64,17145,2,0,L|480:160,1,109.999990463257
448,224,17339,2,0,L|384:192,1,54.9999952316283
256,224,17533,2,0,L|320:192,1,54.9999952316283
352,160,17824,1,0,0:0:0:0:
352,320,18019,1,0,0:0:0:0:
352,288,18116,1,0,0:0:0:0:
352,256,18213,1,0,0:0:0:0:
352,224,18310,1,0,0:0:0:0:
352,192,18407,5,0,0:0:0:0:
352,160,18504,1,0,0:0:0:0:
352,128,18601,1,0,0:0:0:0:
352,96,18698,1,0,0:0:0:0:
64,96,18795,2,0,L|64:224,1,109.999990463257
154,99,19151,1,0,0:0:0:0:
192,224,19281,2,0,L|280:88,1,146.666653951009
320,288,19669,1,0,0:0:0:0:
128,288,19863,5,0,0:0:0:0:
224,320,20187,2,0,L|384:320,1,109.999990463257
352,128,20510,1,0,0:0:0:0:
288,96,20575,1,0,0:0:0:0:
224,96,20640,1,0,0:0:0:0:
288,256,20834,1,0,0:0:0:0:
352,288,20899,1,0,0:0:0:0:
416,288,20964,1,0,0:0:0:0:
160,192,21158,1,0,0:0:0:0:
96,160,21222,1,0,0:0:0:0:
32,192,21287,1,0,0:0:0:0:
256,192,21481,6,0,L|352:192,1,73.3333269755047
128,192,21805,6,0,L|32:192,1,73.3333269755047
192,256,21999,1,0,0:0:0:0:
192,128,22129,1,0,0:0:0:0:
96,64,22258,2,0,L|288:64,2,183.333317438762
32,192,23035,2,0,L|128:192,1,73.3333269755047
320,192,23294,2,0,L|224:192,1,73.3333269755047
160,192,23488,1,0,0:0:0:0:
160,192,23553,1,0,0:0:0:0:
160,192,23617,1,0,0:0:0:0:
224,256,23941,2,0,L|224:160,1,73.3333269755047
224,96,24200,5,0,0:0:0:0:
384,192,24329,1,0,0:0:0:0:
64,128,24588,1,0,0:0:0:0:
64,224,24718,2,0,L|64:320,1,73.3333269755047
160,192,24976,1,0,0:0:0:0:
384,192,25235,1,0,0:0:0:0:
384,288,25300,2,0,L|384:384,1,73.3333269755047
256,256,25559,1,0,0:0:0:0:
192,192,25688,6,0,L|192:288,1,73.3333269755047
192,96,25883,1,0,0:0:0:0:
288,160,26077,1,0,0:0:0:0:
416,96,26271,1,0,0:0:0:0:
416,192,26400,2,0,L|416:288,1,73.3333269755047
320,128,26595,1,0,0:0:0:0:
320,288,26724,1,0,0:0:0:0:
224,288,26918,2,0,L|128:288,2,73.3333269755047
160,192,27307,1,0,0:0:0:0:
384,256,27436,5,0,0:0:0:0:
384,192,27501,2,0,L|384:96,1,73.3333269755047,0|2,0:0|0:0,0:0:0:0:
352,64,27824,1,0,0:0:0:0:
352,64,27889,1,0,0:0:0:0:
352,64,27954,1,0,0:0:0:0:
352,64,28019,1,0,0:0:0:0:
224,192,28213,5,0,0:0:0:0:
384,288,28407,1,0,0:0:0:0:
384,288,28472,1,0,0:0:0:0:
384,288,28536,1,0,0:0:0:0:
384,288,28601,1,0,0:0:0:0:
224,192,28860,5,0,0:0:0:0:
256,96,29119,2,0,L|288:128,1,36.6666634877523
64,64,29313,1,0,0:0:0:0:
64,64,29378,1,0,0:0:0:0:
64,64,29442,1,0,0:0:0:0:
64,64,29507,1,0,0:0:0:0:
224,192,29637,1,0,0:0:0:0:
160,288,29831,2,0,L|224:288,1,36.6666634877523
256,288,30154,2,0,L|320:288,1,36.6666634877523
352,192,30478,5,0,0:0:0:0:
352,192,30543,1,0,0:0:0:0:
352,192,30608,1,0,0:0:0:0:
256,224,30737,1,0,0:0:0:0:
64,64,30931,2,0,L|192:64,1,109.999990463257
288,320,31125,2,0,L|448:320,1,146.666653951009
416,224,31643,1,0,0:0:0:0:
416,224,31708,1,0,0:0:0:0:
416,224,31773,1,0,0:0:0:0:
320,128,31967,1,0,0:0:0:0:
160,224,32096,6,0,L|160:128,1,73.3333269755047
160,128,32226,1,0,0:0:0:0:
256,192,32355,1,0,0:0:0:0:
384,160,32485,2,0,L|384:256,1,73.3333269755047
384,224,32743,1,0,0:0:0:0:
352,256,32808,1,0,0:0:0:0:
288,288,32873,1,0,0:0:0:0:
224,288,32938,1,0,0:0:0:0:
160,256,33002,1,0,0:0:0:0:
128,192,33067,1,0,0:0:0:0:
160,128,33132,5,0,0:0:0:0:
224,96,33197,1,0,0:0:0:0:
288,96,33261,1,0,0:0:0:0:
352,128,33326,1,0,0:0:0:0:
384,192,33391,1,0,0:0:0:0:
384,256,33455,1,0,0:0:0:0:
384,320,33520,1,0,0:0:0:0:
320,288,33585,1,0,0:0:0:0:
256,256,33650,1,0,0:0:0:0:
192,256,33714,1,0,0:0:0:0:
128,256,33844,5,0,0:0:0:0:
64,256,33909,1,0,0:0:0:0:
64,192,33973,1,0,0:0:0:0:
96,128,34038,1,0,0:0:0:0:
160,96,34103,1,0,0:0:0:0:
224,96,34167,1,0,0:0:0:0:
288,96,34232,1,0,0:0:0:0:
352,96,34297,1,0,0:0:0:0:
352,96,34362,1,0,0:0:0:0:
288,96,34426,1,0,0:0:0:0:
224,96,34491,1,0,0:0:0:0:
192,128,34556,1,0,0:0:0:0:
224,192,34620,5,0,0:0:0:0:
288,224,34685,1,0,0:0:0:0:
352,256,34750,1,0,0:0:0:0:
416,288,34815,1,0,0:0:0:0:
480,320,34879,1,0,0:0:0:0:
416,352,34944,1,0,0:0:0:0:
352,352,35009,1,0,0:0:0:0:
288,320,35074,1,0,0:0:0:0:
256,320,35268,5,0,0:0:0:0:
224,320,35333,1,0,0:0:0:0:
192,320,35398,1,0,0:0:0:0:
160,288,35462,1,0,0:0:0:0:
128,256,35527,1,0,0:0:0:0:
96,224,35592,1,0,0:0:0:0:
128,192,35657,1,0,0:0:0:0:
160,192,35721,1,0,0:0:0:0:
192,160,35786,1,0,0:0:0:0:
160,128,35851,1,0,0:0:0:0:
256,192,36109,12,0,37274,0:0:0:0:
64,96,37533,5,0,0:0:0:0:
64,96,37598,1,0,0:0:0:0:
64,96,37663,1,0,0:0:0:0:
96,192,37727,2,0,L|192:96,1,109.999990463257
352,160,37986,2,0,L|416:224,1,73.3333269755047
192,160,38180,2,0,L|128:224,1,73.3333269755047
256,96,38375,1,0,0:0:0:0:
256,96,38439,1,0,0:0:0:0:
256,96,38504,1,0,0:0:0:0:
160,128,38569,2,0,P|352:96|352:128,1,329.999971389771
192,224,39281,5,0,0:0:0:0:
256,288,39345,5,0,0:0:0:0:
320,224,39410,1,0,0:0:0:0:
256,192,39475,2,0,L|256:64,2,109.999990463257
96,320,39863,2,0,L|96:160,1,146.666653951009
448,320,40122,2,0,L|448:160,1,146.666653951009
320,128,40446,1,0,0:0:0:0:
320,128,40510,1,0,0:0:0:0:
320,128,40575,1,0,0:0:0:0:
128,224,40705,2,0,L|192:288,1,73.3333269755047
128,128,40834,2,0,L|192:192,1,73.3333269755047
160,64,41028,6,0,L|224:128,1,73.3333269755047
384,64,41287,2,0,L|320:128,1,73.3333269755047
416,128,41417,2,0,L|352:192,1,73.3333269755047
416,224,41611,2,0,L|352:288,1,73.3333269755047
192,64,41740,1,0,0:0:0:0:
32,160,41805,1,0,0:0:0:0:
320,160,41870,1,0,0:0:0:0:
192,160,41934,2,0,P|192:288|224:224,1,403.333298365276
256,192,42646,1,0,0:0:0:0:
96,96,42841,2,0,L|160:192,1,109.999990463257
384,96,43229,5,0,0:0:0:0:
96,288,43294,2,0,L|192:288,1,73.3333269755047
224,224,43423,2,0,L|128:224,1,73.3333269755047
224,160,43553,2,0,L|320:160,1,73.3333269755047
288,224,43682,2,0,L|384:224,1,73.3333269755047
352,288,43811,2,0,L|448:288|416:288,1,109.999990463257
448,128,44135,2,0,L|320:64,1,109.999990463257
288,128,44329,2,0,L|192:192,1,109.999990463257
64,96,44523,2,0,L|160:160,1,109.999990463257
224,96,44782,6,0,L|224:224,1,109.999990463257
288,256,44976,2,0,L|288:128,1,109.999990463257
352,96,45300,2,0,L|352:224,1,109.999990463257
128,192,45559,1,0,0:0:0:0:
192,128,45624,1,0,0:0:0:0:
256,192,45688,1,0,0:0:0:0:
192,256,45753,1,0,0:0:0:0:
416,288,45818,2,0,L|416:160,1,109.999990463257
352,160,46142,2,0,L|288:160,2,36.6666634877523
224,160,46336,6,0,L|224:288,1,109.999990463257
128,160,46659,2,0,L|64:160,3,36.6666634877523
128,256,46853,2,0,L|224:256,1,73.3333269755047
64,96,47048,1,0,0:0:0:0:
160,64,47177,1,0,0:0:0:0:
256,96,47242,1,0,0:0:0:0:
352,64,47307,1,0,0:0:0:0:
416,128,47371,1,0,0:0:0:0:
352,224,47501,2,0,L|224:224,1,109.999990463257
32,160,47760,6,0,L|160:160,1,109.999990463257
320,96,47954,2,0,L|192:96,1,109.999990463257
192,96,48277,1,0,0:0:0:0:
128,224,48342,2,0,L|224:224,1,73.3333269755047
224,288,48472,2,0,L|320:288,1,73.3333269755047
96,160,48731,2,0,L|192:160,1,73.3333269755047
256,192,48925,2,0,L|288:224,5,36.6666634877523
320,224,49572,2,0,L|416:288,1,109.999990463257
448,224,49766,6,0,L|352:160,1,109.999990463257
64,192,50025,2,0,L|160:128,1,109.999990463257
128,256,50284,2,0,L|224:192,1,109.999990463257
288,96,50543,2,0,L|352:96,1,36.6666634877523
320,160,50608,2,0,L|384:160,1,36.6666634877523
352,224,50737,2,0,L|416:224,1,36.6666634877523
96,96,50866,2,0,L|64:224,1,109.999990463257
160,224,51061,2,0,L|192:96,1,109.999990463257
288,128,51255,2,0,L|256:256,1,109.999990463257
352,256,51514,6,0,L|384:128,1,109.999990463257
64,160,51708,1,0,0:0:0:0:
64,160,51773,1,0,0:0:0:0:
64,160,51837,1,0,0:0:0:0:
64,160,51967,1,0,0:0:0:0:
128,224,52096,2,0,L|288:192,1,146.666653951009
224,320,52355,1,0,0:0:0:0:
160,128,52420,2,0,L|32:160,1,109.999990463257
256,128,52679,2,0,L|352:160,1,73.3333269755047
192,64,52873,5,0,0:0:0:0:
256,192,52938,2,0,L|352:224,1,73.3333269755047
320,288,53067,2,0,L|416:320,1,73.3333269755047
256,288,53197,2,0,L|160:320,1,73.3333269755047
96,288,53391,2,0,L|192:256,4,73.3333269755047
64,64,54038,1,0,0:0:0:0:
384,96,54103,1,0,0:0:0:0:
480,288,54167,1,0,0:0:0:0:
192,192,54232,2,0,L|288:192,1,73.3333269755047
64,320,54426,6,0,L|192:320,1,109.999990463257
256,320,54685,2,0,L|256:224,1,73.3333269755047
192,256,54815,5,0,0:0:0:0:
352,320,54944,2,0,L|480:320,1,109.999990463257
352,256,55203,1,0,0:0:0:0:
128,160,55268,2,0,L|128:64,1,73.3333269755047
128,256,55462,2,0,L|128:352,1,73.3333269755047
352,96,55656,2,0,L|352:192,1,73.3333269755047
32,96,55980,2,0,L|128:96,1,73.3333269755047
160,256,56239,1,0,0:0:0:0:
256,320,56303,1,0,0:0:0:0:
320,224,56368,5,0,0:0:0:0:
416,256,56433,1,0,0:0:0:0:
384,128,56562,1,0,0:0:0:0:
448,32,56692,1,0,0:0:0:0:
192,128,56756,2,0,L|256:128,1,36.6666634877523
384,128,56886,1,0,0:0:0:0:
91,184,57015,2,0,L|158:225,1,73.3333269755047
105,226,57145,2,0,L|171:269,1,73.3333269755047
429,328,57274,5,0,0:0:0:0:
359,266,57339,1,0,0:0:0:0:
292,330,57404,1,0,0:0:0:0:
142,181,57533,2,0,L|251:235,1,109.999990463257
240,229,57727,1,0,0:0:0:0:
250,236,57792,1,0,0:0:0:0:
253,239,57857,1,0,0:0:0:0:
75,85,57986,2,0,L|165:90,1,73.3333269755047
374,92,58116,6,0,L|296:91,1,73.3333269755047
300,91,58245,1,0,0:0:0:0:
430,191,58310,2,0,L|373:248,1,73.3333269755047
326,200,58439,2,0,L|384:147,1,73.3333269755047
394,140,58633,1,0,0:0:0:0:
325,97,58698,1,0,0:0:0:0:
245,153,58763,5,0,0:0:0:0:
230,161,58828,1,0,0:0:0:0:
215,170,58892,1,0,0:0:0:0:
408,285,58957,2,0,L|282:283,1,109.999990463257
187,216,59151,2,0,L|308:216,1,109.999990463257
420,155,59410,2,0,L|298:151,1,109.999990463257
310,151,59604,1,0,0:0:0:0:
308,156,59669,1,0,0:0:0:0:
308,156,59734,1,0,0:0:0:0:
30,152,59798,2,0,L|65:262,1,109.999990463257
142,187,60057,5,0,0:0:0:0:
149,199,60122,1,0,0:0:0:0:
135,97,60252,2,0,L|193:111,3,36.6666634877523
88,197,60510,2,0,L|155:230,1,73.3333269755047
217,163,60705,2,0,L|268:238,1,73.3333269755047
350,210,60899,2,0,L|362:310,1,73.3333269755047
358,282,61028,1,0,0:0:0:0:
354,97,61093,2,0,L|198:122,1,146.666653951009
264,218,61352,1,0,0:0:0:0:
152,213,61417,5,0,0:0:0:0:
389,220,61481,1,0,0:0:0:0:
263,96,61546,1,0,0:0:0:0:
265,333,61676,1,0,0:0:0:0:
46,310,61805,2,0,L|47:193,1,109.999990463257
46,190,61999,1,0,0:0:0:0:
47,187,62064,1,0,0:0:0:0:
47,183,62129,1,0,0:0:0:0:
94,71,62323,2,0,L|164:125,1,73.3333269755047
161,123,62517,1,0,0:0:0:0:
202,251,62582,6,0,L|269:209,1,73.3333269755047
275,204,62711,1,0,0:0:0:0:
374,127,62776,2,0,L|291:37,1,109.999990463257
144,85,63035,6,0,L|67:126,1,73.3333269755047
118,191,63164,2,0,L|49:232,1,73.3333269755047
102,308,63294,2,0,L|28:352,1,73.3333269755047
226,238,63423,2,0,L|158:280,1,73.3333269755047
224,148,63553,2,0,L|151:187,1,73.3333269755047
152,184,63682,1,0,0:0:0:0:
147,189,63747,1,0,0:0:0:0:
141,192,63811,1,0,0:0:0:0:
356,208,63876,2,0,L|432:232,1,73.3333269755047
440,152,64006,6,0,L|352:128,1,73.3333269755047
348,286,64135,2,0,L|423:307,1,73.3333269755047
436,223,64265,1,0,0:0:0:0:
368,208,64329,2,0,L|293:187,2,73.3333269755047
368,208,64588,1,0,0:0:0:0:
380,62,64782,2,0,L|303:105,1,73.3333269755047
188,290,64912,2,0,L|188:200,1,73.3333269755047
33,82,65106,2,0,L|130:82,1,73.3333269755047
127,82,65365,1,0,0:0:0:0:
140,82,65430,1,0,0:0:0:0:
160,81,65494,5,0,0:0:0:0:
68,244,65559,2,0,L|150:242,1,73.3333269755047
145,311,65753,2,0,L|61:315,1,73.3333269755047
249,241,65947,2,0,L|167:244,1,73.3333269755047
211,314,66142,2,0,L|285:315,1,73.3333269755047
365,231,66336,1,0,0:0:0:0:
296,174,66400,1,0,0:0:0:0:
225,234,66465,1,0,0:0:0:0:
295,301,66595,1,0,0:0:0:0:
216,113,66659,5,0,0:0:0:0:
155,188,66724,1,0,0:0:0:0:
96,96,66789,1,0,0:0:0:0:
276,209,66918,1,0,0:0:0:0:
259,200,66983,1,0,0:0:0:0:
237,186,67048,1,0,0:0:0:0:
346,134,67242,2,0,L|489:135,1,109.999990463257
456,211,67501,2,0,L|340:211,1,109.999990463257
326,212,67760,5,0,0:0:0:0:
316,211,67824,1,0,0:0:0:0:
310,213,67889,1,0,0:0:0:0:
187,309,67954,2,0,L|186:198,1,109.999990463257
186,199,68213,2,0,L|57:197,1,109.999990463257
186,199,68472,2,0,L|326:203,1,109.999990463257
187,193,68731,2,0,L|188:81,1,109.999990463257
190,76,68989,1,0,0:0:0:0:
97,330,69119,2,0,L|193:314,1,73.3333269755047
271,244,69313,6,0,L|185:256,1,73.3333269755047
278,316,69507,2,0,L|358:304,1,73.3333269755047
357,237,69637,2,0,L|462:225,1,73.3333269755047
406,85,69831,2,0,L|318:110,1,73.3333269755047
276,189,70025,2,0,L|355:169,1,73.3333269755047
365,235,70219,2,0,L|468:206,1,73.3333269755047
84,154,70413,2,0,L|177:192,1,73.3333269755047
160,192,70543,1,0,0:0:0:0:
160,192,70608,1,0,0:0:0:0:
160,192,70672,5,0,0:0:0:0:
224,128,70802,2,0,L|256:224,1,73.3333269755047
160,256,70996,2,0,L|128:160,1,73.3333269755047
96,96,71125,1,0,0:0:0:0:
384,160,71255,2,0,L|448:256,1,109.999990463257
448,256,71449,1,0,0:0:0:0:
448,256,71514,2,0,L|320:320,1,109.999990463257
349,305,71708,1,0,0:0:0:0:
352,320,71837,1,0,0:0:0:0:
352,320,71902,5,0,0:0:0:0:
96,256,72031,2,0,L|192:288,1,73.3333269755047
256,224,72226,1,0,0:0:0:0:
352,256,72355,1,0,0:0:0:0:
416,64,72420,2,0,L|352:128,1,73.3333269755047
288,64,72614,2,0,L|288:160,1,73.3333269755047
192,160,72808,2,0,L|256:224,1,73.3333269755047
204,311,73002,2,0,L|300:311,1,73.3333269755047
277,311,73132,1,0,0:0:0:0:
286,318,73197,5,0,0:0:0:0:
296,319,73261,1,0,0:0:0:0:
81,163,73326,2,0,L|152:237,1,73.3333269755047
131,215,73455,1,0,0:0:0:0:
196,176,73585,2,0,L|186:111,1,36.6666634877523
275,203,73714,2,0,P|342:154|309:138,2,146.666653951009
263,198,74297,1,0,0:0:0:0:
258,196,74362,1,0,0:0:0:0:
251,193,74426,1,0,0:0:0:0:
90,202,74556,6,0,P|151:281|167:277,1,109.999990463257
