osu file format v9

[General]
AudioFilename: Colbie Caillat - Bubbly.mp3
AudioLeadIn: 0
PreviewTime: -1
Countdown: 0
SampleSet: Normal
StackLeniency: 0.7
Mode: 0
LetterboxInBreaks: 1

[Editor]
Bookmarks: 15629,30617,45605,60593,75582,94317,109305,139282,154270
DistanceSpacing: 0.8
BeatDivisor: 4
GridSize: 8

[Metadata]
Title:Bubbly
Artist:Colbie Caillat
Creator:Kitta
Version:
Source:
Tags:

[Difficulty]
HPDrainRate:5
CircleSize:5
OverallDifficulty:5
ApproachRate:5
SliderMultiplier:1.4
SliderTickRate:1

[Events]
//Background and Video events
//Break Periods
2,79373,83593
2,91706,93117
//Storyboard Layer 0 (Background)
//Storyboard Layer 1 (Fail)
//Storyboard Layer 2 (Pass)
//Storyboard Layer 3 (Foreground)
//Storyboard Sound Samples
//Background Colour Transformations
3,100,163,162,255

[TimingPoints]
15629,468.384074941452,4,1,0,100,1,0
30617,-100,4,1,0,100,0,1
45605,-100,4,1,0,100,0,0
60593,-100,4,1,0,100,0,1
75582,-100,4,1,0,100,0,0
94317,-100,4,1,0,100,0,1
109305,-100,4,1,0,100,0,0
139282,-100,4,1,0,100,0,0
139282,-100,4,1,0,100,0,0
139282,-100,4,1,0,100,0,0
139303,-100,4,1,0,100,0,1
154242,577.478344562079,4,1,0,100,1,0

[HitObjects]
96,120,15628,1,0
264,120,16331,1,0
448,280,17502,5,0
264,280,18205,1,0
112,80,19376,5,0
296,80,20078,1,0
112,264,21249,5,0
224,264,21717,1,0
256,264,21952,1,0
448,56,23123,5,0
264,56,23825,1,0
104,264,24996,5,0
288,264,25699,1,0
384,88,26870,5,0
200,88,27572,1,0
72,208,28743,5,0
256,248,29446,1,0
144,344,30617,5,0
256,344,31085,2,0,B|256:200,1,140
256,88,32022,1,0
368,64,32490,5,0
368,176,32959,2,0,B|224:176,1,140
120,176,33895,1,0
88,64,34364,5,0
168,136,34832,2,0,B|288:216,1,140
376,280,35769,1,0
456,192,36237,5,0
376,112,36706,2,0,B|256:200,1,140
200,96,37643,1,0
120,176,38111,5,0
200,256,38579,2,0,B|280:320|368:216|336:248,1,140
416,176,39516,1,0
352,88,39984,5,0
248,56,40453,2,0,B|144:64|96:176,1,140
120,232,41390,1,0
224,184,41858,5,0
320,128,42326,2,0,B|440:144|424:248,1,140
408,320,43263,1,0
304,280,43732,5,0
256,192,44200,12,0,45136
256,64,45605,5,0
256,232,46308,2,0,B|352:232,1,70
328,120,47010,1,0
96,184,47479,6,0,B|256:184|264:184,3,140
120,80,49352,5,0
288,104,50055,2,0,B|344:152,1,70
368,256,50757,1,0
168,256,51226,6,0,B|168:104,3,140
272,168,53099,5,0
440,168,53802,2,0,B|440:248,1,70
336,272,54504,1,0
168,192,54973,5,0
280,72,55675,2,0,B|352:72,1,70
376,184,56378,1,0
456,96,56846,2,0,B|456:256|456:376|224:376|32:376|32:160|40:16|152:8|400:0|288:24,1,840
48,192,60593,5,0
120,192,60906,2,0,B|168:192,1,46.6666666666667
240,192,61374,2,0,B|288:192,1,46.6666666666667
360,192,61842,2,0,B|424:192,1,46.6666666666667
480,192,62311,2,0,B|480:144,1,46.6666666666667
408,144,62779,6,0,B|352:144,1,46.6666666666667
288,144,63248,2,0,B|232:144,1,46.6666666666667
168,144,63716,2,0,B|112:144,1,46.6666666666667
48,144,64184,2,0,B|48:96,1,46.6666666666667
96,152,64653,6,0,B|128:184,1,46.6666666666667
184,232,65121,2,0,B|232:272,1,46.6666666666667
280,304,65589,2,0,B|320:336,1,46.6666666666667
392,344,66058,2,0,B|424:304,1,46.6666666666667
488,216,66682,1,0
432,32,68088,5,0
432,104,68400,2,0,B|392:136,1,46.6666666666667
344,80,68868,2,0,B|312:40,1,46.6666666666667
272,104,69337,2,0,B|232:136,1,46.6666666666667
232,208,69805,2,0,B|232:256,1,46.6666666666667
304,256,70273,6,0,B|352:256,1,46.6666666666667
352,184,70742,2,0,B|296:184,1,46.6666666666667
304,112,71210,2,0,B|352:112,1,46.6666666666667
352,40,71678,2,0,B|296:40,1,46.6666666666667
232,40,72147,2,0,B|184:40,1,46.6666666666667
112,40,72615,6,0,B|64:40,1,46.6666666666667
64,112,73084,2,0,B|64:160,1,46.6666666666667
256,192,73708,12,0,75582
48,192,77455,5,0
120,192,77767,2,0,B|176:192,1,46.6666666666667
240,192,78236,2,0,B|432:192,1,186.666666666667
504,192,79173,1,0
464,48,84793,6,0,B|408:80,1,46.6666666666667
488,112,85262,2,0,B|448:136,1,46.6666666666667
456,208,85730,2,0,B|312:208,1,140
232,280,86823,2,0,B|384:280,2,140
96,192,89399,5,0
96,80,89867,2,0,B|184:56|264:72|320:88|368:128|400:200|400:272|328:336,1,490
40,312,94317,5,0
