osu file format v13

[General]
AudioFilename: Kairaku genri.mp3
AudioLeadIn: 2000
PreviewTime: 63367
Countdown: 0
SampleSet: Normal
StackLeniency: 0.7
Mode: 0
LetterboxInBreaks: 1
WidescreenStoryboard: 0

[Editor]
DistanceSpacing: 1.5
BeatDivisor: 4
GridSize: 4
TimelineZoom: 2.7

[Metadata]
Title:Kairaku Genri (TV Size)
TitleUnicode:快楽原理 (TV Size)
Artist:Coffin princess
ArtistUnicode:Coffin princess
Creator:Main Black
Version:Normal
Source:棺姫のチャイカ
Tags:Hitsugi no Chaika
BeatmapID:401749
BeatmapSetID:164712

[Difficulty]
HPDrainRate:4
CircleSize:3
OverallDifficulty:4
ApproachRate:4
SliderMultiplier:1
SliderTickRate:2

[Events]
//Background and Video events
Video,-300,"Hitsugi no Chaika.avi"
0,0,"Hitsugi.jpg",0,0
//Break Periods
2,61353,62036
//Storyboard Layer 0 (Background)
//Storyboard Layer 1 (Fail)
//Storyboard Layer 2 (Pass)
//Storyboard Layer 3 (Foreground)
//Storyboard Sound Samples
//Background Colour Transformations
3,100,163,162,255

[TimingPoints]
127,338.983050847458,4,1,1,40,1,0
12330,-100,4,1,1,60,0,0
16397,-100,4,2,1,60,0,0
17753,-100,4,1,1,60,0,0
21821,-100,4,2,1,60,0,0
23177,-100,4,1,2,60,0,0
28940,-100,4,1,2,75,0,0
29279,-100,4,1,2,60,0,0
30296,-100,4,1,2,75,0,0
30635,-100,4,1,2,60,0,0
31313,-100,4,2,1,60,0,0
34024,-100,4,1,2,60,0,0
39787,-100,4,1,2,75,0,0
40126,-100,4,1,2,60,0,0
41143,-100,4,1,2,75,0,0
41482,-100,4,1,2,60,0,0
42160,-100,4,2,1,60,0,0
44872,-100,4,1,1,50,0,0
47245,-100,4,1,1,60,0,0
47923,-100,4,1,1,75,0,0
48601,-100,4,1,1,55,0,0
50974,-100,4,1,1,60,0,0
51652,-100,4,1,1,75,0,0
52324,340.909090909091,4,1,1,75,1,0
52324,-100,4,1,1,75,0,0
52837,-100,4,1,1,60,0,0
53346,342.857142857143,4,1,1,75,1,0
53346,-100,4,1,1,75,0,0
53688,-100,4,1,1,60,0,0
54374,344.827586206897,4,1,1,75,1,0
54374,-100,4,1,1,75,0,0
54718,-100,4,1,1,60,0,0
55408,350.877192982456,4,1,1,75,1,0
55408,-100,4,1,1,75,0,0
55758,-100,4,1,1,60,0,0
56460,-100,4,1,1,60,0,0
57500,355.029585798817,4,1,1,75,1,0
57500,-100,4,1,1,75,0,0
58565,346.820809248555,4,1,1,75,1,0
60645,338.983050847458,4,1,1,60,1,0
63356,-100,4,1,1,60,0,1
68780,-100,4,1,2,75,0,1
68950,-100,4,1,2,60,0,1
70136,-100,4,1,2,75,0,1
70306,-100,4,1,2,60,0,1
71492,-100,4,1,2,75,0,1
71662,-100,4,1,2,60,0,1
72509,-100,4,1,3,60,0,1
73187,-100,4,2,1,50,0,1
73526,-100,4,2,1,55,0,1
73865,-100,4,2,1,60,0,1
74119,-100,4,2,1,60,0,0
74204,-100,4,1,2,60,0,1
77933,-100,4,1,3,60,0,1
78272,-100,4,1,2,60,0,1
79628,-100,4,1,2,75,0,1
79797,-100,4,1,2,60,0,1
80984,-100,4,1,2,75,0,1
81153,-100,4,1,2,60,0,1
82340,-100,4,1,2,75,0,1
82509,-100,4,1,2,60,0,1
84373,-100,4,1,1,75,0,0

[Colours]
Combo1 : 200,0,0
Combo2 : 255,255,255
Combo3 : 14,160,248
Combo4 : 254,160,33
Combo5 : 251,254,120

[HitObjects]
480,88,127,6,0,P|413:62|362:111,1,150
380,208,974,1,0,0:0:0:0:
312,280,1313,2,0,P|263:289|212:284,1,100,0|2,0:0|0:0,0:0:0:0:
124,240,1991,2,0,P|95:307|120:376,1,150,0|2,0:0|0:0,0:0:0:0:
196,312,2838,6,0,P|232:300|316:308,2,100,0|2|0,0:0|0:0|0:0,0:0:0:0:
108,356,3855,2,0,P|70:359|-9:332,1,100
188,248,4872,6,0,P|276:283|344:220,1,200,2|0,0:0|0:0,0:0:0:0:
240,48,6228,2,0,P|151:12|78:73,1,200,2|0,0:0|0:0,0:0:0:0:
256,168,7584,2,0,L|380:144,2,100,2|0|0,0:0|0:0|0:0,0:0:0:0:
256,192,8601,12,0,11991,0:0:0:0:
220,216,12330,6,0,B|264:236|264:236|314:223,2,100,0|2|0,0:0|0:0|0:0,0:0:0:0:
168,128,13346,1,2,0:0:0:0:
80,179,13686,2,0,P|56:223|62:272,2,100,0|2|0,0:0|0:0|0:0,0:0:0:0:
168,128,14702,1,2,0:0:0:0:
264,96,15042,6,0,L|368:108,1,100,0|2,0:0|0:0,0:0:0:0:
304,188,15720,2,0,P|280:235|296:283,1,100,0|2,0:0|0:0,0:0:0:0:
372,340,16397,5,2,0:0:0:0:
372,340,16736,1,8,0:0:0:0:
448,276,17075,1,2,0:0:0:0:
448,276,17414,1,8,0:0:0:0:
404,188,17754,6,0,B|404:156|404:156|432:132|432:132|432:96,2,100,0|2|0,0:0|0:0|0:0,0:0:0:0:
360,276,18770,1,2,0:0:0:0:
279,336,19110,2,0,P|231:341|180:320,2,100,0|2|0,0:0|0:0|0:0,0:0:0:0:
240,243,20127,1,2,0:0:0:0:
180,164,20465,6,0,L|216:56,1,100,0|2,0:0|0:0,0:0:0:0:
304,112,21143,2,0,L|408:128,1,100,0|2,0:0|0:0,0:0:0:0:
428,224,21821,6,0,B|504:260,2,75,2|8|0,0:0|0:0|0:0,0:0:0:0:
380,244,22499,2,0,B|292:236,2,75,2|8|0,0:0|0:0|0:0,0:0:0:0:
400,288,23177,6,0,P|401:336|368:380,1,100,0|8,0:0|0:0,0:0:0:0:
284,332,23855,2,0,P|235:330|192:364,1,100,0|8,0:0|0:0,0:0:0:0:
104,320,24533,1,0,0:0:0:0:
52,236,24872,2,0,B|68:128,2,100,8|0|8,0:0|0:0|0:0,0:0:0:0:
104,320,25889,5,0,0:0:0:0:
192,272,26228,2,0,B|216:244|216:244|188:156,1,100,8|0,0:0|0:0,0:0:0:0:
144,96,26906,2,0,L|92:76,2,50,8|0|0,0:0|0:0|0:0,0:0:0:0:
240,64,27584,1,8,0:0:0:0:
336,96,27923,6,0,B|364:136|364:136|364:204,2,100,0|8|0,0:0|0:0|0:0,0:0:0:0:
240,64,28940,1,12,0:0:0:0:
144,96,29279,6,0,B|116:136|116:136|116:204,2,100,0|8|0,0:0|0:0|0:0,0:0:0:0:
240,64,30296,1,12,0:0:0:0:
336,96,30635,6,0,B|351:108|351:108|372:92|408:84|426:99,2,100,0|8|0,0:0|0:0|0:0,0:0:0:0:
240,120,31652,2,0,P|213:161|212:210,1,100,8|0,0:0|0:0,0:0:0:0:
272,292,32330,2,0,P|261:340|227:375,1,100,8|0,0:0|0:0,0:0:0:0:
132,348,33008,2,0,L|68:364,2,50,2|8|0,0:0|0:0|0:0,0:0:0:0:
160,252,33685,1,0,0:0:0:0:
236,184,34025,6,0,P|266:222|267:271,2,100,0|8|0,0:0|0:0|0:0,0:0:0:0:
144,148,35041,1,8,0:0:0:0:
224,88,35381,2,0,L|372:72,2,100,0|8|0,0:0|0:0|0:0,0:0:0:0:
144,148,36397,1,8,0:0:0:0:
152,248,36737,6,0,P|186:283|234:293,1,100,0|8,0:0|0:0,0:0:0:0:
324,248,37415,2,0,P|339:294|330:342,2,100,0|8|0,0:0|0:0|0:0,0:0:0:0:
248,180,38431,1,8,0:0:0:0:
296,92,38771,6,0,P|248:76|200:92,2,100,0|8|0,0:0|0:0|0:0,0:0:0:0:
352,176,39787,1,12,0:0:0:0:
448,144,40127,6,0,P|479:106|486:58,2,100,0|8|0,0:0|0:0|0:0,0:0:0:0:
352,176,41143,1,12,0:0:0:0:
276,244,41482,6,0,P|227:239|178:249,2,100,0|8|0,0:0|0:0|0:0,0:0:0:0:
312,280,42330,2,0,P|361:285|410:275,1,100,8|8,0:0|0:0,0:0:0:0:
448,240,42838,2,0,P|456:192|448:136,1,100,8|8,0:0|0:0,0:0:0:0:
372,80,43516,2,0,L|320:80,3,50,2|0|8|0,0:0|0:0|0:0|0:0,0:0:0:0:
436,320,44872,6,0,B|399:284|399:284|375:325|306:342|264:306,1,200,0|0,0:0|0:0,0:0:0:0:
172,339,45889,2,0,P|193:250|108:214,1,200,2|0,0:0|0:0,0:0:0:0:
16,260,46906,2,0,L|28:140,2,100,0|10|8,0:0|0:0|0:0,0:0:0:0:
72,344,47923,1,10,0:0:0:0:
124,156,48601,6,0,P|204:104|284:172,1,200,0|2,0:0|0:0,0:0:0:0:
272,256,49618,2,0,P|352:308|432:240,1,200,0|2,0:0|0:0,0:0:0:0:
408,156,50635,2,0,L|280:144,2,100,0|10|8,0:0|0:0|0:0,0:0:0:0:
500,120,51652,1,10,0:0:0:0:
316,48,52324,6,0,P|408:68|352:112,1,200,6|2,0:0|0:0,0:0:0:0:
272,140,53346,2,0,B|172:140,1,100,6|0,0:0|0:0,0:0:0:0:
88,196,54031,1,2,0:0:0:0:
156,268,54374,6,0,P|160:316|126:360,2,100,6|0|0,0:0|0:0|0:0,0:0:0:0:
87,195,55408,2,0,P|64:153|71:104,2,100,4|2|0,0:0|0:0|0:0,0:0:0:0:
188,176,56460,6,0,L|292:160,2,100,4|2|0,0:0|0:0|0:0,0:0:0:0:
108,120,57500,2,0,L|4:136,2,100,4|2|0,0:0|0:0|0:0,0:0:0:0:
256,192,58565,12,0,60299,0:0:0:0:
276,192,60645,6,0,L|212:184,3,50
295,76,63356,6,0,P|342:60|391:69,1,100,0|8,0:0|0:0,0:0:0:0:
348,160,64034,2,0,P|301:175|252:166,1,100,0|8,0:0|0:0,0:0:0:0:
168,108,64712,6,0,P|171:156|107:217,1,100,0|8,0:0|0:0,0:0:0:0:
68,264,65390,2,0,P|64:312|128:373,1,100,0|8,0:0|0:0,0:0:0:0:
164,288,66068,6,0,P|210:271|260:276,1,100,0|8,0:0|0:0,0:0:0:0:
304,184,66746,2,0,P|257:200|207:195,1,100,0|8,0:0|0:0,0:0:0:0:
144,116,67424,2,0,P|190:99|240:104,1,100,0|8,0:0|0:0,0:0:0:0:
332,148,68102,6,0,L|352:88,2,50,0|0|8,0:0|0:0|0:0,0:0:0:0:
300,240,68780,1,4,0:0:0:0:
396,220,69119,1,8,0:0:0:0:
364,316,69458,6,0,L|424:336,2,50,0|0|8,0:0|0:0|0:0,0:0:0:0:
268,280,70136,1,4,0:0:0:0:
288,376,70475,1,8,0:0:0:0:
192,348,70814,6,0,L|112:356,2,50,0|0|8,0:0|0:0|0:0,0:0:0:0:
268,280,71492,1,4,0:0:0:0:
360,316,71831,2,0,B|480:300,2,100,0|0|0,0:0|0:0|0:0,0:0:0:0:
268,280,72848,1,0,0:0:0:0:
176,320,73187,6,0,L|160:184,2,100,0|0|0,0:0|0:0|0:0,0:0:0:0:
268,280,74204,6,0,L|376:260,1,100,0|8,0:0|0:0,0:0:0:0:
440,192,74882,2,0,P|448:142|440:93,1,100,0|8,0:0|0:0,0:0:0:0:
352,144,75560,6,0,L|244:164,1,100,0|8,0:0|0:0,0:0:0:0:
176,228,76238,2,0,L|85:165,1,100,0|8,0:0|0:0,0:0:0:0:
96,72,76916,6,0,P|145:59|195:60,1,100,0|8,0:0|0:0,0:0:0:0:
260,136,77594,2,0,P|300:165|347:182,1,100,0|8,0:0|0:0,0:0:0:0:
440,148,78272,1,0,0:0:0:0:
508,224,78611,1,8,0:0:0:0:
448,304,78950,6,0,L|448:368,2,50,0|0|8,0:0|0:0|0:0,0:0:0:0:
352,276,79628,2,0,L|212:300,1,100,4|8,0:0|0:0,0:0:0:0:
180,360,80306,6,0,L|116:360,2,50,0|0|8,0:0|0:0|0:0,0:0:0:0:
152,264,80984,2,0,L|176:124,1,100,4|8,0:0|0:0,0:0:0:0:
208,72,81661,6,0,P|163:49|114:53,1,100,0|8,0:0|0:0,0:0:0:0:
48,128,82339,2,0,P|92:150|141:146,1,100,4|8,0:0|0:0,0:0:0:0:
232,104,83017,2,0,P|278:119|311:156,1,100,0|8,0:0|0:0,0:0:0:0:
304,256,83695,2,0,L|316:324,2,50,0|0|8,0:0|0:0|0:0,0:0:0:0:
216,304,84373,6,0,P|173:277|101:301,2,100,0|0|4,0:0|0:0|0:0,0:0:0:0:
268,112,85729,2,0,P|311:139|383:115,2,100,0|0|4,0:0|0:0|0:0,0:0:0:0:
412,252,87085,2,0,B|431:278|431:278|415:306|423:344,2,100,0|0|4,0:0|0:0|0:0,0:0:0:0:
