osu file format v13

[General]
AudioFilename: Kairaku genri.mp3
AudioLeadIn: 2000
PreviewTime: 63367
Countdown: 0
SampleSet: Normal
StackLeniency: 0.7
Mode: 0
LetterboxInBreaks: 1
WidescreenStoryboard: 0

[Editor]
Bookmarks: 17415
DistanceSpacing: 1.3
BeatDivisor: 4
GridSize: 4
TimelineZoom: 3.100005

[Metadata]
Title:Kairaku Genri (TV Size)
TitleUnicode:快楽原理 (TV Size)
Artist:Coffin princess
ArtistUnicode:Coffin princess
Creator:Main Black
Version:Insane
Source:棺姫のチャイカ
Tags:Hitsugi no Chaika
BeatmapID:400928
BeatmapSetID:164712

[Difficulty]
HPDrainRate:6
CircleSize:4
OverallDifficulty:6
ApproachRate:9
SliderMultiplier:1.8
SliderTickRate:2

[Events]
//Background and Video events
Video,-300,"Hitsugi no Chaika.avi"
0,0,"Hitsugi.jpg",0,0
//Break Periods
//Storyboard Layer 0 (Background)
//Storyboard Layer 1 (Fail)
//Storyboard Layer 2 (Pass)
//Storyboard Layer 3 (Foreground)
//Storyboard Sound Samples
//Background Colour Transformations
3,100,163,162,255

[TimingPoints]
127,338.983050847458,4,1,1,40,1,0
127,-200,4,1,1,40,0,0
12330,-100,4,1,1,60,0,0
12668,-100,4,1,1,75,0,0
13007,-100,4,1,1,60,0,0
14533,-100,4,1,1,75,0,0
14872,-100,4,1,1,60,0,0
15889,-100,4,1,1,75,0,0
16228,-100,4,1,1,60,0,0
16397,-100,4,2,1,75,0,0
17753,-100,4,1,1,60,0,0
18092,-100,4,1,1,75,0,0
18431,-100,4,1,1,60,0,0
19957,-100,4,1,1,75,0,0
20296,-100,4,1,1,60,0,0
21313,-100,4,1,1,75,0,0
21652,-100,4,1,1,60,0,0
21821,-100,4,2,1,75,0,0
23177,-100,4,1,2,60,0,0
27245,-90.9090909090909,4,1,2,60,0,0
27754,-100,4,1,2,60,0,0
28940,-100,4,1,2,75,0,0
29279,-100,4,1,2,60,0,0
30296,-100,4,1,2,75,0,0
30465,-100,4,1,2,60,0,0
31313,-100,4,2,1,60,0,0
33346,-100,4,2,1,65,0,0
33685,-100,4,2,1,60,0,0
34024,-100,4,1,2,60,0,0
35719,-100,4,1,3,60,0,0
35889,-100,4,1,2,60,0,0
39787,-100,4,1,2,75,0,0
40126,-100,4,1,2,60,0,0
41143,-100,4,1,2,75,0,0
41482,-100,4,1,2,60,0,0
42330,-100,4,2,1,65,0,0
42838,-100,4,2,1,60,0,0
44194,-100,4,2,1,55,0,0
44533,-100,4,2,1,60,0,0
44872,-133.333333333333,4,1,1,50,0,0
47245,-133.333333333333,4,1,1,60,0,0
47923,-133.333333333333,4,1,1,75,0,0
48601,-133.333333333333,4,1,1,55,0,0
50974,-133.333333333333,4,1,1,60,0,0
51652,-133.333333333333,4,1,1,75,0,0
52324,340.909090909091,4,1,1,75,1,0
52324,-133.333333333333,4,1,1,75,0,0
52835,-133.333333333333,4,1,1,60,0,0
53346,342.857142857143,4,1,1,75,1,0
53346,-133.333333333333,4,1,1,75,0,0
53688,-133.333333333333,4,1,1,60,0,0
54374,344.827586206897,4,1,1,60,1,0
54374,-133.333333333333,4,1,1,75,0,0
54718,-133.333333333333,4,1,1,60,0,0
55408,350.877192982456,4,1,1,60,1,0
55408,-133.333333333333,4,1,1,75,0,0
55758,-133.333333333333,4,1,1,60,0,0
56109,-133.333333333333,4,1,1,50,0,0
56460,-100,4,1,1,60,0,0
57500,355.029585798817,4,1,1,75,1,0
58565,346.820809248555,4,1,1,75,1,0
60645,338.983050847458,4,1,1,60,1,0
61322,-100,4,2,1,55,0,0
61661,-100,4,2,1,60,0,0
62339,-100,4,2,1,65,0,0
63356,-90.9090909090909,4,1,1,60,0,1
68780,-90.9090909090909,4,1,1,75,0,1
68950,-90.9090909090909,4,1,1,60,0,1
70136,-90.9090909090909,4,1,1,75,0,1
70306,-90.9090909090909,4,1,1,60,0,1
71492,-90.9090909090909,4,1,1,75,0,1
71662,-90.9090909090909,4,1,1,60,0,1
73187,-90.9090909090909,4,2,1,50,0,1
73526,-90.9090909090909,4,2,1,60,0,1
73865,-90.9090909090909,4,2,1,65,0,1
74119,-90.9090909090909,4,2,1,60,0,0
74204,-90.9090909090909,4,1,1,60,0,1
79628,-90.9090909090909,4,1,2,75,0,0
79797,-90.9090909090909,4,1,2,60,0,0
80136,-90.9090909090909,4,1,2,50,0,0
80306,-90.9090909090909,4,1,2,60,0,0
80984,-90.9090909090909,4,1,2,75,0,0
81153,-90.9090909090909,4,1,2,60,0,0
82340,-90.9090909090909,4,1,2,75,0,0
82424,-90.9090909090909,4,1,2,60,0,0
84374,-90.9090909090909,4,1,1,75,0,0

[Colours]
Combo1 : 200,0,0
Combo2 : 255,255,255
Combo3 : 14,160,248
Combo4 : 254,160,33
Combo5 : 251,254,120

[HitObjects]
72,144,127,6,0,P|116:160|172:164,1,90
240,136,635,1,0,0:0:0:0:
368,24,974,1,0,0:0:0:0:
432,212,1313,2,0,L|424:308,1,90,2|0,0:0|0:0,0:0:0:0:
268,188,1991,2,0,P|205:172|161:219,1,135,0|2,0:0|0:0,0:0:0:0:
200,372,2838,5,0,0:0:0:0:
288,224,3177,2,0,L|344:228,2,45,2|0|0,0:0|0:0|0:0,0:0:0:0:
204,172,3686,2,0,P|268:177|300:120,1,135,0|2,0:0|0:0,0:0:0:0:
192,64,4872,6,0,L|284:52,1,90,2|0,0:0|0:0,0:0:0:0:
416,96,5550,1,0,0:0:0:0:
104,256,6228,6,0,P|112:300|108:344,1,90,2|0,0:0|0:0,0:0:0:0:
236,176,6906,1,0,0:0:0:0:
440,192,7584,5,2,0:0:0:0:
256,276,7923,1,0,0:0:0:0:
72,192,8262,1,0,0:0:0:0:
256,192,8771,12,0,11991,0:0:0:0:
192,133,12330,6,0,P|125:186|148:268,2,180,4|2|0,0:0|0:0|0:0,0:0:0:0:
320,188,13177,1,0,0:0:0:0:
76,299,13347,2,0,P|158:281|207:350,1,180,2|0,0:0|0:0,0:0:0:0:
400,268,13855,5,0,0:0:0:0:
400,268,14024,1,2,0:0:0:0:
274,146,14194,2,0,B|320:184|320:184|280:216|276:264|294:293,2,180,0|2|0,0:0|0:0|0:0,0:0:0:0:
176,347,15042,6,0,P|251:304|334:330,1,180,0|2,0:0|0:0,0:0:0:0:
288,216,15550,2,0,B|244:257|244:257|286:286|294:333|277:364,2,180,2|2|0,0:0|0:0|0:0,0:0:0:0:
100,104,16397,6,0,L|192:84,1,90,2|0,0:0|0:0,0:0:0:0:
392,164,16736,2,0,L|300:184,1,90,8|0,0:0|0:0,0:0:0:0:
156,300,17075,2,0,L|200:220,1,90,2|0,0:0|0:0,0:0:0:0:
436,96,17414,2,0,L|420:208,1,90,8|0,0:0|0:0,0:0:0:0:
292,360,17754,6,0,B|304:336|304:336|276:320|276:320|300:300|300:300|272:204,2,180,0|0|0,0:0|0:0|0:0,0:0:0:0:
388,260,18601,1,0,0:0:0:0:
152,276,18771,2,0,B|144:320|144:320|176:276|220:248|272:240,1,180,2|0,0:0|0:0,0:0:0:0:
388,260,19279,5,0,0:0:0:0:
276,108,19448,1,2,0:0:0:0:
452,40,19618,2,0,B|410:78|410:78|453:120|453:120|434:185,2,180,0|2|0,0:0|0:0|0:0,0:0:0:0:
464,240,20465,6,0,P|398:184|320:219,1,180,0|2,0:0|0:0,0:0:0:0:
124,124,20974,2,0,P|189:179|267:144,2,180,2|2|0,0:0|0:0|0:0,0:0:0:0:
344,32,21821,6,0,L|356:128,1,90,6|0,0:0|0:0,0:0:0:0:
444,152,22075,2,0,P|424:200|416:256,1,90,0|0,0:0|0:0,0:0:0:0:
444,320,22330,1,2,0:0:0:0:
272,260,22499,2,0,P|228:256|176:272,1,90,6|0,0:0|0:0,0:0:0:0:
128,200,22753,2,0,L|33:193,1,90,2|0,0:0|0:0,0:0:0:0:
4,224,23007,1,0,0:0:0:0:
192,155,23177,6,0,P|124:209|140:296,1,180,0|8,0:0|0:0,0:0:0:0:
272,260,23686,2,0,P|312:273|352:304,1,90,0|0,0:0|0:0,0:0:0:0:
400,136,24025,2,0,P|380:98|374:48,1,90,0|8,0:0|0:0,0:0:0:0:
264,216,24364,6,0,L|252:316,2,90
176,352,24872,1,8,0:0:0:0:
200,144,25042,1,0,0:0:0:0:
56,240,25211,2,0,L|145:228,2,90,0|0|8,0:0|0:0|0:0,0:0:0:0:
439,344,25889,6,0,P|450:300|443:256,1,90,0|0,0:0|0:0,0:0:0:0:
240,356,26228,2,0,P|281:341|313:310,1,90,8|0,0:0|0:0,0:0:0:0:
336,196,26567,1,0,0:0:0:0:
256,52,26736,1,0,0:0:0:0:
376,112,26906,1,8,0:0:0:0:
120,160,27075,1,4,0:0:0:0:
120,160,27160,1,0,0:0:0:0:
120,160,27245,2,0,B|84:168|84:168|167:191|164:264|124:304,1,198.000006042481,0|8,0:0|0:0,0:0:0:0:
20,356,27753,1,0,0:0:0:0:
44,124,27923,6,0,P|87:116|130:131,1,90,0|0,0:0|0:0,0:0:0:0:
84,244,28262,2,0,P|120:269|140:310,1,90,0|0,0:0|0:0,0:0:0:0:
20,356,28601,1,0,0:0:0:0:
324,300,28940,5,12,0:0:0:0:
140,184,29279,2,0,L|48:176,1,90,0|0,0:0|0:0,0:0:0:0:
252,52,29618,2,0,L|344:60,1,90,8|0,0:0|0:0,0:0:0:0:
448,140,29957,1,0,0:0:0:0:
192,20,30296,6,0,L|208:132,1,90,12|0,0:0|0:0,0:0:0:0:
300,276,30635,1,0,0:0:0:0:
352,140,30804,1,0,0:0:0:0:
392,348,30974,1,8,0:0:0:0:
500,304,31143,1,0,0:0:0:0:
492,188,31313,6,0,L|499:98,1,90,0|0,0:0|0:0,0:0:0:0:
260,244,31652,2,0,L|254:337,1,90,8|0,0:0|0:0,0:0:0:0:
140,212,31991,1,2,0:0:0:0:
300,276,32160,1,0,0:0:0:0:
444,164,32330,2,0,L|352:152,1,90,8|0,0:0|0:0,0:0:0:0:
140,212,32668,5,2,0:0:0:0:
284,147,32838,1,0,0:0:0:0:
175,276,33007,5,8,0:0:0:0:
249,82,33177,1,0,0:0:0:0:
244,320,33346,5,2,0:0:0:0:
180,39,33516,1,0,0:0:0:0:
378,100,33686,5,2,0:0:0:0:
408,143,33770,1,2,0:0:0:0:
408,196,33855,1,8,0:0:0:0:
379,241,33940,1,8,0:0:0:0:
330,260,34025,2,0,L|232:248,1,90,4|0,0:0|0:0,0:0:0:0:
488,284,34363,2,0,P|465:321|414:349,1,90,8|0,0:0|0:0,0:0:0:0:
292,164,34702,2,0,P|273:123|286:65,1,90,0|0,0:0|0:0,0:0:0:0:
368,0,35041,1,8,0:0:0:0:
364,228,35211,6,0,P|407:218|452:222,1,90,0|0,0:0|0:0,0:0:0:0:
316,348,35550,2,0,P|272:358|227:354,1,90,0|8,0:0|0:0,0:0:0:0:
84,224,35889,2,0,B|152:176|152:176|216:188|222:233,1,180,0|0,0:0|0:0,0:0:0:0:
56,328,36398,1,8,0:0:0:0:
444,108,36737,6,0,L|336:96,1,90,0|0,0:0|0:0,0:0:0:0:
180,116,37076,1,8,0:0:0:0:
324,72,37245,1,0,0:0:0:0:
164,160,37415,1,0,0:0:0:0:
324,72,37584,1,0,0:0:0:0:
148,204,37754,1,8,0:0:0:0:
376,44,37923,2,0,L|364:148,1,90,0|0,0:0|0:0,0:0:0:0:
136,296,38262,2,0,L|76:208,2,90,0|8|0,0:0|0:0|0:0,0:0:0:0:
352,148,38771,6,0,P|393:164|438:161,1,90,0|0,0:0|0:0,0:0:0:0:
224,84,39110,2,0,P|208:132|220:180,1,90,8|0,0:0|0:0,0:0:0:0:
312,272,39449,1,0,0:0:0:0:
64,208,39788,1,12,0:0:0:0:
316,52,40127,6,0,P|305:103|312:152,1,90,0|0,0:0|0:0,0:0:0:0:
452,328,40465,2,0,P|462:276|455:227,1,90,8|0,0:0|0:0,0:0:0:0:
392,152,40804,1,0,0:0:0:0:
120,64,41143,1,12,0:0:0:0:
80,296,41482,5,0,0:0:0:0:
60,138,41652,1,0,0:0:0:0:
167,247,41821,1,8,0:0:0:0:
8,224,41991,1,0,0:0:0:0:
156,152,42160,1,0,0:0:0:0:
176,348,42330,5,8,0:0:0:0:
176,348,42415,1,0,0:0:0:0:
176,348,42499,1,0,0:0:0:0:
16,132,42838,1,2,0:0:0:0:
120,64,43008,1,8,0:0:0:0:
416,200,43347,5,0,0:0:0:0:
308,300,43516,2,0,L|216:304,1,90,10|0,0:0|0:0,0:0:0:0:
252,164,43855,2,0,L|191:97,1,90,2|0,0:0|0:0,0:0:0:0:
426,116,44194,5,8,0:0:0:0:
444,137,44279,1,8,0:0:0:0:
457,161,44364,1,8,0:0:0:0:
465,188,44449,1,8,0:0:0:0:
466,216,44533,1,8,0:0:0:0:
460,244,44618,1,8,0:0:0:0:
449,270,44703,1,8,0:0:0:0:
432,292,44788,1,8,0:0:0:0:
410,310,44872,6,0,P|344:295|279:309,1,135.000005149842,6|0,0:0|0:0,0:0:0:0:
244,348,45550,1,2,0:0:0:0:
45,152,45889,2,0,P|110:166|176:152,1,135.000005149842,2|0,0:0|0:0,0:0:0:0:
216,112,46567,1,0,0:0:0:0:
328,332,46906,5,0,0:0:0:0:
396,248,47076,1,0,0:0:0:0:
360,144,47245,2,0,L|312:80,1,67.5000025749208,10|0,0:0|0:0,0:0:0:0:
164,204,47584,2,0,L|230:194,1,67.5000025749208,8|0,0:0|0:0,0:0:0:0:
64,112,47923,1,10,0:0:0:0:
40,188,48601,6,0,P|84:140|148:152,1,135.000005149842,4|2,0:0|0:0,0:0:0:0:
200,216,49110,1,0,0:0:0:0:
268,172,49279,1,2,0:0:0:0:
380,48,49618,2,0,L|240:76,1,135.000005149842,0|0,0:0|0:0,0:0:0:0:
160,36,50127,1,2,0:0:0:0:
160,36,50296,1,2,0:0:0:0:
209,319,50635,5,0,0:0:0:0:
112,276,50804,1,0,0:0:0:0:
288,244,50974,2,0,L|337:181,1,67.5000025749208,10|0,0:0|0:0,0:0:0:0:
192,76,51313,2,0,L|219:139,1,67.5000025749208,8|0,0:0|0:0,0:0:0:0:
64,44,51652,1,10,0:0:0:0:
80,95,52324,6,0,P|156:36|244:88,1,202.500007724762,6|0,0:0|0:0,0:0:0:0:
388,92,53005,2,0,P|379:124|380:158,1,67.5000025749208,2|0,0:0|0:0,0:0:0:0:
224,176,53346,2,0,P|257:233|230:292,1,135.000005149842,6|0,0:0|0:0,0:0:0:0:
76,300,53860,2,0,L|32:244,2,67.5000025749208,0|2|0,0:0|0:0|0:0,0:0:0:0:
296,336,54374,6,0,B|244:292|244:292|184:323,1,135.000005149842,6|0,0:0|0:0,0:0:0:0:
80,380,54891,1,0,0:0:0:0:
12,284,55063,1,2,0:0:0:0:
328,224,55408,2,0,P|303:286|329:346,2,135.000005149842,4|2|0,0:0|0:0|0:0,0:0:0:0:
472,112,56460,6,0,B|424:160|424:160|311:132,1,180,0|0,0:0|0:0,0:0:0:0:
120,168,56986,1,2,0:0:0:0:
228,92,57162,1,2,0:0:0:0:
32,124,57500,6,0,B|79:172|79:172|48:284,1,180,0|0,0:0|0:0,0:0:0:0:
132,368,58032,1,2,0:0:0:0:
216,208,58210,1,2,0:0:0:0:
256,192,58565,12,0,60299,0:0:0:0:
204,160,60645,5,2,0:0:0:0:
264,360,60814,1,2,0:0:0:0:
316,204,60983,1,2,0:0:0:0:
72,252,61153,1,0,0:0:0:0:
199,77,61322,5,0,0:0:0:0:
231,64,61407,1,0,0:0:0:0:
264,52,61492,1,0,0:0:0:0:
299,39,61577,1,0,0:0:0:0:
327,61,61661,5,2,0:0:0:0:
362,74,61746,1,2,0:0:0:0:
395,86,61831,1,2,0:0:0:0:
427,99,61916,1,2,0:0:0:0:
415,133,62000,5,8,0:0:0:0:
430,166,62085,1,8,0:0:0:0:
445,198,62170,1,8,0:0:0:0:
458,230,62255,1,8,0:0:0:0:
440,268,62339,6,0,L|440:324,1,45,8|0,0:0|0:0,0:0:0:0:
352,228,62509,2,0,L|352:284,1,45,8|0,0:0|0:0,0:0:0:0:
264,300,62678,2,0,L|264:256,1,45,2|0,0:0|0:0,0:0:0:0:
180,192,62848,2,0,L|180:244,1,45,8|0,0:0|0:0,0:0:0:0:
148,340,63017,1,0,0:0:0:0:
264,176,63356,6,0,L|160:172,1,99.0000030212403,0|0,0:0|0:0,0:0:0:0:
12,116,63695,2,0,P|34:159|28:208,1,99.0000030212403,8|0,0:0|0:0,0:0:0:0:
28,207,63949,1,0,0:0:0:0:
28,207,64033,1,0,0:0:0:0:
208,340,64204,2,0,L|228:240,1,99.0000030212403,0|8,0:0|0:0,0:0:0:0:
176,124,64543,1,0,0:0:0:0:
256,276,64712,5,0,0:0:0:0:
376,236,64882,1,0,0:0:0:0:
184,216,65051,1,8,0:0:0:0:
412,324,65221,1,0,0:0:0:0:
412,324,65306,1,0,0:0:0:0:
412,324,65390,2,0,P|412:268|420:216,1,99.0000030212403,0|0,0:0|0:0,0:0:0:0:
308,48,65729,2,0,P|290:101|260:144,1,99.0000030212403,8|0,0:0|0:0,0:0:0:0:
62,260,66068,6,0,B|104:272|136:248|136:248|176:308|128:358,1,198.000006042481,0|8,0:0|0:0,0:0:0:0:
236,332,66577,1,0,0:0:0:0:
304,224,66746,2,0,L|288:112,1,99.0000030212403,0|0,0:0|0:0,0:0:0:0:
272,76,67000,1,0,0:0:0:0:
224,52,67085,1,8,0:0:0:0:
176,76,67170,1,0,0:0:0:0:
172,132,67255,1,0,0:0:0:0:
336,252,67424,6,0,L|236:260,1,99.0000030212403,0|0,0:0|0:0,0:0:0:0:
172,336,67678,1,0,0:0:0:0:
192,352,67763,2,0,L|88:340,1,99.0000030212403,8|0,0:0|0:0,0:0:0:0:
152,180,68102,1,0,0:0:0:0:
28,280,68272,1,0,0:0:0:0:
152,180,68441,1,8,0:0:0:0:
356,272,68611,1,0,0:0:0:0:
208,328,68780,5,4,0:0:0:0:
151,180,68950,1,0,0:0:0:0:
298,123,69119,1,8,0:0:0:0:
68,104,69289,1,0,0:0:0:0:
356,124,69458,2,0,L|256:144,1,99.0000030212403,0|0,0:0|0:0,0:0:0:0:
136,320,69797,2,0,L|236:300,1,99.0000030212403,8|0,0:0|0:0,0:0:0:0:
412,72,70136,2,0,P|384:116|368:168,1,99.0000030212403,4|0,0:0|0:0,0:0:0:0:
492,376,70475,2,0,P|487:318|472:278,1,99.0000030212403,8|0,0:0|0:0,0:0:0:0:
324,316,70814,5,0,0:0:0:0:
188,193,70983,1,0,0:0:0:0:
324,316,71153,1,8,0:0:0:0:
127,298,71322,1,0,0:0:0:0:
369,381,71492,6,0,B|324:316|324:316|380:193,1,198.000006042481,4|8,0:0|0:0,0:0:0:0:
148,128,72000,2,0,B|188:192|188:192|124:304,1,198.000006042481,0|0,0:0|0:0,0:0:0:0:
296,176,72509,5,8,0:0:0:0:
208,328,72678,1,0,0:0:0:0:
112,152,72848,1,0,0:0:0:0:
336,300,73017,1,0,0:0:0:0:
112,252,73187,5,8,0:0:0:0:
135,242,73272,1,0,0:0:0:0:
158,234,73356,1,0,0:0:0:0:
181,225,73441,1,0,0:0:0:0:
230,243,73526,5,2,0:0:0:0:
253,234,73611,1,2,0:0:0:0:
276,227,73695,1,2,0:0:0:0:
299,218,73780,1,2,0:0:0:0:
346,237,73865,5,8,0:0:0:0:
369,229,73950,1,8,0:0:0:0:
392,219,74034,1,8,0:0:0:0:
416,210,74119,1,8,0:0:0:0:
438,202,74204,6,0,L|452:82,1,99.0000030212403,0|0,0:0|0:0,0:0:0:0:
336,32,74543,1,8,0:0:0:0:
476,144,74712,1,0,0:0:0:0:
252,108,74882,1,0,0:0:0:0:
288,308,75051,2,0,P|293:251|304:204,1,99.0000030212403,0|8,0:0|0:0,0:0:0:0:
72,268,75390,5,0,0:0:0:0:
72,268,75475,1,0,0:0:0:0:
72,268,75560,1,0,0:0:0:0:
104,48,75729,2,0,L|128:144,1,99.0000030212403,0|8,0:0|0:0,0:0:0:0:
252,108,76068,5,0,0:0:0:0:
176,284,76238,1,0,0:0:0:0:
292,200,76407,1,0,0:0:0:0:
96,168,76577,1,8,0:0:0:0:
292,308,76745,1,0,0:0:0:0:
411,135,76916,6,0,P|479:200|445:288,1,198.000006042481,0|8,0:0|0:0,0:0:0:0:
240,252,77424,2,0,B|288:252|314:291|314:291|314:247|348:216|381:219,1,198.000006042481,0|0,0:0|0:0,0:0:0:0:
488,356,77933,1,8,0:0:0:0:
292,328,78102,1,0,0:0:0:0:
444,120,78272,6,0,L|428:217,1,99.0000030212403,0|0,0:0|0:0,0:0:0:0:
488,356,78611,1,8,0:0:0:0:
396,248,78780,1,0,0:0:0:0:
206,286,78950,6,0,P|254:295|292:328,1,99.0000030212403,0|0,0:0|0:0,0:0:0:0:
92,204,79289,2,0,L|220:192,1,99.0000030212403,8|0,0:0|0:0,0:0:0:0:
312,124,79628,2,0,L|440:112,1,99.0000030212403,4|0,0:0|0:0,0:0:0:0:
480,60,79882,1,0,0:0:0:0:
504,48,79967,1,8,0:0:0:0:
396,248,80136,1,0,0:0:0:0:
432,36,80306,6,0,L|460:148,1,99.0000030212403,0|0,0:0|0:0,0:0:0:0:
272,140,80645,2,0,L|244:252,1,99.0000030212403,8|0,0:0|0:0,0:0:0:0:
76,84,80983,2,0,L|173:74,1,99.0000030212403,4|0,0:0|0:0,0:0:0:0:
236,16,81238,1,0,0:0:0:0:
208,12,81322,1,8,0:0:0:0:
296,192,81492,1,0,0:0:0:0:
116,232,81661,6,0,L|16:208,1,99.0000030212403,0|0,0:0|0:0,0:0:0:0:
212,200,82000,1,8,0:0:0:0:
44,264,82170,1,0,0:0:0:0:
284,336,82339,1,4,0:0:0:0:
284,336,82424,1,0,0:0:0:0:
284,336,82509,1,0,0:0:0:0:
336,104,82678,6,0,L|358:200,1,99.0000030212403,8|0,0:0|0:0,0:0:0:0:
284,336,83017,1,0,0:0:0:0:
324,160,83187,2,0,L|224:172,2,99.0000030212403,0|8|0,0:0|0:0|0:0,0:0:0:0:
212,40,83695,1,0,0:0:0:0:
268,204,83865,1,0,0:0:0:0:
104,100,84034,1,8,0:0:0:0:
108,280,84204,1,0,0:0:0:0:
260,112,84373,6,0,L|364:132,1,99.0000030212403,0|0,0:0|0:0,0:0:0:0:
252,272,84712,2,0,L|148:252,1,99.0000030212403,0|0,0:0|0:0,0:0:0:0:
64,184,85051,1,4,0:0:0:0:
240,52,85729,6,0,L|328:112,1,99.0000030212403,0|0,0:0|0:0,0:0:0:0:
272,332,86068,2,0,L|184:272,1,99.0000030212403,0|0,0:0|0:0,0:0:0:0:
120,100,86407,1,4,0:0:0:0:
388,44,87085,6,0,L|353:144,1,99.0000030212403,0|0,0:0|0:0,0:0:0:0:
168,344,87424,2,0,L|133:244,1,99.0000030212403,0|0,0:0|0:0,0:0:0:0:
208,56,87763,1,4,0:0:0:0:
