osu file format v13

[General]
AudioFilename: Kairaku genri.mp3
AudioLeadIn: 2000
PreviewTime: 63367
Countdown: 0
SampleSet: Normal
StackLeniency: 0.7
Mode: 0
LetterboxInBreaks: 1
WidescreenStoryboard: 0

[Editor]
DistanceSpacing: 1.5
BeatDivisor: 4
GridSize: 4
TimelineZoom: 4.600003

[Metadata]
Title:Kairaku Genri (TV Size)
TitleUnicode:快楽原理 (TV Size)
Artist:Coffin princess
ArtistUnicode:Coffin princess
Creator:Main Black
Version:Hard
Source:棺姫のチャイカ
Tags:Hitsugi no Chaika
BeatmapID:401322
BeatmapSetID:164712

[Difficulty]
HPDrainRate:5
CircleSize:4
OverallDifficulty:5
ApproachRate:8
SliderMultiplier:1.6
SliderTickRate:2

[Events]
//Background and Video events
Video,-300,"Hitsugi no Chaika.avi"
0,0,"Hitsugi.jpg",0,0
//Break Periods
//Storyboard Layer 0 (Background)
//Storyboard Layer 1 (Fail)
//Storyboard Layer 2 (Pass)
//Storyboard Layer 3 (Foreground)
//Storyboard Sound Samples
//Background Colour Transformations
3,100,163,162,255

[TimingPoints]
127,338.983050847458,4,1,1,40,1,0
127,-200,4,1,1,40,0,0
12330,-100,4,1,1,50,0,0
13346,-100,4,1,4,60,0,0
13516,-100,4,1,1,60,0,0
16058,-100,4,1,4,60,0,0
16397,-100,4,2,1,60,0,0
17753,-100,4,1,1,60,0,0
18770,-100,4,1,4,60,0,0
18940,-100,4,1,1,60,0,0
21482,-100,4,1,4,60,0,0
21821,-100,4,2,1,60,0,0
23177,-100,4,1,2,60,0,0
26906,-100,4,1,3,60,0,0
27245,-100,4,1,2,60,0,0
28940,-100,4,1,2,75,0,0
29279,-100,4,1,2,60,0,0
30296,-100,4,1,2,75,0,0
30635,-100,4,1,2,60,0,0
31313,-100,4,2,1,60,0,0
34024,-100,4,1,2,60,0,0
37753,-100,4,1,3,60,0,0
38092,-100,4,1,2,60,0,0
39787,-100,4,1,2,75,0,0
40126,-100,4,1,2,60,0,0
41143,-100,4,1,2,75,0,0
41482,-100,4,1,2,60,0,0
42160,-100,4,2,1,60,0,0
44872,-200,4,1,1,50,0,0
47245,-200,4,1,1,60,0,0
47923,-200,4,1,1,75,0,0
48601,-200,4,1,1,55,0,0
50974,-200,4,1,1,60,0,0
51652,-200,4,1,1,75,0,0
52324,340.909090909091,4,1,1,75,1,0
52324,-133.333333333333,4,1,1,75,0,0
52835,-133.333333333333,4,1,1,60,0,0
53346,342.857142857143,4,1,1,75,1,0
53346,-133.333333333333,4,1,1,75,0,0
53688,-133.333333333333,4,1,1,60,0,0
54374,344.827586206897,4,1,1,75,1,0
54374,-133.333333333333,4,1,1,75,0,0
54718,-133.333333333333,4,1,1,60,0,0
55408,350.877192982456,4,1,1,75,1,0
55408,-133.333333333333,4,1,1,75,0,0
55758,-133.333333333333,4,1,1,60,0,0
56460,-133.333333333333,4,1,1,75,0,0
56811,-133.333333333333,4,1,1,60,0,0
57500,355.029585798817,4,1,1,75,1,0
57500,-133.333333333333,4,1,1,75,0,0
58565,346.820809248555,4,1,1,60,1,0
60645,338.983050847458,4,1,1,75,1,0
63356,-100,4,1,1,60,0,1
67085,-100,4,1,3,60,0,1
67424,-100,4,1,2,60,0,1
68780,-100,4,1,2,75,0,1
68950,-100,4,1,2,60,0,1
70136,-100,4,1,2,75,0,1
70306,-100,4,1,2,60,0,1
71492,-100,4,1,2,75,0,1
71662,-100,4,1,2,60,0,1
73187,-100,4,2,1,50,0,1
73526,-100,4,2,1,55,0,1
73865,-100,4,2,1,60,0,1
74119,-100,4,2,1,60,0,0
74204,-100,4,1,2,60,0,1
77933,-100,4,1,3,60,0,1
78272,-100,4,1,2,60,0,1
79628,-100,4,1,2,75,0,1
79797,-100,4,1,2,60,0,1
80984,-100,4,1,2,75,0,1
81153,-100,4,1,2,60,0,1
82340,-100,4,1,2,75,0,1
82509,-100,4,1,2,60,0,1
84373,-100,4,1,1,75,0,0

[Colours]
Combo1 : 200,0,0
Combo2 : 255,255,255
Combo3 : 14,160,248
Combo4 : 254,160,33
Combo5 : 251,254,120

[HitObjects]
424,88,127,6,0,P|440:144|404:204,1,120,0|0,0:0|0:0,0:0:0:0:
328,240,974,1,0,0:0:0:0:
200,104,1313,2,0,L|216:196,1,80,0|2,0:0|0:0,0:0:0:0:
100,284,1991,2,0,B|115:228|115:228|75:179,1,120,0|2,0:0|0:0,0:0:0:0:
128,40,2838,5,0,0:0:0:0:
200,104,3177,2,0,B|259:116|259:116|296:68,2,120,2|0|2,0:0|0:0|0:0,0:0:0:0:
240,196,4872,6,0,L|156:177,2,80,2|2|0,0:0|0:0|0:0,0:0:0:0:
372,336,6228,2,0,L|452:316,2,80,2|2|0,0:0|0:0|0:0,0:0:0:0:
180,336,7584,1,2,0:0:0:0:
92,268,7923,1,0,0:0:0:0:
196,228,8262,1,0,0:0:0:0:
256,192,8601,12,0,11991,0:0:0:0:
120,96,12330,6,0,B|160:152|160:152|104:256,2,160,0|2|0,0:0|0:0|0:0,0:0:0:0:
272,168,13177,2,0,B|232:112|232:112|288:8,1,160,0|0,0:0|0:0,0:0:0:0:
412,100,13685,6,0,L|328:100,1,80,0|0,0:0|0:0,0:0:0:0:
360,200,14025,2,0,B|338:257|338:257|288:240|288:240|257:274,2,160,2|0|2,0:0|0:0|0:0,0:0:0:0:
246,62,15042,6,0,B|200:32|200:32|200:64|168:100|130:92,2,160,0|2|0,0:0|0:0|0:0,0:0:0:0:
348,156,15889,2,0,P|368:228|296:292,1,160,0|0,0:0|0:0,0:0:0:0:
212,268,16397,1,2,0:0:0:0:
35,268,16736,1,8,0:0:0:0:
159,143,17075,1,2,0:0:0:0:
124,324,17414,1,8,0:0:0:0:
60,160,17754,6,0,P|130:134|129:59,2,160
40,68,18601,2,0,B|88:112|88:112|88:136|88:136|138:186,1,160,0|0,0:0|0:0,0:0:0:0:
232,296,19109,6,0,P|193:287|153:295,1,80,0|0,0:0|0:0,0:0:0:0:
60,232,19449,2,0,B|68:178|68:178|104:188|148:164|151:131,2,160,2|0|2,0:0|0:0|0:0,0:0:0:0:
232,52,20465,6,0,B|280:116|280:116|241:186,2,160,0|2|0,0:0|0:0|0:0,0:0:0:0:
168,138,21313,2,0,P|241:112|316:144,1,160,0|0,0:0|0:0,0:0:0:0:
424,248,21821,6,0,P|464:200|436:116,2,120,2|2|0,0:0|0:0|0:0,0:0:0:0:
332,196,22499,1,2,0:0:0:0:
256,332,22754,1,8,0:0:0:0:
256,332,22923,1,2,0:0:0:0:
112,280,23177,6,0,P|135:208|79:157,1,160,0|8,0:0|0:0,0:0:0:0:
36,64,23686,2,0,P|73:79|113:79,1,80,0|0,0:0|0:0,0:0:0:0:
204,28,24025,2,0,P|216:68|248:96,1,80,0|8,0:0|0:0,0:0:0:0:
344,76,24364,1,0,0:0:0:0:
424,144,24533,1,0,0:0:0:0:
324,180,24703,1,0,0:0:0:0:
344,76,24872,2,0,L|420:52,1,80,8|0,0:0|0:0,0:0:0:0:
416,200,25211,2,0,L|492:176,2,80,0|0|8,0:0|0:0|0:0,0:0:0:0:
312,296,25889,6,0,P|240:272|188:328,1,160,0|8,0:0|0:0,0:0:0:0:
324,384,26398,2,0,P|391:349|395:271,2,160,0|0|0,0:0|0:0|0:0,0:0:0:0:
300,236,27245,2,0,L|336:144,1,80,0|0,0:0|0:0,0:0:0:0:
220,156,27584,2,0,L|226:76,1,80,8|0,0:0|0:0,0:0:0:0:
116,104,27923,6,0,L|96:24,1,80,0|0,0:0|0:0,0:0:0:0:
4,124,28262,2,0,L|8:204,1,80,8|0,0:0|0:0,0:0:0:0:
0,308,28601,2,0,P|71:282|124:336,1,160,0|12,0:0|0:0,0:0:0:0:
331,371,29279,6,0,P|309:299|363:245,1,160,0|8,0:0|0:0,0:0:0:0:
467,241,29787,1,0,0:0:0:0:
404,324,29957,2,0,L|248:286,1,160,0|12,0:0|0:0,0:0:0:0:
80,116,30635,6,0,P|80:155|74:195,1,80,0|0,0:0|0:0,0:0:0:0:
196,288,30974,2,0,P|196:249|202:209,1,80,8|0,0:0|0:0,0:0:0:0:
280,88,31313,2,0,L|176:96,2,80,0|0|8,0:0|0:0|0:0,0:0:0:0:
364,180,31821,2,0,L|443:173,1,80,0|0,0:0|0:0,0:0:0:0:
312,300,32160,2,0,L|391:293,2,80,0|8|0,0:0|0:0|0:0,0:0:0:0:
248,208,32668,6,0,L|168:214,1,80,2|0,0:0|0:0,0:0:0:0:
48,260,33007,2,0,L|41:180,1,80,8|0,0:0|0:0,0:0:0:0:
4,56,33346,2,0,L|83:49,1,80,2|0,0:0|0:0,0:0:0:0:
208,12,33685,2,0,L|214:91,1,80,8|0,0:0|0:0,0:0:0:0:
280,216,34025,6,0,L|324:48,1,160,4|8,0:0|0:0,0:0:0:0:
408,132,34533,2,0,L|488:132,1,80,0|0,0:0|0:0,0:0:0:0:
460,248,34872,2,0,L|380:248,1,80,0|8,0:0|0:0,0:0:0:0:
280,216,35210,5,0,0:0:0:0:
208,292,35380,1,0,0:0:0:0:
280,368,35549,1,0,0:0:0:0:
384,368,35720,2,0,B|404:320|404:320|424:344|480:352|503:328,2,160,8|0|8,0:0|0:0|0:0,0:0:0:0:
224,308,36736,6,0,P|188:324|144:328,1,80,0|0,0:0|0:0,0:0:0:0:
56,300,37075,1,8,0:0:0:0:
188,224,37245,2,0,P|207:300|186:376,2,160,0|0|0,0:0|0:0|0:0,0:0:0:0:
308,272,38092,6,0,L|320:352,1,80,0|0,0:0|0:0,0:0:0:0:
428,240,38431,2,0,L|444:161,1,80,8|0,0:0|0:0,0:0:0:0:
395,75,38771,6,0,P|319:70|272:131,1,160,0|8,0:0|0:0,0:0:0:0:
364,164,39278,1,0,0:0:0:0:
296,256,39449,2,0,P|321:328|400:348,1,160,0|12,0:0|0:0,0:0:0:0:
436,128,40126,6,0,P|373:83|296:124,1,160,0|8,0:0|0:0,0:0:0:0:
271,212,40634,1,0,0:0:0:0:
364,164,40804,2,0,L|384:4,1,160,0|12,0:0|0:0,0:0:0:0:
204,52,41482,6,0,L|214:144,1,80,0|0,0:0|0:0,0:0:0:0:
108,120,41821,2,0,L|98:212,1,80,8|0,0:0|0:0,0:0:0:0:
28,276,42160,1,0,0:0:0:0:
124,336,42330,2,0,L|224:316,1,80,2|8,0:0|0:0,0:0:0:0:
216,328,42838,5,8,0:0:0:0:
136,248,43008,2,0,L|128:168,2,80,2|8|0,0:0|0:0|0:0,0:0:0:0:
296,136,43516,6,0,L|190:136,1,80,2|0,0:0|0:0,0:0:0:0:
132,60,43855,2,0,L|59:94,1,80,8|0,0:0|0:0,0:0:0:0:
104,200,44194,1,8,0:0:0:0:
199,200,44364,2,0,L|255:200,1,40,2|0,0:0|0:0,0:0:0:0:
304,292,44618,2,0,L|264:292,1,40,2|0,0:0|0:0,0:0:0:0:
276,340,44872,6,0,P|238:333|198:340,1,80,0|2,0:0|0:0,0:0:0:0:
108,312,45550,1,0,0:0:0:0:
208,187,45889,2,0,P|211:148|191:114,2,80,2|0|0,0:0|0:0|0:0,0:0:0:0:
372,48,46906,6,0,L|360:86,1,40,0|0,0:0|0:0,0:0:0:0:
286,156,47245,2,0,L|309:191,1,40,10|0,0:0|0:0,0:0:0:0:
302,290,47584,2,0,L|340:301,1,40,8|0,0:0|0:0,0:0:0:0:
428,364,47923,1,10,0:0:0:0:
428,364,48601,6,0,L|444:272,2,80,0|2|0,0:0|0:0|0:0,0:0:0:0:
288,284,49618,2,0,L|204:304,2,80
460,188,50635,6,0,L|458:148,1,40,0|0,0:0|0:0,0:0:0:0:
472,32,50974,2,0,L|438:53,1,40,10|0,0:0|0:0,0:0:0:0:
332,104,51313,2,0,L|367:122,1,40,8|0,0:0|0:0,0:0:0:0:
460,188,51652,1,10,0:0:0:0:
460,188,52324,6,0,P|476:270|396:280,1,180.000006866455,6|0,0:0|0:0,0:0:0:0:
348,216,53005,1,2,0:0:0:0:
480,344,53346,6,0,P|425:321|370:341,1,120.000004577637,6|0,0:0|0:0,0:0:0:0:
284,316,53860,2,0,L|260:372,1,60.0000022888184,2|0,0:0|0:0,0:0:0:0:
120,220,54374,6,0,B|148:168|148:168|120:113,2,120.000004577637,6|2|2,0:0|0:0|0:0,0:0:0:0:
268,208,55408,1,6,0:0:0:0:
76,180,55758,1,0,0:0:0:0:
160,268,56109,1,0,0:0:0:0:
332,148,56460,6,0,P|281:118|224:132,2,120.000004577637,4|2|0,0:0|0:0|0:0,0:0:0:0:
458,53,57500,2,0,B|436:80|436:80|464:100|472:144|459:154,2,120.000004577637,4|2|0,0:0|0:0|0:0,0:0:0:0:
256,192,58565,12,0,60299,0:0:0:0:
179,169,60645,5,8,0:0:0:0:
222,271,60814,1,0,0:0:0:0:
324,228,60983,1,8,0:0:0:0:
280,123,61153,1,0,0:0:0:0:
256,192,61322,12,8,63017,0:0:0:0:
72,120,63356,6,0,P|136:80|220:116,1,160,0|8,0:0|0:0,0:0:0:0:
240,208,63865,2,0,P|312:233|379:193,1,160,0|0,0:0|0:0,0:0:0:0:
392,92,64373,1,8,0:0:0:0:
296,132,64543,2,0,P|288:88|304:44,2,80,0|0|0,0:0|0:0|0:0,0:0:0:0:
380,196,65051,1,8,0:0:0:0:
456,268,65221,2,0,P|464:312|448:356,2,80,0|0|0,0:0|0:0|0:0,0:0:0:0:
320,160,65729,2,0,L|420:152,1,80,8|0,0:0|0:0,0:0:0:0:
268,100,66068,6,0,B|304:148|304:148|264:260,1,160,0|8,0:0|0:0,0:0:0:0:
384,360,66577,2,0,B|348:312|348:312|388:200,2,160,0|0|0,0:0|0:0|0:0,0:0:0:0:
456,296,67424,1,0,0:0:0:0:
456,296,67594,1,0,0:0:0:0:
308,328,67763,1,8,0:0:0:0:
308,328,67933,1,0,0:0:0:0:
412,240,68102,6,0,L|420:148,1,80,0|0,0:0|0:0,0:0:0:0:
324,208,68441,2,0,L|301:118,1,80,8|0,0:0|0:0,0:0:0:0:
292,20,68780,2,0,P|288:100|224:92,1,160,4|8,0:0|0:0,0:0:0:0:
76,40,69458,6,0,L|176:40,1,80,0|0,0:0|0:0,0:0:0:0:
112,140,69797,2,0,L|12:140,1,80,8|0,0:0|0:0,0:0:0:0:
148,208,70136,2,0,P|150:136|222:142,1,160,4|8,0:0|0:0,0:0:0:0:
328,328,70814,6,0,P|315:290|321:250,1,80,0|0,0:0|0:0,0:0:0:0:
440,192,71153,2,0,P|452:229|446:269,1,80,8|0,0:0|0:0,0:0:0:0:
360,132,71492,2,0,P|420:84|496:112,1,160,4|8,0:0|0:0,0:0:0:0:
368,64,72000,2,0,P|290:76|232:24,1,160,0|0,0:0|0:0,0:0:0:0:
248,144,72509,2,0,P|228:177|196:199,1,80,8|0,0:0|0:0,0:0:0:0:
84,172,72848,2,0,P|56:199|43:236,1,80,0|0,0:0|0:0,0:0:0:0:
100,336,73187,6,0,L|122:381,3,40,0|0|0|0,0:0|0:0|0:0|0:0,0:0:0:0:
160,340,73526,2,0,L|207:356,3,40,2|0|0|0,0:0|0:0|0:0|0:0,0:0:0:0:
216,304,73865,2,0,L|260:282,3,40,8|0|0|0,0:0|0:0|0:0|0:0,0:0:0:0:
292,251,74204,6,0,P|279:176|208:152,2,160,0|8|0,0:0|0:0|0:0,0:0:0:0:
188,252,75051,2,0,L|92:240,1,80,0|8,0:0|0:0,0:0:0:0:
260,132,75390,2,0,L|356:144,2,80,0|0|0,0:0|0:0|0:0,0:0:0:0:
168,80,75899,1,8,0:0:0:0:
100,160,76068,2,0,P|60:162|26:141,2,80,0|0|0,0:0|0:0|0:0,0:0:0:0:
232,116,76577,2,0,P|272:114|306:135,1,80,8|0,0:0|0:0,0:0:0:0:
372,228,76916,6,0,B|360:148|360:148|417:93,1,160,0|8,0:0|0:0,0:0:0:0:
248,180,77424,2,0,B|272:102|272:102|223:39,2,160,0|0|0,0:0|0:0|0:0,0:0:0:0:
364,112,78272,2,0,L|460:104,1,80,0|0,0:0|0:0,0:0:0:0:
392,220,78611,2,0,L|488:228,1,80,8|0,0:0|0:0,0:0:0:0:
406,322,78950,6,0,P|333:303|283:360,1,160,0|8,0:0|0:0,0:0:0:0:
208,288,79458,1,0,0:0:0:0:
140,208,79628,2,0,P|91:266|118:338,1,160,4|8,0:0|0:0,0:0:0:0:
223,175,80306,6,0,P|175:117|99:128,1,160,0|8,0:0|0:0,0:0:0:0:
32,208,80814,1,0,0:0:0:0:
140,208,80984,2,0,L|208:32,1,160,4|8,0:0|0:0,0:0:0:0:
360,88,81662,6,0,L|448:80,1,80,0|0,0:0|0:0,0:0:0:0:
504,188,82001,2,0,L|416:196,1,80,8|0,0:0|0:0,0:0:0:0:
332,128,82340,1,4,0:0:0:0:
236,224,82509,6,0,L|220:144,2,80,0|8|0,0:0|0:0|0:0,0:0:0:0:
332,288,83018,2,0,P|371:291|410:284,2,80,0|0|8,0:0|0:0|0:0,0:0:0:0:
236,224,83526,1,0,0:0:0:0:
128,256,83695,2,0,L|88:360,1,80,0|0,0:0|0:0,0:0:0:0:
236,380,84034,2,0,L|216:300,1,80,8|0,0:0|0:0,0:0:0:0:
44,208,84373,6,0,P|99:154|176:172,1,160,0|0,0:0|0:0,0:0:0:0:
128,256,84882,1,0,0:0:0:0:
128,256,85051,1,4,0:0:0:0:
400,152,85729,6,0,P|331:161|341:93,1,160,0|0,0:0|0:0,0:0:0:0:
268,144,86238,1,0,0:0:0:0:
268,144,86407,1,4,0:0:0:0:
80,80,87085,6,0,P|73:119|43:151,1,80,0|0,0:0|0:0,0:0:0:0:
156,176,87424,2,0,P|178:208|180:252,1,80,0|0,0:0|0:0,0:0:0:0:
120,336,87763,1,4,0:0:0:0:
