osu file format v13

[General]
AudioFilename: Kairaku genri.mp3
AudioLeadIn: 2000
PreviewTime: 63367
Countdown: 0
SampleSet: Normal
StackLeniency: 0.7
Mode: 0
LetterboxInBreaks: 1
WidescreenStoryboard: 0

[Editor]
DistanceSpacing: 1.1
BeatDivisor: 4
GridSize: 32
TimelineZoom: 2.7

[Metadata]
Title:Kairaku Genri (TV Size)
TitleUnicode:快楽原理 (TV Size)
Artist:Coffin princess
ArtistUnicode:Coffin princess
Creator:Main Black
Version:Easy
Source:棺姫のチャイカ
Tags:Hitsugi no Chaika
BeatmapID:401933
BeatmapSetID:164712

[Difficulty]
HPDrainRate:3
CircleSize:3
OverallDifficulty:2
ApproachRate:3
SliderMultiplier:0.8
SliderTickRate:2

[Events]
//Background and Video events
Video,-300,"Hitsugi no Chaika.avi"
0,0,"Hitsugi.jpg",0,0
//Break Periods
//Storyboard Layer 0 (Background)
//Storyboard Layer 1 (Fail)
//Storyboard Layer 2 (Pass)
//Storyboard Layer 3 (Foreground)
//Storyboard Sound Samples
//Background Colour Transformations
3,100,163,162,255

[TimingPoints]
127,338.983050847458,4,1,1,40,1,0
12330,-100,4,1,1,60,0,0
12668,-100,4,1,4,60,0,0
12838,-100,4,1,1,60,0,0
13346,-100,4,1,4,60,0,0
13516,-100,4,1,1,60,0,0
16058,-100,4,1,4,60,0,0
16228,-100,4,1,1,60,0,0
16397,-100,4,2,1,60,0,0
17753,-100,4,1,1,60,0,0
18092,-100,4,1,4,60,0,0
18262,-100,4,1,1,60,0,0
18770,-100,4,1,4,60,0,0
18940,-100,4,1,1,60,0,0
21482,-100,4,1,4,60,0,0
21652,-100,4,1,1,60,0,0
21821,-100,4,2,1,60,0,0
23177,-100,4,1,2,60,0,0
24872,-100,4,1,3,60,0,0
25041,-100,4,1,2,60,0,0
26228,-100,4,1,3,60,0,0
26397,-100,4,1,2,60,0,0
26906,-100,4,1,3,60,0,0
27075,-100,4,1,1,60,0,0
28262,-100,4,1,3,60,0,0
28431,-100,4,1,2,60,0,0
28940,-100,4,1,2,75,0,0
29279,-100,4,1,2,60,0,0
29618,-100,4,1,3,60,0,0
29787,-100,4,1,2,60,0,0
30296,-100,4,1,2,75,0,0
30635,-100,4,1,2,60,0,0
30974,-100,4,1,3,60,0,0
31143,-100,4,1,2,60,0,0
31652,-100,4,2,1,60,0,0
34363,-100,4,1,3,60,0,0
34533,-100,4,1,2,60,0,0
35041,-100,4,1,3,60,0,0
35211,-100,4,1,2,60,0,0
37075,-100,4,1,3,60,0,0
37245,-100,4,1,2,60,0,0
37753,-100,4,1,3,60,0,0
37923,-100,4,1,2,60,0,0
39109,-100,4,1,3,60,0,0
39279,-100,4,1,2,60,0,0
39787,-100,4,1,2,75,0,0
40126,-100,4,1,2,60,0,0
40465,-100,4,1,3,60,0,0
40635,-100,4,1,2,60,0,0
41143,-100,4,1,2,75,0,0
41482,-100,4,1,2,60,0,0
41821,-100,4,1,3,60,0,0
41991,-100,4,1,2,60,0,0
42499,-100,4,2,1,60,0,0
44872,-100,4,1,1,60,0,0
47245,-100,4,2,1,60,0,0
47923,-100,4,2,1,75,0,0
48601,-100,4,1,1,50,0,0
50974,-100,4,2,1,50,0,0
51652,-100,4,2,1,75,0,0
52324,340.909090909091,4,1,1,75,1,0
53346,342.857142857143,4,1,1,75,1,0
54374,344.827586206897,4,1,1,75,1,0
55408,350.877192982456,4,1,1,75,1,0
56811,-100,4,1,4,60,0,0
56986,-100,4,1,1,60,0,0
57500,355.029585798817,4,1,1,75,1,0
57855,-100,4,1,4,60,0,0
58032,-100,4,1,1,60,0,0
58565,346.820809248555,4,1,1,75,1,0
60645,338.983050847458,4,2,1,60,1,0
63356,-100,4,1,2,60,0,1
65050,-100,4,1,3,60,0,1
65220,-100,4,1,2,60,0,1
66406,-100,4,1,3,60,0,1
66576,-100,4,1,2,60,0,1
67084,-100,4,1,3,60,0,1
67254,-100,4,1,2,60,0,1
68440,-100,4,1,3,60,0,1
68610,-100,4,1,2,60,0,1
69118,-100,4,1,3,60,0,1
69288,-100,4,1,2,60,0,1
69457,-100,4,1,2,75,0,1
69796,-100,4,1,2,60,0,1
70136,-100,4,1,3,60,0,1
70306,-100,4,1,2,60,0,1
70814,-100,4,1,3,60,0,1
70983,-100,4,1,2,60,0,1
71152,-100,4,1,2,75,0,1
71491,-100,4,1,2,60,0,1
71830,-100,4,1,3,60,0,1
72000,-100,4,1,2,60,0,1
73186,-100,4,1,3,60,0,1
73271,-100,4,1,2,60,0,1
74118,-100,4,1,2,60,0,0
74203,-100,4,1,2,60,0,1
77254,-100,4,1,3,60,0,1
77423,-100,4,1,2,60,0,1
77932,-100,4,1,3,60,0,1
78101,-100,4,1,2,60,0,1
79288,-100,4,1,3,60,0,1
79457,-100,4,1,2,60,0,1
79966,-100,4,1,2,75,0,1
80305,-100,4,1,2,60,0,1
80644,-100,4,1,3,60,0,1
80813,-100,4,1,2,60,0,1
81322,-100,4,1,2,75,0,1
81661,-100,4,1,2,60,0,1
82000,-100,4,1,3,60,0,1
82169,-100,4,1,2,60,0,1
82339,-100,4,1,2,75,0,1
82678,-100,4,1,2,60,0,1
84372,-100,4,1,2,75,0,0

[Colours]
Combo1 : 200,0,0
Combo2 : 255,255,255
Combo3 : 14,160,248
Combo4 : 254,160,33
Combo5 : 251,254,120

[HitObjects]
240,144,127,6,0,B|200:152|167:130|154:94|154:94|147:170|59:202|33:168,2,280,0|2|0,0:0|0:0|0:0,0:0:0:0:
317,123,2838,2,0,B|340:220|252:248|200:224|200:224|228:248|224:316|192:332,1,320,2|0,0:0|0:0,0:0:0:0:
64,208,4872,6,0,B|48:128|48:128|85:58,2,160,0|2|0,0:0|0:0|0:0,0:0:0:0:
172,328,6906,2,0,P|252:324|336:340,2,160,2|0|2,0:0|0:0|0:0,0:0:0:0:
256,192,8601,12,0,11991,0:0:0:0:
265,154,12330,6,0,B|292:120|292:120|316:160|360:168|392:144,2,160,0|0|0,0:0|0:0|0:0,0:0:0:0:
184,188,14025,2,0,P|116:148|136:48,2,160,2|2|2,0:0|0:0|0:0,0:0:0:0:
256,240,15720,6,0,P|240:328|152:344,1,160,0|2,0:0|0:0,0:0:0:0:
96,332,16737,2,0,P|56:337|18:350,2,80,8|2|8,0:0|0:0|0:0,0:0:0:0:
168,280,17754,6,0,B|248:292|248:292|310:242,2,160
88,240,19448,2,0,P|53:169|93:105,2,160,2|2|2,0:0|0:0|0:0,0:0:0:0:
148,171,21143,2,0,P|224:151|303:162,1,160,0|2,0:0|0:0,0:0:0:0:
456,64,23177,5,0,0:0:0:0:
372,36,23516,2,0,B|336:44|316:60|316:60|288:40|248:36|221:45,1,160,8|8,0:0|0:0,0:0:0:0:
148,96,24533,2,0,P|82:97|28:64,2,120,0|0|8,0:0|0:0|0:0,0:0:0:0:
216,152,25889,6,0,B|230:189|230:189|217:267|217:267|231:304,2,160,0|0|0,0:0|0:0|0:0,0:0:0:0:
372,72,27923,6,0,B|409:56|409:56|449:65|449:65|496:42,2,120,0|0|12,0:0|0:0|0:0,0:0:0:0:
288,100,29279,2,0,B|250:84|250:84|210:93|210:93|163:70,2,120,0|0|12,0:0|0:0|0:0,0:0:0:0:
364,144,30635,2,0,P|372:220|292:276,1,160
228,260,31652,5,8,0:0:0:0:
79,160,32330,2,0,P|39:226|55:303,2,160,8|8|8,0:0|0:0|0:0,0:0:0:0:
152,108,34025,6,0,P|231:104|307:127,2,160
92,176,35720,2,0,B|116:204|156:212|192:196|192:196|192:246,1,160,8|8,0:0|0:0,0:0:0:0:
240,320,36737,6,0,B|204:352|144:340|116:296|116:296|108:312,2,160
320,164,38771,6,0,L|296:24,2,120,0|0|12,0:0|0:0|0:0,0:0:0:0:
388,220,40127,6,0,L|412:360,2,120,0|0|12,0:0|0:0|0:0,0:0:0:0:
312,268,41482,2,0,P|234:277|171:231,1,160,0|0,0:0|0:0,0:0:0:0:
156,144,42499,5,8,0:0:0:0:
304,52,43177,2,0,P|348:116|328:204,2,160,10|8|0,0:0|0:0|0:0,0:0:0:0:
220,32,44872,6,0,B|148:32|136:100|136:100|124:32|52:32,2,240,6|2|2,0:0|0:0|0:0,0:0:0:0:
308,48,47245,1,8,0:0:0:0:
352,124,47584,1,8,0:0:0:0:
320,208,47923,1,10,0:0:0:0:
172,304,48601,6,0,B|100:304|88:236|88:236|76:304|4:304,2,240,6|2|2,0:0|0:0|0:0,0:0:0:0:
260,288,50974,1,8,0:0:0:0:
304,212,51313,1,8,0:0:0:0:
272,128,51652,1,10,0:0:0:0:
104,164,52324,6,0,B|68:120|68:52|144:20|144:20|189:62,1,240,6|2,0:0|0:0,0:0:0:0:
152,320,54374,2,0,B|181:317|204:301|212:278|212:278|223:329|308:354|342:304,1,240,6|6,0:0|0:0,0:0:0:0:
380,96,56460,6,0,B|348:140|348:140|324:126|276:116|246:134,1,160,0|2,0:0|0:0,0:0:0:0:
180,188,57500,2,0,P|168:264|220:327,1,160,0|2,0:0|0:0,0:0:0:0:
256,192,58565,12,0,60299,0:0:0:0:
228,183,60645,6,0,P|280:165|312:212,1,120,10|8,0:0|0:0,0:0:0:0:
332,48,63356,5,0,0:0:0:0:
248,80,63695,2,0,B|216:108|210:131|210:131|248:152|260:184|248:209,1,160,8|8,0:0|0:0,0:0:0:0:
203,284,64712,2,0,P|146:300|87:297,2,120,0|0|8,0:0|0:0|0:0,0:0:0:0:
248,208,66068,6,0,P|328:208|344:280,2,160,0|0|0,0:0|0:0|0:0,0:0:0:0:
76,240,68102,6,0,B|10:184|102:157|35:97,2,160,0|0|4,0:0|0:0|0:0,0:0:0:0:
148,188,69797,2,0,B|219:138|220:234|295:185,2,160,0|0|4,0:0|0:0|0:0,0:0:0:0:
196,260,71492,2,0,P|211:317|188:371,2,120,0|0|8,0:0|0:0|0:0,0:0:0:0:
116,220,72848,6,0,P|30:294|100:380,1,240,0|8,0:0|0:0,0:0:0:0:
180,364,74204,5,0,0:0:0:0:
256,316,74543,2,0,B|288:288|293:264|293:264|256:244|244:212|255:186,2,160,8|8|8,0:0|0:0|0:0,0:0:0:0:
80,344,76577,1,8,0:0:0:0:
116,264,76916,6,0,L|64:104,2,160,0|0|0,0:0|0:0|0:0,0:0:0:0:
252,152,78950,6,0,B|292:148|292:148|328:156|328:156|372:152,2,120,0|0|12,0:0|0:0|0:0,0:0:0:0:
176,104,80306,2,0,B|136:100|136:100|100:108|100:108|56:104,2,120,0|0|12,0:0|0:0|0:0,0:0:0:0:
244,48,81662,2,0,P|320:46|359:112,1,160,0|4,0:0|0:0,0:0:0:0:
424,172,82679,6,0,P|440:92|404:12,2,160,8|8|8,0:0|0:0|0:0,0:0:0:0:
368,240,84373,6,0,P|292:260|220:224,1,160,0|4,0:0|0:0,0:0:0:0:
164,76,85729,2,0,P|88:55|16:92,1,160,0|4,0:0|0:0,0:0:0:0:
100,228,87085,2,0,B|84:320,2,80,0|0|4,0:0|0:0|0:0,0:0:0:0:
