osu file format v12

[General]
AudioFilename: coffin princess - Kairaku Kenri.mp3
AudioLeadIn: 0
PreviewTime: 203527
Countdown: 0
SampleSet: Soft
StackLeniency: 0.7
Mode: 3
LetterboxInBreaks: 0
SpecialStyle: 0
WidescreenStoryboard: 1

[Editor]
DistanceSpacing: 0.5
BeatDivisor: 4
GridSize: 32
TimelineZoom: 1.8

[Metadata]
Title:Kairaku Genri
TitleUnicode:快楽原理
Artist:Coffin Princess
ArtistUnicode:Coffin Princess
Creator:Aqo
Version:Aqother
Source:Hitsugi no Chaika
Tags:anime ending ed full version ver pleasure principle
BeatmapID:438075
BeatmapSetID:182751

[Difficulty]
HPDrainRate:8
CircleSize:7
OverallDifficulty:10
ApproachRate:5
SliderMultiplier:1.4
SliderTickRate:1

[Events]
//Background and Video events
0,0,"BG.jpg",0,0
//Break Periods
//Storyboard Layer 0 (Background)
//Storyboard Layer 1 (Fail)
//Storyboard Layer 2 (Pass)
//Storyboard Layer 3 (Foreground)
//Storyboard Sound Samples
//Background Colour Transformations
3,100,163,162,255

[TimingPoints]
794,339.021358345576,4,2,1,30,1,0
794,-100,4,2,1,30,0,0
12998,-100,4,2,1,30,0,0
23847,-100,4,2,1,30,0,0
34696,-100,4,2,1,30,0,0
45544,-100,4,2,1,30,0,0
61817,-100,4,2,1,30,0,0
64021,339.021358345576,4,2,1,30,1,0
64021,-100,4,2,1,30,0,0
74869,-100,4,2,1,30,0,0
85718,-100,4,2,1,30,0,0
88430,-100,4,2,1,30,0,0
91142,-100,4,2,1,30,0,0
101991,-100,4,2,1,30,0,0
112840,-100,4,2,1,30,0,0
123688,-100,4,2,1,30,0,0
139961,-100,4,2,1,30,0,0
142165,339.021358345576,4,2,1,30,1,0
142165,-100,4,2,1,30,0,0
153013,-100,4,2,1,30,0,0
163862,-100,4,2,1,30,0,0
166574,-100,4,2,1,30,0,0
169286,-100,4,2,1,30,0,0
171998,-100,4,2,1,30,0,0
184203,-100,4,2,1,30,0,0
185898,339.021358345576,4,2,1,30,1,0
185898,-100,4,2,1,30,0,0
196746,-100,4,2,1,30,0,0
197424,-100,4,2,1,30,0,0
198102,-100,4,2,1,30,0,0
203527,-100,4,2,1,30,0,0
207256,-100,4,2,1,30,0,0
208273,339.021358345576,4,2,1,30,1,0
208273,-100,4,2,1,30,0,0
219121,-100,4,2,1,30,0,0
229970,-100,4,2,1,30,0,0
232682,-100,4,2,1,30,0,0
243531,-100,4,2,1,30,0,0
253023,-100,4,2,1,30,0,0
254379,-100,4,2,1,30,0,0
255736,-100,4,2,1,30,0,0
257770,-100,4,2,1,30,0,0

[HitObjects]
36,192,12998,5,0,0:0:0:0:
182,192,12998,1,0,0:0:0:0:
475,192,12998,1,0,0:0:0:0:
402,192,13168,1,0,0:0:0:0:
256,192,13168,1,0,0:0:0:0:
109,192,13253,1,0,0:0:0:0:
36,192,13337,1,0,0:0:0:0:
329,192,13337,1,0,0:0:0:0:
182,192,13337,1,0,0:0:0:0:
475,192,13337,1,0,0:0:0:0:
475,192,13507,1,0,0:0:0:0:
256,192,13507,1,0,0:0:0:0:
402,192,13507,1,0,0:0:0:0:
109,192,13507,1,0,0:0:0:0:
329,192,13592,1,0,0:0:0:0:
36,192,13676,1,0,0:0:0:0:
109,192,13676,1,0,0:0:0:0:
402,192,13846,1,0,0:0:0:0:
182,192,13846,1,0,0:0:0:0:
256,192,13846,1,0,0:0:0:0:
475,192,13931,1,0,0:0:0:0:
36,192,14015,1,0,0:0:0:0:
329,192,14015,1,0,0:0:0:0:
475,192,14185,1,0,0:0:0:0:
182,192,14185,1,0,0:0:0:0:
256,192,14270,1,0,0:0:0:0:
36,192,14354,1,0,0:0:0:0:
329,192,14354,1,0,0:0:0:0:
109,192,14354,1,0,0:0:0:0:
402,192,14524,1,0,0:0:0:0:
109,192,14524,1,0,0:0:0:0:
256,192,14609,1,0,0:0:0:0:
36,192,14693,1,0,0:0:0:0:
182,192,14693,1,0,0:0:0:0:
329,192,14693,1,0,0:0:0:0:
475,192,14863,1,0,0:0:0:0:
256,192,14863,1,0,0:0:0:0:
402,192,14863,1,0,0:0:0:0:
109,192,14948,1,0,0:0:0:0:
36,192,15032,1,0,0:0:0:0:
182,192,15032,1,0,0:0:0:0:
402,192,15202,1,0,0:0:0:0:
329,192,15202,1,0,0:0:0:0:
109,192,15202,1,0,0:0:0:0:
256,192,15287,1,0,0:0:0:0:
36,192,15371,1,0,0:0:0:0:
182,192,15371,1,0,0:0:0:0:
402,192,15371,1,0,0:0:0:0:
475,192,15541,1,0,0:0:0:0:
256,192,15541,1,0,0:0:0:0:
109,192,15626,1,0,0:0:0:0:
36,192,15710,1,0,0:0:0:0:
329,192,15710,1,0,0:0:0:0:
182,192,15710,1,0,0:0:0:0:
402,192,15880,1,0,0:0:0:0:
475,192,15880,1,0,0:0:0:0:
329,192,15965,1,0,0:0:0:0:
36,192,16049,1,0,0:0:0:0:
256,192,16049,1,0,0:0:0:0:
109,192,16049,1,0,0:0:0:0:
475,192,16219,1,0,0:0:0:0:
182,192,16219,1,0,0:0:0:0:
329,192,16219,1,0,0:0:0:0:
256,192,16304,1,0,0:0:0:0:
36,192,16388,1,0,0:0:0:0:
402,192,16388,1,0,0:0:0:0:
402,192,16558,1,0,0:0:0:0:
109,192,16558,1,0,0:0:0:0:
182,192,16558,1,0,0:0:0:0:
256,192,16643,1,0,0:0:0:0:
36,192,16727,1,0,0:0:0:0:
329,192,16728,1,0,0:0:0:0:
182,192,16728,1,0,0:0:0:0:
475,192,16897,1,0,0:0:0:0:
256,192,16897,1,0,0:0:0:0:
182,192,16982,1,0,0:0:0:0:
36,192,17066,1,0,0:0:0:0:
329,192,17067,1,0,0:0:0:0:
109,192,17067,1,0,0:0:0:0:
402,192,17067,1,0,0:0:0:0:
256,192,17236,1,0,0:0:0:0:
475,192,17236,1,0,0:0:0:0:
109,192,17321,1,0,0:0:0:0:
36,192,17405,1,0,0:0:0:0:
329,192,17406,1,0,0:0:0:0:
182,192,17406,1,0,0:0:0:0:
256,192,17406,1,0,0:0:0:0:
475,192,17575,1,0,0:0:0:0:
402,192,17575,1,0,0:0:0:0:
256,192,17660,1,0,0:0:0:0:
36,192,17744,1,0,0:0:0:0:
109,192,17745,1,0,0:0:0:0:
329,192,17745,1,0,0:0:0:0:
402,192,17745,1,0,0:0:0:0:
402,192,17914,1,0,0:0:0:0:
475,192,17914,1,0,0:0:0:0:
256,192,17999,1,0,0:0:0:0:
36,192,18083,1,0,0:0:0:0:
182,192,18084,1,0,0:0:0:0:
329,192,18084,1,0,0:0:0:0:
109,192,18168,1,0,0:0:0:0:
256,192,18253,1,0,0:0:0:0:
402,192,18253,1,0,0:0:0:0:
182,192,18253,1,0,0:0:0:0:
329,192,18338,1,0,0:0:0:0:
36,192,18338,1,0,0:0:0:0:
475,192,18423,1,0,0:0:0:0:
109,192,18423,1,0,0:0:0:0:
256,192,18423,1,0,0:0:0:0:
402,192,18423,1,0,0:0:0:0:
36,192,18592,1,0,0:0:0:0:
329,192,18592,1,0,0:0:0:0:
182,192,18592,1,0,0:0:0:0:
256,192,18677,1,0,0:0:0:0:
475,192,18762,1,0,0:0:0:0:
182,192,18762,1,0,0:0:0:0:
402,192,18762,1,0,0:0:0:0:
36,192,18762,1,0,0:0:0:0:
109,192,18931,1,0,0:0:0:0:
402,192,18931,1,0,0:0:0:0:
256,192,18931,1,0,0:0:0:0:
36,192,18931,1,0,0:0:0:0:
329,192,19016,1,0,0:0:0:0:
475,192,19101,1,0,0:0:0:0:
182,192,19101,1,0,0:0:0:0:
36,192,19270,1,0,0:0:0:0:
256,192,19270,1,0,0:0:0:0:
402,192,19270,1,0,0:0:0:0:
329,192,19355,1,0,0:0:0:0:
475,192,19440,1,0,0:0:0:0:
182,192,19440,1,0,0:0:0:0:
109,192,19609,1,0,0:0:0:0:
329,192,19609,1,0,0:0:0:0:
256,192,19694,1,0,0:0:0:0:
475,192,19779,1,0,0:0:0:0:
402,192,19779,1,0,0:0:0:0:
182,192,19779,1,0,0:0:0:0:
36,192,19948,1,0,0:0:0:0:
109,192,19948,1,0,0:0:0:0:
402,192,20033,1,0,0:0:0:0:
475,192,20118,1,0,0:0:0:0:
329,192,20118,1,0,0:0:0:0:
182,192,20118,1,0,0:0:0:0:
109,192,20287,1,0,0:0:0:0:
256,192,20287,1,0,0:0:0:0:
402,192,20287,1,0,0:0:0:0:
329,192,20372,1,0,0:0:0:0:
475,192,20457,1,0,0:0:0:0:
109,192,20457,1,0,0:0:0:0:
36,192,20626,1,0,0:0:0:0:
182,192,20626,1,0,0:0:0:0:
402,192,20626,1,0,0:0:0:0:
256,192,20711,1,0,0:0:0:0:
475,192,20796,1,0,0:0:0:0:
329,192,20796,1,0,0:0:0:0:
182,192,20796,1,0,0:0:0:0:
109,192,20965,1,0,0:0:0:0:
402,192,20965,1,0,0:0:0:0:
36,192,21050,1,0,0:0:0:0:
475,192,21135,1,0,0:0:0:0:
256,192,21135,1,0,0:0:0:0:
182,192,21135,1,0,0:0:0:0:
36,192,21304,1,0,0:0:0:0:
329,192,21304,1,0,0:0:0:0:
402,192,21304,1,0,0:0:0:0:
256,192,21389,1,0,0:0:0:0:
475,192,21474,1,0,0:0:0:0:
182,192,21474,1,0,0:0:0:0:
329,192,21474,1,0,0:0:0:0:
109,192,21643,1,0,0:0:0:0:
402,192,21643,1,0,0:0:0:0:
256,192,21643,1,0,0:0:0:0:
182,192,21728,1,0,0:0:0:0:
475,192,21813,1,0,0:0:0:0:
109,192,21813,1,0,0:0:0:0:
36,192,21982,1,0,0:0:0:0:
329,192,21982,1,0,0:0:0:0:
182,192,21982,1,0,0:0:0:0:
402,192,22067,1,0,0:0:0:0:
475,192,22152,1,0,0:0:0:0:
256,192,22152,1,0,0:0:0:0:
109,192,22152,1,0,0:0:0:0:
109,192,22321,1,0,0:0:0:0:
402,192,22321,1,0,0:0:0:0:
182,192,22406,1,0,0:0:0:0:
475,192,22491,1,0,0:0:0:0:
256,192,22491,1,0,0:0:0:0:
36,192,22491,1,0,0:0:0:0:
402,192,22717,1,0,0:0:0:0:
109,192,22717,1,0,0:0:0:0:
475,192,22943,1,0,0:0:0:0:
329,192,22943,1,0,0:0:0:0:
182,192,22943,1,0,0:0:0:0:
256,192,22999,1,0,0:0:0:0:
109,192,23056,1,0,0:0:0:0:
36,192,23112,1,0,0:0:0:0:
402,192,23169,1,0,0:0:0:0:
182,192,23169,1,0,0:0:0:0:
329,192,23169,1,0,0:0:0:0:
475,192,23395,1,0,0:0:0:0:
36,192,23395,1,0,0:0:0:0:
256,192,23395,1,0,0:0:0:0:
402,192,23621,1,0,0:0:0:0:
182,192,23621,1,0,0:0:0:0:
475,192,23847,1,0,0:0:0:0:
109,192,23847,1,0,0:0:0:0:
329,192,23847,1,0,0:0:0:0:
36,192,23847,1,0,0:0:0:0:
182,192,23932,1,0,0:0:0:0:
256,192,24016,1,0,0:0:0:0:
402,192,24016,1,0,0:0:0:0:
329,192,24101,1,0,0:0:0:0:
402,192,24186,1,0,0:0:0:0:
182,192,24186,1,0,0:0:0:0:
36,192,24271,1,0,0:0:0:0:
475,192,24355,1,0,0:0:0:0:
329,192,24355,1,0,0:0:0:0:
109,192,24355,1,0,0:0:0:0:
256,192,24440,1,0,0:0:0:0:
182,192,24440,1,0,0:0:0:0:
329,192,24525,1,0,0:0:0:0:
36,192,24525,1,0,0:0:0:0:
402,192,24610,1,0,0:0:0:0:
256,192,24610,1,0,0:0:0:0:
329,192,24695,1,0,0:0:0:0:
109,192,24695,1,0,0:0:0:0:
475,192,24779,1,0,0:0:0:0:
182,192,24779,1,0,0:0:0:0:
109,192,24864,1,0,0:0:0:0:
329,192,24864,1,0,0:0:0:0:
36,192,24864,1,0,0:0:0:0:
182,192,24949,1,0,0:0:0:0:
475,192,25034,1,0,0:0:0:0:
256,192,25034,1,0,0:0:0:0:
402,192,25034,1,0,0:0:0:0:
329,192,25118,1,0,0:0:0:0:
109,192,25203,1,0,0:0:0:0:
182,192,25203,1,0,0:0:0:0:
402,192,25203,1,0,0:0:0:0:
36,192,25288,1,0,0:0:0:0:
475,192,25288,1,0,0:0:0:0:
256,192,25373,1,0,0:0:0:0:
182,192,25373,1,0,0:0:0:0:
329,192,25373,1,0,0:0:0:0:
475,192,25457,1,0,0:0:0:0:
109,192,25542,1,0,0:0:0:0:
402,192,25542,1,0,0:0:0:0:
182,192,25542,1,0,0:0:0:0:
36,192,25627,1,0,0:0:0:0:
475,192,25712,1,0,0:0:0:0:
256,192,25712,1,0,0:0:0:0:
109,192,25712,1,0,0:0:0:0:
329,192,25796,1,0,0:0:0:0:
109,192,25881,1,0,0:0:0:0:
182,192,25881,1,0,0:0:0:0:
475,192,25881,1,0,0:0:0:0:
329,192,25966,1,0,0:0:0:0:
256,192,26051,1,0,0:0:0:0:
402,192,26051,1,0,0:0:0:0:
36,192,26051,1,0,0:0:0:0:
182,192,26051,1,0,0:0:0:0:
475,192,26135,1,0,0:0:0:0:
109,192,26220,1,0,0:0:0:0:
329,192,26220,1,0,0:0:0:0:
182,192,26220,1,0,0:0:0:0:
402,192,26220,1,0,0:0:0:0:
256,192,26305,1,0,0:0:0:0:
475,192,26390,1,0,0:0:0:0:
182,192,26390,1,0,0:0:0:0:
36,192,26474,1,0,0:0:0:0:
109,192,26559,1,0,0:0:0:0:
402,192,26559,1,0,0:0:0:0:
329,192,26559,1,0,0:0:0:0:
475,192,26644,1,0,0:0:0:0:
256,192,26729,1,0,0:0:0:0:
402,192,26729,1,0,0:0:0:0:
182,192,26813,1,0,0:0:0:0:
109,192,26898,1,0,0:0:0:0:
329,192,26898,1,0,0:0:0:0:
256,192,26983,1,0,0:0:0:0:
475,192,27068,1,0,0:0:0:0:
36,192,27068,1,0,0:0:0:0:
182,192,27152,1,0,0:0:0:0:
109,192,27237,1,0,0:0:0:0:
329,192,27237,1,0,0:0:0:0:
402,192,27322,1,0,0:0:0:0:
256,192,27407,1,0,0:0:0:0:
36,192,27407,1,0,0:0:0:0:
182,192,27491,1,0,0:0:0:0:
109,192,27576,1,0,0:0:0:0:
402,192,27576,1,0,0:0:0:0:
256,192,27661,1,0,0:0:0:0:
475,192,27746,1,0,0:0:0:0:
329,192,27746,1,0,0:0:0:0:
182,192,27746,1,0,0:0:0:0:
36,192,27830,1,0,0:0:0:0:
109,192,27915,1,0,0:0:0:0:
402,192,27915,1,0,0:0:0:0:
329,192,28000,1,0,0:0:0:0:
256,192,28085,1,0,0:0:0:0:
182,192,28085,1,0,0:0:0:0:
36,192,28169,1,0,0:0:0:0:
475,192,28169,1,0,0:0:0:0:
109,192,28254,1,0,0:0:0:0:
402,192,28254,1,0,0:0:0:0:
256,192,28339,1,0,0:0:0:0:
475,192,28424,1,0,0:0:0:0:
36,192,28424,1,0,0:0:0:0:
329,192,28508,1,0,0:0:0:0:
109,192,28593,1,0,0:0:0:0:
182,192,28593,1,0,0:0:0:0:
36,192,28678,1,0,0:0:0:0:
329,192,28763,1,0,0:0:0:0:
256,192,28763,1,0,0:0:0:0:
182,192,28848,1,0,0:0:0:0:
109,192,28932,1,0,0:0:0:0:
402,192,28932,1,0,0:0:0:0:
329,192,28932,1,0,0:0:0:0:
475,192,29017,1,0,0:0:0:0:
256,192,29102,1,0,0:0:0:0:
182,192,29102,1,0,0:0:0:0:
36,192,29187,1,0,0:0:0:0:
109,192,29271,1,0,0:0:0:0:
475,192,29271,1,0,0:0:0:0:
256,192,29271,1,0,0:0:0:0:
329,192,29356,1,0,0:0:0:0:
182,192,29441,1,0,0:0:0:0:
402,192,29441,1,0,0:0:0:0:
256,192,29526,1,0,0:0:0:0:
109,192,29610,1,0,0:0:0:0:
475,192,29610,1,0,0:0:0:0:
36,192,29610,1,0,0:0:0:0:
182,192,29695,1,0,0:0:0:0:
36,192,29780,1,0,0:0:0:0:
329,192,29780,1,0,0:0:0:0:
402,192,29865,1,0,0:0:0:0:
109,192,29949,1,0,0:0:0:0:
475,192,29949,1,0,0:0:0:0:
256,192,29949,1,0,0:0:0:0:
329,192,30034,1,0,0:0:0:0:
182,192,30119,1,0,0:0:0:0:
402,192,30119,1,0,0:0:0:0:
256,192,30204,1,0,0:0:0:0:
109,192,30288,1,0,0:0:0:0:
475,192,30288,1,0,0:0:0:0:
36,192,30288,1,0,0:0:0:0:
402,192,30373,1,0,0:0:0:0:
256,192,30458,1,0,0:0:0:0:
182,192,30458,1,0,0:0:0:0:
36,192,30543,1,0,0:0:0:0:
109,192,30627,1,0,0:0:0:0:
475,192,30627,1,0,0:0:0:0:
402,192,30627,1,0,0:0:0:0:
256,192,30712,1,0,0:0:0:0:
329,192,30797,1,0,0:0:0:0:
182,192,30797,1,0,0:0:0:0:
402,192,30882,1,0,0:0:0:0:
109,192,30966,1,0,0:0:0:0:
36,192,30966,1,0,0:0:0:0:
475,192,30966,1,0,0:0:0:0:
256,192,30966,1,0,0:0:0:0:
182,192,31051,1,0,0:0:0:0:
402,192,31136,1,0,0:0:0:0:
36,192,31136,1,0,0:0:0:0:
329,192,31221,1,0,0:0:0:0:
109,192,31305,1,0,0:0:0:0:
256,192,31305,1,0,0:0:0:0:
402,192,31305,1,0,0:0:0:0:
36,192,31390,1,0,0:0:0:0:
475,192,31475,1,0,0:0:0:0:
182,192,31475,1,0,0:0:0:0:
329,192,31475,1,0,0:0:0:0:
109,192,31475,1,0,0:0:0:0:
256,192,31560,1,0,0:0:0:0:
109,192,31644,1,0,0:0:0:0:
36,192,31644,1,0,0:0:0:0:
329,192,31644,1,0,0:0:0:0:
475,192,31729,1,0,0:0:0:0:
402,192,31814,1,0,0:0:0:0:
182,192,31814,1,0,0:0:0:0:
256,192,31814,1,0,0:0:0:0:
36,192,31899,1,0,0:0:0:0:
109,192,31983,1,0,0:0:0:0:
329,192,31983,1,0,0:0:0:0:
182,192,31983,1,0,0:0:0:0:
402,192,32068,1,0,0:0:0:0:
256,192,32153,1,0,0:0:0:0:
475,192,32153,1,0,0:0:0:0:
329,192,32153,1,0,0:0:0:0:
182,192,32238,1,0,0:0:0:0:
109,192,32322,1,0,0:0:0:0:
402,192,32322,1,0,0:0:0:0:
36,192,32322,1,0,0:0:0:0:
256,192,32407,1,0,0:0:0:0:
329,192,32492,1,0,0:0:0:0:
182,192,32492,1,0,0:0:0:0:
475,192,32492,1,0,0:0:0:0:
402,192,32577,1,0,0:0:0:0:
109,192,32661,1,0,0:0:0:0:
36,192,32662,1,0,0:0:0:0:
329,192,32662,1,0,0:0:0:0:
402,192,32746,1,0,0:0:0:0:
256,192,32831,1,0,0:0:0:0:
475,192,32831,1,0,0:0:0:0:
182,192,32831,1,0,0:0:0:0:
36,192,32916,1,0,0:0:0:0:
109,192,33000,1,0,0:0:0:0:
402,192,33001,1,0,0:0:0:0:
256,192,33001,1,0,0:0:0:0:
182,192,33085,1,0,0:0:0:0:
329,192,33170,1,0,0:0:0:0:
36,192,33170,1,0,0:0:0:0:
256,192,33255,1,0,0:0:0:0:
475,192,33255,1,0,0:0:0:0:
109,192,33339,1,0,0:0:0:0:
36,192,33340,1,0,0:0:0:0:
329,192,33340,1,0,0:0:0:0:
182,192,33424,1,0,0:0:0:0:
256,192,33509,1,0,0:0:0:0:
402,192,33509,1,0,0:0:0:0:
36,192,33509,1,0,0:0:0:0:
182,192,33594,1,0,0:0:0:0:
109,192,33678,1,0,0:0:0:0:
475,192,33679,1,0,0:0:0:0:
329,192,33679,1,0,0:0:0:0:
402,192,33763,1,0,0:0:0:0:
109,192,33848,1,0,0:0:0:0:
329,192,33848,1,0,0:0:0:0:
182,192,33848,1,0,0:0:0:0:
256,192,33848,1,0,0:0:0:0:
475,192,33933,1,0,0:0:0:0:
109,192,34017,1,0,0:0:0:0:
36,192,34018,1,0,0:0:0:0:
402,192,34018,1,0,0:0:0:0:
182,192,34102,1,0,0:0:0:0:
256,192,34187,1,0,0:0:0:0:
475,192,34187,1,0,0:0:0:0:
329,192,34187,1,0,0:0:0:0:
402,192,34272,1,0,0:0:0:0:
109,192,34356,1,0,0:0:0:0:
329,192,34357,1,0,0:0:0:0:
182,192,34357,1,0,0:0:0:0:
475,192,34357,1,0,0:0:0:0:
256,192,34441,1,0,0:0:0:0:
182,192,34526,1,0,0:0:0:0:
329,192,34526,1,0,0:0:0:0:
36,192,34526,1,0,0:0:0:0:
475,192,34526,1,0,0:0:0:0:
256,192,34611,1,0,0:0:0:0:
109,192,34611,1,0,0:0:0:0:
402,192,34696,1,0,0:0:0:0:
329,192,34696,1,0,0:0:0:0:
182,192,34696,1,0,0:0:0:0:
36,192,34696,1,0,0:0:0:0:
36,192,34865,1,0,0:0:0:0:
256,192,34865,1,0,0:0:0:0:
182,192,34950,1,0,0:0:0:0:
402,192,35035,1,0,0:0:0:0:
475,192,35035,1,0,0:0:0:0:
256,192,35119,1,0,0:0:0:0:
109,192,35204,1,0,0:0:0:0:
329,192,35204,1,0,0:0:0:0:
182,192,35289,1,0,0:0:0:0:
402,192,35374,1,0,0:0:0:0:
329,192,35374,1,0,0:0:0:0:
36,192,35374,1,0,0:0:0:0:
182,192,35543,1,0,0:0:0:0:
329,192,35543,1,0,0:0:0:0:
475,192,35628,1,0,0:0:0:0:
402,192,35713,1,0,0:0:0:0:
256,192,35713,1,0,0:0:0:0:
329,192,35797,1,0,0:0:0:0:
109,192,35882,1,0,0:0:0:0:
36,192,35882,1,0,0:0:0:0:
182,192,35967,1,0,0:0:0:0:
402,192,36052,1,0,0:0:0:0:
475,192,36052,1,0,0:0:0:0:
256,192,36052,1,0,0:0:0:0:
36,192,36221,1,0,0:0:0:0:
329,192,36221,1,0,0:0:0:0:
182,192,36306,1,0,0:0:0:0:
402,192,36391,1,0,0:0:0:0:
256,192,36391,1,0,0:0:0:0:
36,192,36475,1,0,0:0:0:0:
109,192,36560,1,0,0:0:0:0:
182,192,36560,1,0,0:0:0:0:
329,192,36645,1,0,0:0:0:0:
402,192,36730,1,0,0:0:0:0:
256,192,36730,1,0,0:0:0:0:
329,192,36815,1,0,0:0:0:0:
182,192,36899,1,0,0:0:0:0:
475,192,36899,1,0,0:0:0:0:
329,192,36984,1,0,0:0:0:0:
402,192,37069,1,0,0:0:0:0:
256,192,37069,1,0,0:0:0:0:
109,192,37069,1,0,0:0:0:0:
36,192,37154,1,0,0:0:0:0:
109,192,37238,1,0,0:0:0:0:
329,192,37238,1,0,0:0:0:0:
475,192,37238,1,0,0:0:0:0:
256,192,37323,1,0,0:0:0:0:
36,192,37323,1,0,0:0:0:0:
402,192,37408,1,0,0:0:0:0:
182,192,37408,1,0,0:0:0:0:
109,192,37408,1,0,0:0:0:0:
36,192,37577,1,0,0:0:0:0:
329,192,37577,1,0,0:0:0:0:
182,192,37662,1,0,0:0:0:0:
402,192,37747,1,0,0:0:0:0:
256,192,37747,1,0,0:0:0:0:
329,192,37832,1,0,0:0:0:0:
109,192,37916,1,0,0:0:0:0:
475,192,37916,1,0,0:0:0:0:
329,192,38001,1,0,0:0:0:0:
402,192,38086,1,0,0:0:0:0:
36,192,38086,1,0,0:0:0:0:
182,192,38255,1,0,0:0:0:0:
329,192,38255,1,0,0:0:0:0:
475,192,38340,1,0,0:0:0:0:
402,192,38425,1,0,0:0:0:0:
256,192,38425,1,0,0:0:0:0:
182,192,38425,1,0,0:0:0:0:
36,192,38510,1,0,0:0:0:0:
109,192,38594,1,0,0:0:0:0:
329,192,38594,1,0,0:0:0:0:
475,192,38594,1,0,0:0:0:0:
256,192,38679,1,0,0:0:0:0:
36,192,38679,1,0,0:0:0:0:
402,192,38764,1,0,0:0:0:0:
182,192,38764,1,0,0:0:0:0:
109,192,38764,1,0,0:0:0:0:
36,192,38933,1,0,0:0:0:0:
329,192,38933,1,0,0:0:0:0:
402,192,39103,1,0,0:0:0:0:
256,192,39103,1,0,0:0:0:0:
475,192,39103,1,0,0:0:0:0:
109,192,39272,1,0,0:0:0:0:
329,192,39272,1,0,0:0:0:0:
256,192,39357,1,0,0:0:0:0:
402,192,39442,1,0,0:0:0:0:
36,192,39442,1,0,0:0:0:0:
109,192,39527,1,0,0:0:0:0:
182,192,39611,1,0,0:0:0:0:
329,192,39611,1,0,0:0:0:0:
109,192,39696,1,0,0:0:0:0:
402,192,39781,1,0,0:0:0:0:
256,192,39781,1,0,0:0:0:0:
475,192,39781,1,0,0:0:0:0:
182,192,39781,1,0,0:0:0:0:
36,192,39866,1,0,0:0:0:0:
109,192,39950,1,0,0:0:0:0:
182,192,39950,1,0,0:0:0:0:
329,192,39950,1,0,0:0:0:0:
475,192,39950,1,0,0:0:0:0:
256,192,40035,1,0,0:0:0:0:
36,192,40035,1,0,0:0:0:0:
402,192,40120,1,0,0:0:0:0:
329,192,40120,1,0,0:0:0:0:
109,192,40120,1,0,0:0:0:0:
475,192,40120,1,0,0:0:0:0:
36,192,40289,1,0,0:0:0:0:
182,192,40289,1,0,0:0:0:0:
256,192,40374,1,0,0:0:0:0:
402,192,40459,1,0,0:0:0:0:
109,192,40459,1,0,0:0:0:0:
329,192,40544,1,0,0:0:0:0:
109,192,40629,1,0,0:0:0:0:
475,192,40629,1,0,0:0:0:0:
256,192,40713,1,0,0:0:0:0:
402,192,40798,1,0,0:0:0:0:
109,192,40798,1,0,0:0:0:0:
36,192,40883,1,0,0:0:0:0:
182,192,40968,1,0,0:0:0:0:
475,192,40968,1,0,0:0:0:0:
402,192,40968,1,0,0:0:0:0:
329,192,41052,1,0,0:0:0:0:
402,192,41137,1,0,0:0:0:0:
256,192,41137,1,0,0:0:0:0:
36,192,41137,1,0,0:0:0:0:
109,192,41222,1,0,0:0:0:0:
182,192,41307,1,0,0:0:0:0:
329,192,41307,1,0,0:0:0:0:
36,192,41307,1,0,0:0:0:0:
475,192,41307,1,0,0:0:0:0:
256,192,41391,1,0,0:0:0:0:
109,192,41391,1,0,0:0:0:0:
402,192,41476,1,0,0:0:0:0:
182,192,41476,1,0,0:0:0:0:
475,192,41476,1,0,0:0:0:0:
36,192,41646,1,0,0:0:0:0:
329,192,41646,1,0,0:0:0:0:
182,192,41730,1,0,0:0:0:0:
402,192,41815,1,0,0:0:0:0:
256,192,41815,1,0,0:0:0:0:
109,192,41985,1,0,0:0:0:0:
329,192,41985,1,0,0:0:0:0:
256,192,42069,1,0,0:0:0:0:
402,192,42154,1,0,0:0:0:0:
36,192,42154,1,0,0:0:0:0:
329,192,42239,1,0,0:0:0:0:
182,192,42324,1,0,0:0:0:0:
109,192,42324,1,0,0:0:0:0:
36,192,42408,1,0,0:0:0:0:
402,192,42493,1,0,0:0:0:0:
256,192,42493,1,0,0:0:0:0:
182,192,42493,1,0,0:0:0:0:
329,192,42578,1,0,0:0:0:0:
109,192,42663,1,0,0:0:0:0:
475,192,42663,1,0,0:0:0:0:
256,192,42747,1,0,0:0:0:0:
402,192,42832,1,0,0:0:0:0:
329,192,42832,1,0,0:0:0:0:
182,192,42832,1,0,0:0:0:0:
109,192,42917,1,0,0:0:0:0:
36,192,43002,1,0,0:0:0:0:
256,192,43002,1,0,0:0:0:0:
475,192,43002,1,0,0:0:0:0:
329,192,43086,1,0,0:0:0:0:
402,192,43171,1,0,0:0:0:0:
182,192,43171,1,0,0:0:0:0:
36,192,43171,1,0,0:0:0:0:
256,192,43256,1,0,0:0:0:0:
109,192,43341,1,0,0:0:0:0:
475,192,43341,1,0,0:0:0:0:
329,192,43341,1,0,0:0:0:0:
182,192,43425,1,0,0:0:0:0:
402,192,43510,1,0,0:0:0:0:
329,192,43510,1,0,0:0:0:0:
36,192,43510,1,0,0:0:0:0:
109,192,43595,1,0,0:0:0:0:
182,192,43680,1,0,0:0:0:0:
256,192,43680,1,0,0:0:0:0:
475,192,43680,1,0,0:0:0:0:
329,192,43764,1,0,0:0:0:0:
402,192,43849,1,0,0:0:0:0:
109,192,43849,1,0,0:0:0:0:
182,192,43849,1,0,0:0:0:0:
329,192,43934,1,0,0:0:0:0:
402,192,44019,1,0,0:0:0:0:
256,192,44019,1,0,0:0:0:0:
36,192,44019,1,0,0:0:0:0:
475,192,44019,1,0,0:0:0:0:
329,192,44103,1,0,0:0:0:0:
402,192,44188,1,0,0:0:0:0:
109,192,44188,1,0,0:0:0:0:
256,192,44188,1,0,0:0:0:0:
36,192,44358,1,0,0:0:0:0:
182,192,44358,1,0,0:0:0:0:
475,192,44358,1,0,0:0:0:0:
109,192,44527,1,0,0:0:0:0:
402,192,44527,1,0,0:0:0:0:
329,192,44527,1,0,0:0:0:0:
475,192,44697,1,0,0:0:0:0:
182,192,44697,1,0,0:0:0:0:
329,192,44782,1,0,0:0:0:0:
402,192,44866,1,0,0:0:0:0:
36,192,44866,1,0,0:0:0:0:
109,192,44866,1,0,0:0:0:0:
402,192,45092,1,0,0:0:0:0:
109,192,45092,1,0,0:0:0:0:
402,192,45318,1,0,0:0:0:0:
109,192,45318,1,0,0:0:0:0:
182,192,45544,1,0,0:0:0:0:
475,192,45883,1,0,0:0:0:0:
329,192,46222,1,0,0:0:0:0:
182,192,46392,1,0,0:0:0:0:
402,192,46561,1,0,0:0:0:0:
36,192,46561,1,0,0:0:0:0:
109,192,46731,1,0,0:0:0:0:
256,192,46900,1,0,0:0:0:0:
475,192,46900,1,0,0:0:0:0:
329,192,47070,1,0,0:0:0:0:
36,192,47239,1,0,0:0:0:0:
402,192,47409,1,0,0:0:0:0:
109,192,47578,1,0,0:0:0:0:
182,192,47917,1,0,0:0:0:0:
475,192,47917,1,0,0:0:0:0:
402,192,47917,1,0,0:0:0:0:
109,192,47917,1,0,0:0:0:0:
182,192,48256,1,0,0:0:0:0:
329,192,48256,1,0,0:0:0:0:
402,192,48256,1,0,0:0:0:0:
182,192,48596,1,0,0:0:0:0:
402,192,48596,1,0,0:0:0:0:
36,192,48596,1,0,0:0:0:0:
329,192,49274,1,0,0:0:0:0:
36,192,49274,1,0,0:0:0:0:
109,192,49274,1,0,0:0:0:0:
182,192,49443,1,0,0:0:0:0:
475,192,49613,1,0,0:0:0:0:
109,192,49613,1,0,0:0:0:0:
256,192,49952,1,0,0:0:0:0:
36,192,49952,1,0,0:0:0:0:
402,192,50291,1,0,0:0:0:0:
182,192,50291,1,0,0:0:0:0:
182,192,50630,1,0,0:0:0:0:
329,192,50630,1,0,0:0:0:0:
475,192,50799,1,0,0:0:0:0:
36,192,50969,1,0,0:0:0:0:
182,192,51138,1,0,0:0:0:0:
402,192,51308,1,0,0:0:0:0:
329,192,51647,1,0,0:0:0:0:
36,192,51647,1,0,0:0:0:0:
402,192,51647,1,0,0:0:0:0:
329,192,51986,1,0,0:0:0:0:
182,192,51986,1,0,0:0:0:0:
402,192,51986,1,0,0:0:0:0:
329,192,52325,1,0,0:0:0:0:
109,192,52325,1,0,0:0:0:0:
475,192,52325,1,0,0:0:0:0:
256,192,53003,1,0,0:0:0:0:
475,192,53003,1,0,0:0:0:0:
182,192,53003,1,0,0:0:0:0:
329,192,53342,1,0,0:0:0:0:
329,192,53511,1,0,0:0:0:0:
475,192,53681,1,0,0:0:0:0:
256,192,54020,1,0,0:0:0:0:
402,192,54020,1,0,0:0:0:0:
182,192,54020,1,0,0:0:0:0:
256,192,54359,1,0,0:0:0:0:
402,192,54528,1,0,0:0:0:0:
402,192,54698,1,0,0:0:0:0:
475,192,54867,1,0,0:0:0:0:
256,192,55037,1,0,0:0:0:0:
329,192,55037,1,0,0:0:0:0:
36,192,55037,1,0,0:0:0:0:
475,192,55376,1,0,0:0:0:0:
402,192,55545,1,0,0:0:0:0:
475,192,55715,1,0,0:0:0:0:
256,192,56054,1,0,0:0:0:0:
36,192,56054,1,0,0:0:0:0:
402,192,56054,1,0,0:0:0:0:
256,192,56393,1,0,0:0:0:0:
182,192,56563,1,0,0:0:0:0:
182,192,56732,1,0,0:0:0:0:
36,192,56902,1,0,0:0:0:0:
256,192,57071,1,0,0:0:0:0:
109,192,57071,1,0,0:0:0:0:
329,192,57071,1,0,0:0:0:0:
402,192,57410,1,0,0:0:0:0:
402,192,57580,1,0,0:0:0:0:
475,192,57749,1,0,0:0:0:0:
402,192,57919,1,0,0:0:0:0:
256,192,58173,1,0,0:0:0:0:
182,192,58173,1,0,0:0:0:0:
402,192,58173,1,0,0:0:0:0:
402,192,58512,1,0,0:0:0:0:
402,192,58893,1,0,0:0:0:0:
256,192,59275,1,0,0:0:0:0:
475,192,59275,1,0,0:0:0:0:
109,192,59275,1,0,0:0:0:0:
402,192,59275,1,0,0:0:0:0:
256,192,60716,1,0,0:0:0:0:
182,192,60758,1,0,0:0:0:0:
329,192,60800,1,0,0:0:0:0:
256,192,61309,1,0,0:0:0:0:
182,192,61309,1,0,0:0:0:0:
256,192,61478,1,0,0:0:0:0:
329,192,61478,1,0,0:0:0:0:
36,192,61478,1,0,0:0:0:0:
256,192,61648,1,0,0:0:0:0:
182,192,61648,1,0,0:0:0:0:
402,192,61648,1,0,0:0:0:0:
329,192,61817,1,0,0:0:0:0:
475,192,61817,128,0,63682:0:0:0:0:
109,192,61817,128,0,62495:0:0:0:0:
256,192,61817,128,0,63173:0:0:0:0:
329,192,63682,1,0,0:0:0:0:
36,192,64021,1,0,0:0:0:0:
256,192,64021,1,0,0:0:0:0:
402,192,64190,1,0,0:0:0:0:
329,192,64190,1,0,0:0:0:0:
182,192,64275,1,0,0:0:0:0:
475,192,64275,1,0,0:0:0:0:
36,192,64360,1,0,0:0:0:0:
256,192,64360,1,0,0:0:0:0:
402,192,64529,1,0,0:0:0:0:
109,192,64529,1,0,0:0:0:0:
256,192,64614,1,0,0:0:0:0:
36,192,64699,1,0,0:0:0:0:
329,192,64699,1,0,0:0:0:0:
475,192,64868,1,0,0:0:0:0:
182,192,64868,1,0,0:0:0:0:
329,192,64953,1,0,0:0:0:0:
36,192,65038,1,0,0:0:0:0:
256,192,65038,1,0,0:0:0:0:
182,192,65122,1,0,0:0:0:0:
402,192,65207,1,0,0:0:0:0:
329,192,65207,1,0,0:0:0:0:
109,192,65292,1,0,0:0:0:0:
36,192,65377,1,0,0:0:0:0:
256,192,65377,1,0,0:0:0:0:
402,192,65546,1,0,0:0:0:0:
182,192,65546,1,0,0:0:0:0:
256,192,65631,1,0,0:0:0:0:
36,192,65716,1,0,0:0:0:0:
109,192,65716,1,0,0:0:0:0:
329,192,65800,1,0,0:0:0:0:
475,192,65885,1,0,0:0:0:0:
182,192,65885,1,0,0:0:0:0:
402,192,65970,1,0,0:0:0:0:
36,192,66055,1,0,0:0:0:0:
109,192,66055,1,0,0:0:0:0:
256,192,66139,1,0,0:0:0:0:
402,192,66224,1,0,0:0:0:0:
182,192,66224,1,0,0:0:0:0:
329,192,66309,1,0,0:0:0:0:
36,192,66394,1,0,0:0:0:0:
256,192,66394,1,0,0:0:0:0:
109,192,66394,1,0,0:0:0:0:
182,192,66478,1,0,0:0:0:0:
329,192,66563,1,0,0:0:0:0:
475,192,66563,1,0,0:0:0:0:
109,192,66563,1,0,0:0:0:0:
182,192,66648,1,0,0:0:0:0:
402,192,66648,1,0,0:0:0:0:
36,192,66733,1,0,0:0:0:0:
329,192,66733,1,0,0:0:0:0:
475,192,66733,1,0,0:0:0:0:
256,192,66817,1,0,0:0:0:0:
402,192,66902,1,0,0:0:0:0:
109,192,66902,1,0,0:0:0:0:
256,192,66987,1,0,0:0:0:0:
36,192,67072,1,0,0:0:0:0:
329,192,67072,1,0,0:0:0:0:
402,192,67241,1,0,0:0:0:0:
109,192,67241,1,0,0:0:0:0:
182,192,67326,1,0,0:0:0:0:
36,192,67411,1,0,0:0:0:0:
329,192,67411,1,0,0:0:0:0:
475,192,67580,1,0,0:0:0:0:
256,192,67580,1,0,0:0:0:0:
402,192,67665,1,0,0:0:0:0:
36,192,67750,1,0,0:0:0:0:
182,192,67750,1,0,0:0:0:0:
256,192,67834,1,0,0:0:0:0:
402,192,67919,1,0,0:0:0:0:
475,192,67919,1,0,0:0:0:0:
182,192,68004,1,0,0:0:0:0:
329,192,68004,1,0,0:0:0:0:
36,192,68089,1,0,0:0:0:0:
256,192,68089,1,0,0:0:0:0:
402,192,68258,1,0,0:0:0:0:
109,192,68258,1,0,0:0:0:0:
256,192,68343,1,0,0:0:0:0:
36,192,68428,1,0,0:0:0:0:
329,192,68428,1,0,0:0:0:0:
475,192,68597,1,0,0:0:0:0:
182,192,68597,1,0,0:0:0:0:
402,192,68682,1,0,0:0:0:0:
36,192,68767,1,0,0:0:0:0:
329,192,68767,1,0,0:0:0:0:
402,192,68936,1,0,0:0:0:0:
182,192,68936,1,0,0:0:0:0:
329,192,69021,1,0,0:0:0:0:
36,192,69106,1,0,0:0:0:0:
109,192,69106,1,0,0:0:0:0:
256,192,69191,1,0,0:0:0:0:
36,192,69275,1,0,0:0:0:0:
402,192,69275,1,0,0:0:0:0:
329,192,69275,1,0,0:0:0:0:
182,192,69360,1,0,0:0:0:0:
475,192,69360,1,0,0:0:0:0:
36,192,69445,1,0,0:0:0:0:
402,192,69445,1,0,0:0:0:0:
256,192,69445,1,0,0:0:0:0:
109,192,69445,1,0,0:0:0:0:
475,192,69614,1,0,0:0:0:0:
182,192,69614,1,0,0:0:0:0:
329,192,69699,1,0,0:0:0:0:
36,192,69784,1,0,0:0:0:0:
256,192,69784,1,0,0:0:0:0:
475,192,69953,1,0,0:0:0:0:
402,192,69953,1,0,0:0:0:0:
182,192,70038,1,0,0:0:0:0:
36,192,70123,1,0,0:0:0:0:
329,192,70123,1,0,0:0:0:0:
475,192,70292,1,0,0:0:0:0:
109,192,70292,1,0,0:0:0:0:
256,192,70377,1,0,0:0:0:0:
36,192,70462,1,0,0:0:0:0:
329,192,70462,1,0,0:0:0:0:
182,192,70547,1,0,0:0:0:0:
36,192,70631,1,0,0:0:0:0:
402,192,70631,1,0,0:0:0:0:
109,192,70631,1,0,0:0:0:0:
329,192,70716,1,0,0:0:0:0:
182,192,70716,1,0,0:0:0:0:
36,192,70801,1,0,0:0:0:0:
402,192,70801,1,0,0:0:0:0:
256,192,70801,1,0,0:0:0:0:
475,192,70801,1,0,0:0:0:0:
475,192,70970,1,0,0:0:0:0:
182,192,70970,1,0,0:0:0:0:
329,192,71055,1,0,0:0:0:0:
36,192,71140,1,0,0:0:0:0:
109,192,71140,1,0,0:0:0:0:
475,192,71309,1,0,0:0:0:0:
402,192,71309,1,0,0:0:0:0:
182,192,71394,1,0,0:0:0:0:
36,192,71479,1,0,0:0:0:0:
329,192,71479,1,0,0:0:0:0:
475,192,71648,1,0,0:0:0:0:
109,192,71648,1,0,0:0:0:0:
329,192,71733,1,0,0:0:0:0:
256,192,71733,1,0,0:0:0:0:
36,192,71818,1,0,0:0:0:0:
402,192,71818,1,0,0:0:0:0:
182,192,71903,1,0,0:0:0:0:
402,192,71988,1,0,0:0:0:0:
329,192,71988,1,0,0:0:0:0:
109,192,72072,1,0,0:0:0:0:
475,192,72072,1,0,0:0:0:0:
36,192,72157,1,0,0:0:0:0:
256,192,72157,1,0,0:0:0:0:
402,192,72157,1,0,0:0:0:0:
329,192,72327,1,0,0:0:0:0:
109,192,72327,1,0,0:0:0:0:
256,192,72411,1,0,0:0:0:0:
36,192,72496,1,0,0:0:0:0:
475,192,72496,1,0,0:0:0:0:
182,192,72581,1,0,0:0:0:0:
36,192,72666,1,0,0:0:0:0:
402,192,72666,1,0,0:0:0:0:
256,192,72666,1,0,0:0:0:0:
329,192,72750,1,0,0:0:0:0:
109,192,72750,1,0,0:0:0:0:
36,192,72835,1,0,0:0:0:0:
475,192,72835,1,0,0:0:0:0:
256,192,72835,1,0,0:0:0:0:
182,192,72835,1,0,0:0:0:0:
329,192,73005,1,0,0:0:0:0:
402,192,73089,1,0,0:0:0:0:
36,192,73174,1,0,0:0:0:0:
256,192,73174,1,0,0:0:0:0:
182,192,73259,1,0,0:0:0:0:
36,192,73344,1,0,0:0:0:0:
402,192,73344,1,0,0:0:0:0:
109,192,73344,1,0,0:0:0:0:
329,192,73428,1,0,0:0:0:0:
182,192,73428,1,0,0:0:0:0:
36,192,73513,1,0,0:0:0:0:
475,192,73513,1,0,0:0:0:0:
256,192,73513,1,0,0:0:0:0:
109,192,73513,1,0,0:0:0:0:
329,192,73683,1,0,0:0:0:0:
109,192,73767,1,0,0:0:0:0:
36,192,73852,1,0,0:0:0:0:
402,192,73852,1,0,0:0:0:0:
256,192,73852,1,0,0:0:0:0:
182,192,73852,1,0,0:0:0:0:
36,192,74022,1,0,0:0:0:0:
329,192,74022,1,0,0:0:0:0:
182,192,74106,1,0,0:0:0:0:
475,192,74191,1,0,0:0:0:0:
256,192,74191,1,0,0:0:0:0:
109,192,74191,1,0,0:0:0:0:
402,192,74191,1,0,0:0:0:0:
329,192,74276,1,0,0:0:0:0:
475,192,74361,1,0,0:0:0:0:
109,192,74361,1,0,0:0:0:0:
402,192,74361,1,0,0:0:0:0:
256,192,74445,1,0,0:0:0:0:
36,192,74530,1,0,0:0:0:0:
329,192,74530,1,0,0:0:0:0:
182,192,74530,1,0,0:0:0:0:
256,192,74615,1,0,0:0:0:0:
36,192,74700,1,0,0:0:0:0:
402,192,74700,1,0,0:0:0:0:
109,192,74700,1,0,0:0:0:0:
182,192,74784,1,0,0:0:0:0:
475,192,74869,1,0,0:0:0:0:
329,192,74869,1,0,0:0:0:0:
256,192,74869,1,0,0:0:0:0:
109,192,75039,1,0,0:0:0:0:
402,192,75039,1,0,0:0:0:0:
329,192,75039,1,0,0:0:0:0:
256,192,75123,1,0,0:0:0:0:
475,192,75208,1,0,0:0:0:0:
36,192,75208,1,0,0:0:0:0:
109,192,75208,1,0,0:0:0:0:
182,192,75378,1,0,0:0:0:0:
402,192,75378,1,0,0:0:0:0:
256,192,75378,1,0,0:0:0:0:
329,192,75462,1,0,0:0:0:0:
475,192,75547,1,0,0:0:0:0:
109,192,75547,1,0,0:0:0:0:
182,192,75547,1,0,0:0:0:0:
256,192,75717,1,0,0:0:0:0:
402,192,75717,1,0,0:0:0:0:
182,192,75717,1,0,0:0:0:0:
329,192,75801,1,0,0:0:0:0:
475,192,75886,1,0,0:0:0:0:
182,192,75886,1,0,0:0:0:0:
36,192,75886,1,0,0:0:0:0:
36,192,76056,1,0,0:0:0:0:
402,192,76056,1,0,0:0:0:0:
329,192,76141,1,0,0:0:0:0:
182,192,76141,1,0,0:0:0:0:
475,192,76225,1,0,0:0:0:0:
36,192,76225,1,0,0:0:0:0:
256,192,76225,1,0,0:0:0:0:
109,192,76395,1,0,0:0:0:0:
402,192,76395,1,0,0:0:0:0:
329,192,76480,1,0,0:0:0:0:
475,192,76564,1,0,0:0:0:0:
36,192,76564,1,0,0:0:0:0:
256,192,76564,1,0,0:0:0:0:
182,192,76734,1,0,0:0:0:0:
329,192,76734,1,0,0:0:0:0:
109,192,76819,1,0,0:0:0:0:
475,192,76903,1,0,0:0:0:0:
36,192,76903,1,0,0:0:0:0:
256,192,76903,1,0,0:0:0:0:
109,192,77073,1,0,0:0:0:0:
329,192,77073,1,0,0:0:0:0:
256,192,77158,1,0,0:0:0:0:
475,192,77242,1,0,0:0:0:0:
36,192,77242,1,0,0:0:0:0:
329,192,77242,1,0,0:0:0:0:
256,192,77327,1,0,0:0:0:0:
182,192,77412,1,0,0:0:0:0:
109,192,77412,1,0,0:0:0:0:
402,192,77412,1,0,0:0:0:0:
329,192,77497,1,0,0:0:0:0:
256,192,77497,1,0,0:0:0:0:
475,192,77581,1,0,0:0:0:0:
402,192,77581,1,0,0:0:0:0:
109,192,77581,1,0,0:0:0:0:
256,192,77751,1,0,0:0:0:0:
36,192,77751,1,0,0:0:0:0:
182,192,77836,1,0,0:0:0:0:
475,192,77920,1,0,0:0:0:0:
329,192,77920,1,0,0:0:0:0:
36,192,78090,1,0,0:0:0:0:
182,192,78090,1,0,0:0:0:0:
329,192,78090,1,0,0:0:0:0:
256,192,78175,1,0,0:0:0:0:
475,192,78259,1,0,0:0:0:0:
402,192,78259,1,0,0:0:0:0:
182,192,78259,1,0,0:0:0:0:
109,192,78429,1,0,0:0:0:0:
256,192,78429,1,0,0:0:0:0:
402,192,78514,1,0,0:0:0:0:
475,192,78598,1,0,0:0:0:0:
329,192,78598,1,0,0:0:0:0:
182,192,78598,1,0,0:0:0:0:
256,192,78683,1,0,0:0:0:0:
182,192,78768,1,0,0:0:0:0:
36,192,78768,1,0,0:0:0:0:
402,192,78768,1,0,0:0:0:0:
256,192,78853,1,0,0:0:0:0:
475,192,78937,1,0,0:0:0:0:
402,192,78937,1,0,0:0:0:0:
109,192,78937,1,0,0:0:0:0:
109,192,79107,1,0,0:0:0:0:
256,192,79107,1,0,0:0:0:0:
182,192,79192,1,0,0:0:0:0:
475,192,79276,1,0,0:0:0:0:
36,192,79276,1,0,0:0:0:0:
329,192,79361,1,0,0:0:0:0:
182,192,79446,1,0,0:0:0:0:
402,192,79446,1,0,0:0:0:0:
256,192,79531,1,0,0:0:0:0:
475,192,79615,1,0,0:0:0:0:
109,192,79615,1,0,0:0:0:0:
402,192,79700,1,0,0:0:0:0:
256,192,79785,1,0,0:0:0:0:
329,192,79785,1,0,0:0:0:0:
36,192,79785,1,0,0:0:0:0:
182,192,79870,1,0,0:0:0:0:
475,192,79954,1,0,0:0:0:0:
329,192,79955,1,0,0:0:0:0:
109,192,79955,1,0,0:0:0:0:
402,192,80039,1,0,0:0:0:0:
475,192,80124,1,0,0:0:0:0:
256,192,80124,1,0,0:0:0:0:
36,192,80124,1,0,0:0:0:0:
109,192,80209,1,0,0:0:0:0:
475,192,80294,1,0,0:0:0:0:
182,192,80294,1,0,0:0:0:0:
329,192,80294,1,0,0:0:0:0:
109,192,80463,1,0,0:0:0:0:
402,192,80463,1,0,0:0:0:0:
256,192,80548,1,0,0:0:0:0:
475,192,80633,1,0,0:0:0:0:
36,192,80633,1,0,0:0:0:0:
329,192,80633,1,0,0:0:0:0:
182,192,80802,1,0,0:0:0:0:
402,192,80802,1,0,0:0:0:0:
256,192,80887,1,0,0:0:0:0:
475,192,80972,1,0,0:0:0:0:
36,192,80972,1,0,0:0:0:0:
109,192,80972,1,0,0:0:0:0:
109,192,81141,1,0,0:0:0:0:
329,192,81141,1,0,0:0:0:0:
402,192,81226,1,0,0:0:0:0:
475,192,81311,1,0,0:0:0:0:
256,192,81311,1,0,0:0:0:0:
36,192,81311,1,0,0:0:0:0:
329,192,81395,1,0,0:0:0:0:
475,192,81480,1,0,0:0:0:0:
182,192,81480,1,0,0:0:0:0:
256,192,81480,1,0,0:0:0:0:
36,192,81565,1,0,0:0:0:0:
402,192,81565,1,0,0:0:0:0:
475,192,81650,1,0,0:0:0:0:
109,192,81650,1,0,0:0:0:0:
329,192,81650,1,0,0:0:0:0:
256,192,81650,1,0,0:0:0:0:
182,192,81819,1,0,0:0:0:0:
402,192,81819,1,0,0:0:0:0:
329,192,81904,1,0,0:0:0:0:
475,192,81989,1,0,0:0:0:0:
36,192,81989,1,0,0:0:0:0:
402,192,81989,1,0,0:0:0:0:
256,192,82158,1,0,0:0:0:0:
109,192,82158,1,0,0:0:0:0:
182,192,82243,1,0,0:0:0:0:
475,192,82328,1,0,0:0:0:0:
329,192,82328,1,0,0:0:0:0:
109,192,82497,1,0,0:0:0:0:
402,192,82497,1,0,0:0:0:0:
256,192,82497,1,0,0:0:0:0:
36,192,82582,1,0,0:0:0:0:
475,192,82667,1,0,0:0:0:0:
182,192,82667,1,0,0:0:0:0:
329,192,82667,1,0,0:0:0:0:
475,192,82836,1,0,0:0:0:0:
109,192,82836,1,0,0:0:0:0:
329,192,82836,1,0,0:0:0:0:
402,192,82921,1,0,0:0:0:0:
475,192,83006,1,0,0:0:0:0:
256,192,83006,1,0,0:0:0:0:
36,192,83006,1,0,0:0:0:0:
329,192,83006,1,0,0:0:0:0:
109,192,83175,1,0,0:0:0:0:
182,192,83175,1,0,0:0:0:0:
256,192,83260,1,0,0:0:0:0:
475,192,83345,1,0,0:0:0:0:
329,192,83345,1,0,0:0:0:0:
36,192,83345,1,0,0:0:0:0:
475,192,83514,1,0,0:0:0:0:
256,192,83514,1,0,0:0:0:0:
402,192,83514,1,0,0:0:0:0:
329,192,83599,1,0,0:0:0:0:
475,192,83684,1,0,0:0:0:0:
182,192,83684,1,0,0:0:0:0:
36,192,83684,1,0,0:0:0:0:
182,192,83853,1,0,0:0:0:0:
475,192,84023,1,0,0:0:0:0:
256,192,84023,1,0,0:0:0:0:
402,192,84023,1,0,0:0:0:0:
182,192,84023,1,0,0:0:0:0:
475,192,84192,1,0,0:0:0:0:
182,192,84192,1,0,0:0:0:0:
329,192,84192,1,0,0:0:0:0:
475,192,84362,1,0,0:0:0:0:
109,192,84362,1,0,0:0:0:0:
402,192,84362,1,0,0:0:0:0:
36,192,84362,1,0,0:0:0:0:
475,192,84531,1,0,0:0:0:0:
182,192,84531,1,0,0:0:0:0:
256,192,84531,1,0,0:0:0:0:
36,192,84531,1,0,0:0:0:0:
475,192,84701,1,0,0:0:0:0:
109,192,84701,1,0,0:0:0:0:
329,192,84701,1,0,0:0:0:0:
256,192,84701,1,0,0:0:0:0:
182,192,84786,1,0,0:0:0:0:
475,192,84870,1,0,0:0:0:0:
36,192,84870,1,0,0:0:0:0:
402,192,84870,1,0,0:0:0:0:
329,192,84870,1,0,0:0:0:0:
182,192,84955,1,0,0:0:0:0:
475,192,85040,1,0,0:0:0:0:
109,192,85040,1,0,0:0:0:0:
256,192,85040,1,0,0:0:0:0:
182,192,85125,1,0,0:0:0:0:
329,192,85125,1,0,0:0:0:0:
109,192,85209,1,0,0:0:0:0:
402,192,85209,1,0,0:0:0:0:
36,192,85294,1,0,0:0:0:0:
256,192,85294,1,0,0:0:0:0:
475,192,85379,1,0,0:0:0:0:
109,192,85379,1,0,0:0:0:0:
329,192,85379,1,0,0:0:0:0:
182,192,85464,1,0,0:0:0:0:
256,192,85548,1,0,0:0:0:0:
402,192,85548,1,0,0:0:0:0:
182,192,85633,1,0,0:0:0:0:
475,192,85633,1,0,0:0:0:0:
402,192,85718,1,0,0:0:0:0:
256,192,85718,1,0,0:0:0:0:
36,192,85718,1,0,0:0:0:0:
402,192,87074,1,0,0:0:0:0:
256,192,87074,1,0,0:0:0:0:
36,192,87074,1,0,0:0:0:0:
182,192,87752,1,0,0:0:0:0:
402,192,87922,1,0,0:0:0:0:
402,192,88091,1,0,0:0:0:0:
475,192,88091,1,0,0:0:0:0:
182,192,88091,1,0,0:0:0:0:
329,192,88176,1,0,0:0:0:0:
182,192,88261,1,0,0:0:0:0:
402,192,88261,1,0,0:0:0:0:
36,192,88345,1,0,0:0:0:0:
256,192,88430,1,0,0:0:0:0:
109,192,88430,1,0,0:0:0:0:
475,192,88430,1,0,0:0:0:0:
36,192,89956,1,0,0:0:0:0:
256,192,89956,1,0,0:0:0:0:
475,192,90125,1,0,0:0:0:0:
256,192,90125,1,0,0:0:0:0:
109,192,90210,1,0,0:0:0:0:
329,192,90210,1,0,0:0:0:0:
402,192,90295,1,0,0:0:0:0:
36,192,90295,1,0,0:0:0:0:
182,192,90464,1,0,0:0:0:0:
402,192,90634,1,0,0:0:0:0:
256,192,90803,1,0,0:0:0:0:
475,192,90803,1,0,0:0:0:0:
109,192,90803,1,0,0:0:0:0:
182,192,90803,1,0,0:0:0:0:
402,192,90803,1,0,0:0:0:0:
109,192,91142,1,0,0:0:0:0:
475,192,91142,1,0,0:0:0:0:
329,192,91312,1,0,0:0:0:0:
475,192,91312,1,0,0:0:0:0:
182,192,91312,1,0,0:0:0:0:
256,192,91396,1,0,0:0:0:0:
109,192,91481,1,0,0:0:0:0:
402,192,91481,1,0,0:0:0:0:
36,192,91481,1,0,0:0:0:0:
329,192,91651,1,0,0:0:0:0:
182,192,91651,1,0,0:0:0:0:
475,192,91651,1,0,0:0:0:0:
402,192,91735,1,0,0:0:0:0:
109,192,91820,1,0,0:0:0:0:
256,192,91820,1,0,0:0:0:0:
402,192,91990,1,0,0:0:0:0:
36,192,91990,1,0,0:0:0:0:
182,192,91990,1,0,0:0:0:0:
329,192,92075,1,0,0:0:0:0:
109,192,92159,1,0,0:0:0:0:
256,192,92159,1,0,0:0:0:0:
475,192,92159,1,0,0:0:0:0:
182,192,92244,1,0,0:0:0:0:
402,192,92329,1,0,0:0:0:0:
36,192,92329,1,0,0:0:0:0:
329,192,92329,1,0,0:0:0:0:
182,192,92414,1,0,0:0:0:0:
256,192,92414,1,0,0:0:0:0:
109,192,92498,1,0,0:0:0:0:
329,192,92498,1,0,0:0:0:0:
402,192,92498,1,0,0:0:0:0:
36,192,92498,1,0,0:0:0:0:
475,192,92668,1,0,0:0:0:0:
329,192,92668,1,0,0:0:0:0:
182,192,92668,1,0,0:0:0:0:
402,192,92753,1,0,0:0:0:0:
109,192,92837,1,0,0:0:0:0:
256,192,92837,1,0,0:0:0:0:
329,192,92837,1,0,0:0:0:0:
475,192,93007,1,0,0:0:0:0:
36,192,93007,1,0,0:0:0:0:
182,192,93007,1,0,0:0:0:0:
329,192,93092,1,0,0:0:0:0:
109,192,93176,1,0,0:0:0:0:
256,192,93176,1,0,0:0:0:0:
402,192,93346,1,0,0:0:0:0:
182,192,93346,1,0,0:0:0:0:
329,192,93346,1,0,0:0:0:0:
109,192,93346,1,0,0:0:0:0:
256,192,93431,1,0,0:0:0:0:
36,192,93431,1,0,0:0:0:0:
109,192,93515,1,0,0:0:0:0:
475,192,93515,1,0,0:0:0:0:
402,192,93515,1,0,0:0:0:0:
329,192,93600,1,0,0:0:0:0:
402,192,93685,1,0,0:0:0:0:
36,192,93685,1,0,0:0:0:0:
182,192,93685,1,0,0:0:0:0:
256,192,93770,1,0,0:0:0:0:
109,192,93854,1,0,0:0:0:0:
182,192,93854,1,0,0:0:0:0:
475,192,93854,1,0,0:0:0:0:
329,192,94024,1,0,0:0:0:0:
182,192,94024,1,0,0:0:0:0:
402,192,94024,1,0,0:0:0:0:
256,192,94109,1,0,0:0:0:0:
109,192,94193,1,0,0:0:0:0:
475,192,94193,1,0,0:0:0:0:
36,192,94193,1,0,0:0:0:0:
329,192,94363,1,0,0:0:0:0:
256,192,94363,1,0,0:0:0:0:
475,192,94363,1,0,0:0:0:0:
402,192,94448,1,0,0:0:0:0:
109,192,94532,1,0,0:0:0:0:
329,192,94532,1,0,0:0:0:0:
402,192,94702,1,0,0:0:0:0:
182,192,94702,1,0,0:0:0:0:
36,192,94702,1,0,0:0:0:0:
256,192,94787,1,0,0:0:0:0:
109,192,94871,1,0,0:0:0:0:
329,192,94871,1,0,0:0:0:0:
475,192,94871,1,0,0:0:0:0:
182,192,94956,1,0,0:0:0:0:
402,192,95041,1,0,0:0:0:0:
256,192,95041,1,0,0:0:0:0:
109,192,95041,1,0,0:0:0:0:
475,192,95126,1,0,0:0:0:0:
329,192,95126,1,0,0:0:0:0:
109,192,95210,1,0,0:0:0:0:
36,192,95210,1,0,0:0:0:0:
256,192,95210,1,0,0:0:0:0:
402,192,95210,1,0,0:0:0:0:
329,192,95380,1,0,0:0:0:0:
182,192,95380,1,0,0:0:0:0:
402,192,95465,1,0,0:0:0:0:
36,192,95465,1,0,0:0:0:0:
109,192,95549,1,0,0:0:0:0:
256,192,95549,1,0,0:0:0:0:
475,192,95549,1,0,0:0:0:0:
475,192,95719,1,0,0:0:0:0:
329,192,95719,1,0,0:0:0:0:
402,192,95804,1,0,0:0:0:0:
182,192,95804,1,0,0:0:0:0:
109,192,95889,1,0,0:0:0:0:
36,192,95889,1,0,0:0:0:0:
256,192,95889,1,0,0:0:0:0:
329,192,96058,1,0,0:0:0:0:
109,192,96058,1,0,0:0:0:0:
402,192,96143,1,0,0:0:0:0:
36,192,96143,1,0,0:0:0:0:
109,192,96228,1,0,0:0:0:0:
256,192,96228,1,0,0:0:0:0:
182,192,96228,1,0,0:0:0:0:
475,192,96228,1,0,0:0:0:0:
36,192,96312,1,0,0:0:0:0:
475,192,96397,1,0,0:0:0:0:
329,192,96397,1,0,0:0:0:0:
256,192,96397,1,0,0:0:0:0:
109,192,96482,1,0,0:0:0:0:
36,192,96482,1,0,0:0:0:0:
402,192,96567,1,0,0:0:0:0:
182,192,96567,1,0,0:0:0:0:
256,192,96567,1,0,0:0:0:0:
475,192,96567,1,0,0:0:0:0:
36,192,96736,1,0,0:0:0:0:
182,192,96736,1,0,0:0:0:0:
329,192,96736,1,0,0:0:0:0:
256,192,96821,1,0,0:0:0:0:
402,192,96906,1,0,0:0:0:0:
329,192,96906,1,0,0:0:0:0:
109,192,96906,1,0,0:0:0:0:
36,192,97075,1,0,0:0:0:0:
475,192,97075,1,0,0:0:0:0:
256,192,97075,1,0,0:0:0:0:
109,192,97160,1,0,0:0:0:0:
402,192,97245,1,0,0:0:0:0:
256,192,97245,1,0,0:0:0:0:
109,192,97414,1,0,0:0:0:0:
182,192,97414,1,0,0:0:0:0:
329,192,97414,1,0,0:0:0:0:
475,192,97414,1,0,0:0:0:0:
256,192,97499,1,0,0:0:0:0:
36,192,97499,1,0,0:0:0:0:
402,192,97584,1,0,0:0:0:0:
182,192,97584,1,0,0:0:0:0:
109,192,97584,1,0,0:0:0:0:
256,192,97668,1,0,0:0:0:0:
109,192,97753,1,0,0:0:0:0:
475,192,97753,1,0,0:0:0:0:
329,192,97753,1,0,0:0:0:0:
182,192,97838,1,0,0:0:0:0:
402,192,97923,1,0,0:0:0:0:
36,192,97923,1,0,0:0:0:0:
256,192,97923,1,0,0:0:0:0:
182,192,98092,1,0,0:0:0:0:
36,192,98092,1,0,0:0:0:0:
475,192,98092,1,0,0:0:0:0:
256,192,98177,1,0,0:0:0:0:
402,192,98262,1,0,0:0:0:0:
329,192,98262,1,0,0:0:0:0:
109,192,98262,1,0,0:0:0:0:
182,192,98431,1,0,0:0:0:0:
475,192,98431,1,0,0:0:0:0:
329,192,98431,1,0,0:0:0:0:
109,192,98516,1,0,0:0:0:0:
402,192,98601,1,0,0:0:0:0:
182,192,98601,1,0,0:0:0:0:
109,192,98770,1,0,0:0:0:0:
329,192,98770,1,0,0:0:0:0:
256,192,98770,1,0,0:0:0:0:
36,192,98770,1,0,0:0:0:0:
182,192,98855,1,0,0:0:0:0:
475,192,98855,1,0,0:0:0:0:
402,192,98940,1,0,0:0:0:0:
36,192,98940,1,0,0:0:0:0:
256,192,98940,1,0,0:0:0:0:
329,192,99024,1,0,0:0:0:0:
109,192,99109,1,0,0:0:0:0:
182,192,99109,1,0,0:0:0:0:
475,192,99109,1,0,0:0:0:0:
329,192,99194,1,0,0:0:0:0:
402,192,99279,1,0,0:0:0:0:
256,192,99279,1,0,0:0:0:0:
36,192,99279,1,0,0:0:0:0:
36,192,99448,1,0,0:0:0:0:
256,192,99448,1,0,0:0:0:0:
475,192,99448,1,0,0:0:0:0:
329,192,99533,1,0,0:0:0:0:
402,192,99618,1,0,0:0:0:0:
182,192,99618,1,0,0:0:0:0:
109,192,99618,1,0,0:0:0:0:
36,192,99787,1,0,0:0:0:0:
475,192,99787,1,0,0:0:0:0:
256,192,99787,1,0,0:0:0:0:
182,192,99872,1,0,0:0:0:0:
402,192,99957,1,0,0:0:0:0:
329,192,99957,1,0,0:0:0:0:
109,192,100126,1,0,0:0:0:0:
182,192,100126,1,0,0:0:0:0:
402,192,100126,1,0,0:0:0:0:
256,192,100211,1,0,0:0:0:0:
402,192,100296,1,0,0:0:0:0:
329,192,100296,1,0,0:0:0:0:
36,192,100296,1,0,0:0:0:0:
256,192,100381,1,0,0:0:0:0:
109,192,100465,1,0,0:0:0:0:
475,192,100465,1,0,0:0:0:0:
402,192,100465,1,0,0:0:0:0:
329,192,100550,1,0,0:0:0:0:
182,192,100550,1,0,0:0:0:0:
402,192,100635,1,0,0:0:0:0:
256,192,100635,1,0,0:0:0:0:
36,192,100635,1,0,0:0:0:0:
109,192,100635,1,0,0:0:0:0:
182,192,100861,1,0,0:0:0:0:
36,192,100861,1,0,0:0:0:0:
475,192,100861,1,0,0:0:0:0:
402,192,101087,1,0,0:0:0:0:
329,192,101087,1,0,0:0:0:0:
109,192,101087,1,0,0:0:0:0:
182,192,101143,1,0,0:0:0:0:
36,192,101200,1,0,0:0:0:0:
109,192,101256,1,0,0:0:0:0:
256,192,101313,1,0,0:0:0:0:
329,192,101313,1,0,0:0:0:0:
475,192,101313,1,0,0:0:0:0:
402,192,101539,1,0,0:0:0:0:
182,192,101539,1,0,0:0:0:0:
329,192,101765,1,0,0:0:0:0:
36,192,101765,1,0,0:0:0:0:
402,192,101991,1,0,0:0:0:0:
36,192,101991,1,0,0:0:0:0:
329,192,101991,1,0,0:0:0:0:
36,192,102160,1,0,0:0:0:0:
475,192,102330,1,0,0:0:0:0:
256,192,102330,1,0,0:0:0:0:
402,192,102499,1,0,0:0:0:0:
36,192,102499,1,0,0:0:0:0:
109,192,102499,1,0,0:0:0:0:
475,192,102669,1,0,0:0:0:0:
329,192,102669,1,0,0:0:0:0:
36,192,102838,1,0,0:0:0:0:
256,192,102838,1,0,0:0:0:0:
402,192,103008,1,0,0:0:0:0:
475,192,103008,1,0,0:0:0:0:
109,192,103008,1,0,0:0:0:0:
36,192,103177,1,0,0:0:0:0:
182,192,103177,1,0,0:0:0:0:
475,192,103516,1,0,0:0:0:0:
329,192,103516,1,0,0:0:0:0:
182,192,103686,1,0,0:0:0:0:
475,192,103856,1,0,0:0:0:0:
109,192,103856,1,0,0:0:0:0:
36,192,104195,1,0,0:0:0:0:
256,192,104195,1,0,0:0:0:0:
402,192,104364,1,0,0:0:0:0:
182,192,104364,1,0,0:0:0:0:
36,192,104534,1,0,0:0:0:0:
475,192,104534,1,0,0:0:0:0:
256,192,104534,1,0,0:0:0:0:
402,192,104703,1,0,0:0:0:0:
36,192,104703,1,0,0:0:0:0:
109,192,104703,1,0,0:0:0:0:
402,192,104873,1,0,0:0:0:0:
475,192,104873,1,0,0:0:0:0:
182,192,104873,1,0,0:0:0:0:
475,192,105042,1,0,0:0:0:0:
36,192,105212,1,0,0:0:0:0:
256,192,105212,1,0,0:0:0:0:
475,192,105381,1,0,0:0:0:0:
475,192,105466,1,0,0:0:0:0:
402,192,105551,1,0,0:0:0:0:
256,192,105551,1,0,0:0:0:0:
36,192,105720,1,0,0:0:0:0:
182,192,105720,1,0,0:0:0:0:
402,192,105890,1,0,0:0:0:0:
36,192,105890,1,0,0:0:0:0:
256,192,105890,1,0,0:0:0:0:
329,192,106059,1,0,0:0:0:0:
475,192,106229,1,0,0:0:0:0:
182,192,106229,1,0,0:0:0:0:
402,192,106398,1,0,0:0:0:0:
329,192,106398,1,0,0:0:0:0:
475,192,106568,1,0,0:0:0:0:
182,192,106568,1,0,0:0:0:0:
329,192,106737,1,0,0:0:0:0:
256,192,106794,1,0,0:0:0:0:
109,192,106850,1,0,0:0:0:0:
402,192,106907,1,0,0:0:0:0:
182,192,106963,1,0,0:0:0:0:
329,192,107020,1,0,0:0:0:0:
256,192,107076,1,0,0:0:0:0:
36,192,107246,1,0,0:0:0:0:
475,192,107246,1,0,0:0:0:0:
182,192,107246,1,0,0:0:0:0:
36,192,107415,1,0,0:0:0:0:
475,192,107415,1,0,0:0:0:0:
329,192,107415,1,0,0:0:0:0:
36,192,107669,1,0,0:0:0:0:
256,192,107669,1,0,0:0:0:0:
475,192,107754,1,0,0:0:0:0:
36,192,107924,1,0,0:0:0:0:
182,192,107924,1,0,0:0:0:0:
36,192,108093,1,0,0:0:0:0:
475,192,108093,1,0,0:0:0:0:
402,192,108093,1,0,0:0:0:0:
402,192,108263,1,0,0:0:0:0:
36,192,108432,1,0,0:0:0:0:
256,192,108432,1,0,0:0:0:0:
109,192,108517,1,0,0:0:0:0:
36,192,108602,1,0,0:0:0:0:
329,192,108602,1,0,0:0:0:0:
182,192,108687,1,0,0:0:0:0:
475,192,108771,1,0,0:0:0:0:
256,192,108771,1,0,0:0:0:0:
402,192,108941,1,0,0:0:0:0:
475,192,109110,1,0,0:0:0:0:
182,192,109110,1,0,0:0:0:0:
36,192,109280,1,0,0:0:0:0:
182,192,109280,1,0,0:0:0:0:
475,192,109449,1,0,0:0:0:0:
402,192,109449,1,0,0:0:0:0:
256,192,109449,1,0,0:0:0:0:
182,192,109449,1,0,0:0:0:0:
402,192,109619,1,0,0:0:0:0:
256,192,109619,1,0,0:0:0:0:
182,192,109619,1,0,0:0:0:0:
36,192,109788,1,0,0:0:0:0:
475,192,109788,1,0,0:0:0:0:
329,192,109788,1,0,0:0:0:0:
256,192,109873,1,0,0:0:0:0:
36,192,109958,1,0,0:0:0:0:
475,192,109958,1,0,0:0:0:0:
109,192,109958,1,0,0:0:0:0:
402,192,110127,1,0,0:0:0:0:
36,192,110127,1,0,0:0:0:0:
256,192,110127,1,0,0:0:0:0:
402,192,110297,1,0,0:0:0:0:
182,192,110297,1,0,0:0:0:0:
36,192,110636,1,0,0:0:0:0:
256,192,110636,1,0,0:0:0:0:
36,192,110805,1,0,0:0:0:0:
402,192,110805,1,0,0:0:0:0:
475,192,110975,1,0,0:0:0:0:
182,192,110975,1,0,0:0:0:0:
36,192,111144,1,0,0:0:0:0:
329,192,111144,1,0,0:0:0:0:
36,192,111314,1,0,0:0:0:0:
329,192,111314,1,0,0:0:0:0:
402,192,111314,1,0,0:0:0:0:
182,192,111314,1,0,0:0:0:0:
475,192,111653,1,0,0:0:0:0:
329,192,111653,1,0,0:0:0:0:
36,192,111653,1,0,0:0:0:0:
475,192,112162,1,0,0:0:0:0:
109,192,112162,1,0,0:0:0:0:
182,192,112275,1,0,0:0:0:0:
402,192,112275,1,0,0:0:0:0:
256,192,112388,1,0,0:0:0:0:
109,192,112388,1,0,0:0:0:0:
36,192,112501,1,0,0:0:0:0:
402,192,112501,1,0,0:0:0:0:
475,192,112840,1,0,0:0:0:0:
109,192,112840,1,0,0:0:0:0:
329,192,112840,1,0,0:0:0:0:
182,192,113009,1,0,0:0:0:0:
329,192,113009,1,0,0:0:0:0:
36,192,113009,1,0,0:0:0:0:
256,192,113094,1,0,0:0:0:0:
109,192,113179,1,0,0:0:0:0:
475,192,113179,1,0,0:0:0:0:
402,192,113348,1,0,0:0:0:0:
256,192,113348,1,0,0:0:0:0:
36,192,113348,1,0,0:0:0:0:
329,192,113433,1,0,0:0:0:0:
182,192,113433,1,0,0:0:0:0:
109,192,113518,1,0,0:0:0:0:
36,192,113518,1,0,0:0:0:0:
475,192,113518,1,0,0:0:0:0:
256,192,113518,1,0,0:0:0:0:
182,192,113687,1,0,0:0:0:0:
402,192,113687,1,0,0:0:0:0:
256,192,113772,1,0,0:0:0:0:
109,192,113857,1,0,0:0:0:0:
402,192,113857,1,0,0:0:0:0:
475,192,113857,1,0,0:0:0:0:
256,192,113941,1,0,0:0:0:0:
402,192,114026,1,0,0:0:0:0:
36,192,114026,1,0,0:0:0:0:
182,192,114026,1,0,0:0:0:0:
329,192,114111,1,0,0:0:0:0:
109,192,114196,1,0,0:0:0:0:
402,192,114196,1,0,0:0:0:0:
182,192,114365,1,0,0:0:0:0:
475,192,114365,1,0,0:0:0:0:
36,192,114365,1,0,0:0:0:0:
329,192,114450,1,0,0:0:0:0:
402,192,114450,1,0,0:0:0:0:
109,192,114535,1,0,0:0:0:0:
256,192,114535,1,0,0:0:0:0:
475,192,114535,1,0,0:0:0:0:
402,192,114704,1,0,0:0:0:0:
256,192,114704,1,0,0:0:0:0:
182,192,114789,1,0,0:0:0:0:
109,192,114874,1,0,0:0:0:0:
329,192,114874,1,0,0:0:0:0:
36,192,114874,1,0,0:0:0:0:
182,192,115043,1,0,0:0:0:0:
475,192,115043,1,0,0:0:0:0:
256,192,115043,1,0,0:0:0:0:
329,192,115128,1,0,0:0:0:0:
36,192,115128,1,0,0:0:0:0:
109,192,115213,1,0,0:0:0:0:
256,192,115213,1,0,0:0:0:0:
402,192,115213,1,0,0:0:0:0:
475,192,115213,1,0,0:0:0:0:
402,192,115382,1,0,0:0:0:0:
182,192,115382,1,0,0:0:0:0:
256,192,115467,1,0,0:0:0:0:
109,192,115552,1,0,0:0:0:0:
36,192,115552,1,0,0:0:0:0:
475,192,115552,1,0,0:0:0:0:
182,192,115721,1,0,0:0:0:0:
329,192,115721,1,0,0:0:0:0:
256,192,115806,1,0,0:0:0:0:
109,192,115891,1,0,0:0:0:0:
475,192,115891,1,0,0:0:0:0:
329,192,115976,1,0,0:0:0:0:
402,192,116060,1,0,0:0:0:0:
182,192,116060,1,0,0:0:0:0:
256,192,116145,1,0,0:0:0:0:
109,192,116230,1,0,0:0:0:0:
475,192,116230,1,0,0:0:0:0:
182,192,116399,1,0,0:0:0:0:
402,192,116399,1,0,0:0:0:0:
256,192,116484,1,0,0:0:0:0:
109,192,116569,1,0,0:0:0:0:
329,192,116569,1,0,0:0:0:0:
182,192,116654,1,0,0:0:0:0:
402,192,116738,1,0,0:0:0:0:
36,192,116738,1,0,0:0:0:0:
329,192,116738,1,0,0:0:0:0:
256,192,116823,1,0,0:0:0:0:
109,192,116908,1,0,0:0:0:0:
475,192,116908,1,0,0:0:0:0:
182,192,117077,1,0,0:0:0:0:
402,192,117077,1,0,0:0:0:0:
329,192,117162,1,0,0:0:0:0:
36,192,117162,1,0,0:0:0:0:
109,192,117247,1,0,0:0:0:0:
256,192,117247,1,0,0:0:0:0:
475,192,117247,1,0,0:0:0:0:
402,192,117416,1,0,0:0:0:0:
182,192,117416,1,0,0:0:0:0:
256,192,117501,1,0,0:0:0:0:
109,192,117586,1,0,0:0:0:0:
329,192,117586,1,0,0:0:0:0:
182,192,117755,1,0,0:0:0:0:
475,192,117755,1,0,0:0:0:0:
109,192,117925,1,0,0:0:0:0:
256,192,117925,1,0,0:0:0:0:
402,192,117925,1,0,0:0:0:0:
475,192,118010,1,0,0:0:0:0:
329,192,118010,1,0,0:0:0:0:
402,192,118094,1,0,0:0:0:0:
182,192,118094,1,0,0:0:0:0:
256,192,118179,1,0,0:0:0:0:
109,192,118264,1,0,0:0:0:0:
329,192,118264,1,0,0:0:0:0:
36,192,118264,1,0,0:0:0:0:
402,192,118264,1,0,0:0:0:0:
329,192,118433,1,0,0:0:0:0:
182,192,118433,1,0,0:0:0:0:
256,192,118518,1,0,0:0:0:0:
109,192,118603,1,0,0:0:0:0:
475,192,118603,1,0,0:0:0:0:
256,192,118772,1,0,0:0:0:0:
402,192,118772,1,0,0:0:0:0:
329,192,118857,1,0,0:0:0:0:
109,192,118942,1,0,0:0:0:0:
182,192,118942,1,0,0:0:0:0:
475,192,119027,1,0,0:0:0:0:
329,192,119111,1,0,0:0:0:0:
36,192,119111,1,0,0:0:0:0:
256,192,119111,1,0,0:0:0:0:
402,192,119196,1,0,0:0:0:0:
109,192,119281,1,0,0:0:0:0:
329,192,119281,1,0,0:0:0:0:
475,192,119366,1,0,0:0:0:0:
256,192,119450,1,0,0:0:0:0:
402,192,119450,1,0,0:0:0:0:
182,192,119535,1,0,0:0:0:0:
109,192,119620,1,0,0:0:0:0:
36,192,119620,1,0,0:0:0:0:
329,192,119620,1,0,0:0:0:0:
256,192,119705,1,0,0:0:0:0:
329,192,119790,1,0,0:0:0:0:
109,192,119790,1,0,0:0:0:0:
182,192,119874,1,0,0:0:0:0:
109,192,119959,1,0,0:0:0:0:
402,192,119959,1,0,0:0:0:0:
475,192,120044,1,0,0:0:0:0:
256,192,120129,1,0,0:0:0:0:
402,192,120129,1,0,0:0:0:0:
329,192,120213,1,0,0:0:0:0:
109,192,120298,1,0,0:0:0:0:
475,192,120298,1,0,0:0:0:0:
36,192,120298,1,0,0:0:0:0:
329,192,120468,1,0,0:0:0:0:
182,192,120468,1,0,0:0:0:0:
109,192,120637,1,0,0:0:0:0:
475,192,120637,1,0,0:0:0:0:
256,192,120637,1,0,0:0:0:0:
329,192,120722,1,0,0:0:0:0:
256,192,120807,1,0,0:0:0:0:
402,192,120807,1,0,0:0:0:0:
182,192,120891,1,0,0:0:0:0:
109,192,120976,1,0,0:0:0:0:
402,192,120976,1,0,0:0:0:0:
256,192,121061,1,0,0:0:0:0:
329,192,121146,1,0,0:0:0:0:
36,192,121146,1,0,0:0:0:0:
182,192,121146,1,0,0:0:0:0:
256,192,121230,1,0,0:0:0:0:
109,192,121315,1,0,0:0:0:0:
402,192,121315,1,0,0:0:0:0:
475,192,121315,1,0,0:0:0:0:
329,192,121400,1,0,0:0:0:0:
475,192,121485,1,0,0:0:0:0:
256,192,121485,1,0,0:0:0:0:
36,192,121485,1,0,0:0:0:0:
182,192,121569,1,0,0:0:0:0:
109,192,121654,1,0,0:0:0:0:
402,192,121654,1,0,0:0:0:0:
329,192,121654,1,0,0:0:0:0:
256,192,121739,1,0,0:0:0:0:
329,192,121824,1,0,0:0:0:0:
36,192,121824,1,0,0:0:0:0:
182,192,121824,1,0,0:0:0:0:
402,192,121908,1,0,0:0:0:0:
109,192,121993,1,0,0:0:0:0:
256,192,121993,1,0,0:0:0:0:
182,192,122078,1,0,0:0:0:0:
475,192,122163,1,0,0:0:0:0:
329,192,122163,1,0,0:0:0:0:
256,192,122247,1,0,0:0:0:0:
109,192,122332,1,0,0:0:0:0:
402,192,122332,1,0,0:0:0:0:
182,192,122417,1,0,0:0:0:0:
329,192,122502,1,0,0:0:0:0:
36,192,122502,1,0,0:0:0:0:
256,192,122586,1,0,0:0:0:0:
109,192,122671,1,0,0:0:0:0:
475,192,122671,1,0,0:0:0:0:
329,192,122756,1,0,0:0:0:0:
256,192,122841,1,0,0:0:0:0:
402,192,122841,1,0,0:0:0:0:
36,192,122925,1,0,0:0:0:0:
109,192,123010,1,0,0:0:0:0:
329,192,123010,1,0,0:0:0:0:
256,192,123236,1,0,0:0:0:0:
329,192,123236,1,0,0:0:0:0:
182,192,123462,1,0,0:0:0:0:
329,192,123462,1,0,0:0:0:0:
475,192,123688,1,0,0:0:0:0:
329,192,123688,1,0,0:0:0:0:
36,192,123688,1,0,0:0:0:0:
256,192,124027,1,0,0:0:0:0:
402,192,124027,1,0,0:0:0:0:
475,192,124197,1,0,0:0:0:0:
329,192,124197,1,0,0:0:0:0:
182,192,124366,1,0,0:0:0:0:
402,192,124366,1,0,0:0:0:0:
475,192,124705,1,0,0:0:0:0:
36,192,124705,1,0,0:0:0:0:
109,192,125044,1,0,0:0:0:0:
329,192,125044,1,0,0:0:0:0:
402,192,125383,1,0,0:0:0:0:
182,192,125383,1,0,0:0:0:0:
329,192,125553,1,0,0:0:0:0:
475,192,125722,1,0,0:0:0:0:
256,192,125722,1,0,0:0:0:0:
109,192,125722,1,0,0:0:0:0:
475,192,126061,1,0,0:0:0:0:
182,192,126061,1,0,0:0:0:0:
402,192,126061,1,0,0:0:0:0:
475,192,126400,1,0,0:0:0:0:
256,192,126400,1,0,0:0:0:0:
402,192,126400,1,0,0:0:0:0:
475,192,126739,1,0,0:0:0:0:
109,192,126739,1,0,0:0:0:0:
329,192,126739,1,0,0:0:0:0:
402,192,127417,1,0,0:0:0:0:
256,192,127417,1,0,0:0:0:0:
475,192,127587,1,0,0:0:0:0:
182,192,127757,1,0,0:0:0:0:
402,192,127926,1,0,0:0:0:0:
256,192,127926,1,0,0:0:0:0:
109,192,128096,1,0,0:0:0:0:
475,192,128265,1,0,0:0:0:0:
402,192,128435,1,0,0:0:0:0:
109,192,128435,1,0,0:0:0:0:
475,192,128604,1,0,0:0:0:0:
402,192,128774,1,0,0:0:0:0:
256,192,128774,1,0,0:0:0:0:
475,192,129113,1,0,0:0:0:0:
109,192,129113,1,0,0:0:0:0:
36,192,129282,1,0,0:0:0:0:
402,192,129452,1,0,0:0:0:0:
256,192,129452,1,0,0:0:0:0:
402,192,129791,1,0,0:0:0:0:
256,192,129791,1,0,0:0:0:0:
36,192,129791,1,0,0:0:0:0:
402,192,130130,1,0,0:0:0:0:
256,192,130130,1,0,0:0:0:0:
475,192,130130,1,0,0:0:0:0:
256,192,130469,1,0,0:0:0:0:
475,192,130469,1,0,0:0:0:0:
36,192,130469,128,0,131147:0:0:0:0:
402,192,130469,128,0,131147:0:0:0:0:
475,192,131147,1,0,0:0:0:0:
182,192,131147,1,0,0:0:0:0:
329,192,131486,1,0,0:0:0:0:
329,192,131655,1,0,0:0:0:0:
402,192,131825,1,0,0:0:0:0:
475,192,132164,1,0,0:0:0:0:
109,192,132164,1,0,0:0:0:0:
329,192,132503,1,0,0:0:0:0:
256,192,132503,1,0,0:0:0:0:
402,192,132842,1,0,0:0:0:0:
256,192,132842,1,0,0:0:0:0:
402,192,133011,1,0,0:0:0:0:
475,192,133181,1,0,0:0:0:0:
36,192,133520,1,0,0:0:0:0:
402,192,133689,1,0,0:0:0:0:
109,192,133859,1,0,0:0:0:0:
475,192,134198,1,0,0:0:0:0:
109,192,134198,1,0,0:0:0:0:
475,192,134537,1,0,0:0:0:0:
109,192,134537,1,0,0:0:0:0:
256,192,134537,1,0,0:0:0:0:
402,192,134876,1,0,0:0:0:0:
402,192,135045,1,0,0:0:0:0:
475,192,135215,1,0,0:0:0:0:
256,192,135215,1,0,0:0:0:0:
36,192,135215,1,0,0:0:0:0:
402,192,135554,1,0,0:0:0:0:
402,192,135724,1,0,0:0:0:0:
475,192,135893,1,0,0:0:0:0:
475,192,136317,1,0,0:0:0:0:
109,192,136317,1,0,0:0:0:0:
256,192,136317,1,0,0:0:0:0:
475,192,137419,1,0,0:0:0:0:
256,192,137419,1,0,0:0:0:0:
36,192,137419,1,0,0:0:0:0:
475,192,138944,1,0,0:0:0:0:
329,192,138944,1,0,0:0:0:0:
182,192,139001,1,0,0:0:0:0:
256,192,139057,1,0,0:0:0:0:
475,192,139114,1,0,0:0:0:0:
109,192,139114,1,0,0:0:0:0:
402,192,139453,1,0,0:0:0:0:
182,192,139453,1,0,0:0:0:0:
402,192,139622,1,0,0:0:0:0:
256,192,139622,1,0,0:0:0:0:
475,192,139792,1,0,0:0:0:0:
109,192,139792,1,0,0:0:0:0:
329,192,139792,1,0,0:0:0:0:
402,192,139961,128,0,141826:0:0:0:0:
182,192,139961,128,0,141317:0:0:0:0:
36,192,139961,128,0,140639:0:0:0:0:
329,192,141826,1,0,0:0:0:0:
36,192,142165,5,0,0:0:0:0:
329,192,142165,1,0,0:0:0:0:
256,192,142165,1,0,0:0:0:0:
475,192,142334,1,0,0:0:0:0:
109,192,142334,1,0,0:0:0:0:
256,192,142419,1,0,0:0:0:0:
36,192,142504,1,0,0:0:0:0:
182,192,142504,1,0,0:0:0:0:
402,192,142504,1,0,0:0:0:0:
402,192,142673,1,0,0:0:0:0:
256,192,142673,1,0,0:0:0:0:
109,192,142673,1,0,0:0:0:0:
182,192,142758,1,0,0:0:0:0:
36,192,142843,1,0,0:0:0:0:
329,192,142843,1,0,0:0:0:0:
182,192,142927,1,0,0:0:0:0:
475,192,143012,1,0,0:0:0:0:
329,192,143012,1,0,0:0:0:0:
109,192,143012,1,0,0:0:0:0:
256,192,143097,1,0,0:0:0:0:
36,192,143182,1,0,0:0:0:0:
402,192,143182,1,0,0:0:0:0:
402,192,143351,1,0,0:0:0:0:
182,192,143351,1,0,0:0:0:0:
329,192,143351,1,0,0:0:0:0:
256,192,143436,1,0,0:0:0:0:
36,192,143521,1,0,0:0:0:0:
109,192,143521,1,0,0:0:0:0:
329,192,143690,1,0,0:0:0:0:
182,192,143690,1,0,0:0:0:0:
475,192,143690,1,0,0:0:0:0:
256,192,143775,1,0,0:0:0:0:
36,192,143860,1,0,0:0:0:0:
329,192,143860,1,0,0:0:0:0:
256,192,143944,1,0,0:0:0:0:
402,192,144029,1,0,0:0:0:0:
182,192,144029,1,0,0:0:0:0:
109,192,144029,1,0,0:0:0:0:
475,192,144114,1,0,0:0:0:0:
36,192,144199,1,0,0:0:0:0:
256,192,144199,1,0,0:0:0:0:
329,192,144368,1,0,0:0:0:0:
109,192,144368,1,0,0:0:0:0:
402,192,144453,1,0,0:0:0:0:
36,192,144538,1,0,0:0:0:0:
256,192,144538,1,0,0:0:0:0:
475,192,144538,1,0,0:0:0:0:
402,192,144707,1,0,0:0:0:0:
329,192,144707,1,0,0:0:0:0:
256,192,144707,1,0,0:0:0:0:
182,192,144792,1,0,0:0:0:0:
109,192,144792,1,0,0:0:0:0:
36,192,144877,1,0,0:0:0:0:
475,192,144877,1,0,0:0:0:0:
256,192,144877,1,0,0:0:0:0:
402,192,144877,1,0,0:0:0:0:
182,192,144961,1,0,0:0:0:0:
329,192,145046,1,0,0:0:0:0:
109,192,145046,1,0,0:0:0:0:
182,192,145131,1,0,0:0:0:0:
36,192,145216,1,0,0:0:0:0:
256,192,145216,1,0,0:0:0:0:
402,192,145216,1,0,0:0:0:0:
475,192,145385,1,0,0:0:0:0:
182,192,145385,1,0,0:0:0:0:
329,192,145385,1,0,0:0:0:0:
256,192,145470,1,0,0:0:0:0:
36,192,145555,1,0,0:0:0:0:
402,192,145555,1,0,0:0:0:0:
329,192,145724,1,0,0:0:0:0:
109,192,145724,1,0,0:0:0:0:
256,192,145724,1,0,0:0:0:0:
182,192,145809,1,0,0:0:0:0:
36,192,145894,1,0,0:0:0:0:
402,192,145894,1,0,0:0:0:0:
329,192,145978,1,0,0:0:0:0:
475,192,146063,1,0,0:0:0:0:
402,192,146063,1,0,0:0:0:0:
256,192,146063,1,0,0:0:0:0:
182,192,146148,1,0,0:0:0:0:
329,192,146148,1,0,0:0:0:0:
36,192,146233,1,0,0:0:0:0:
256,192,146233,1,0,0:0:0:0:
109,192,146233,1,0,0:0:0:0:
475,192,146233,1,0,0:0:0:0:
402,192,146402,1,0,0:0:0:0:
182,192,146402,1,0,0:0:0:0:
329,192,146402,1,0,0:0:0:0:
36,192,146572,1,0,0:0:0:0:
182,192,146572,1,0,0:0:0:0:
402,192,146741,1,0,0:0:0:0:
109,192,146741,1,0,0:0:0:0:
329,192,146741,1,0,0:0:0:0:
36,192,146911,1,0,0:0:0:0:
256,192,146911,1,0,0:0:0:0:
182,192,146911,1,0,0:0:0:0:
475,192,146911,1,0,0:0:0:0:
402,192,147080,1,0,0:0:0:0:
329,192,147080,1,0,0:0:0:0:
36,192,147250,1,0,0:0:0:0:
475,192,147250,1,0,0:0:0:0:
182,192,147250,1,0,0:0:0:0:
329,192,147250,1,0,0:0:0:0:
36,192,147419,1,0,0:0:0:0:
402,192,147419,1,0,0:0:0:0:
475,192,147589,5,0,0:0:0:0:
329,192,147589,1,0,0:0:0:0:
109,192,147589,1,0,0:0:0:0:
109,192,147758,1,0,0:0:0:0:
256,192,147758,1,0,0:0:0:0:
182,192,147843,1,0,0:0:0:0:
475,192,147928,1,0,0:0:0:0:
329,192,147928,1,0,0:0:0:0:
109,192,148097,1,0,0:0:0:0:
256,192,148097,1,0,0:0:0:0:
182,192,148182,1,0,0:0:0:0:
475,192,148267,1,0,0:0:0:0:
329,192,148267,1,0,0:0:0:0:
36,192,148267,1,0,0:0:0:0:
182,192,148436,1,0,0:0:0:0:
402,192,148436,1,0,0:0:0:0:
109,192,148521,1,0,0:0:0:0:
475,192,148606,1,0,0:0:0:0:
256,192,148606,1,0,0:0:0:0:
329,192,148606,1,0,0:0:0:0:
475,192,148775,1,0,0:0:0:0:
109,192,148775,1,0,0:0:0:0:
402,192,148775,1,0,0:0:0:0:
329,192,148860,1,0,0:0:0:0:
475,192,148945,1,0,0:0:0:0:
182,192,148945,1,0,0:0:0:0:
36,192,148945,1,0,0:0:0:0:
256,192,148945,1,0,0:0:0:0:
402,192,148945,1,0,0:0:0:0:
109,192,149114,1,0,0:0:0:0:
329,192,149114,1,0,0:0:0:0:
256,192,149199,1,0,0:0:0:0:
475,192,149284,1,0,0:0:0:0:
36,192,149284,1,0,0:0:0:0:
402,192,149369,1,0,0:0:0:0:
182,192,149453,1,0,0:0:0:0:
256,192,149453,1,0,0:0:0:0:
109,192,149538,1,0,0:0:0:0:
475,192,149623,1,0,0:0:0:0:
329,192,149623,1,0,0:0:0:0:
182,192,149623,1,0,0:0:0:0:
109,192,149792,1,0,0:0:0:0:
329,192,149792,1,0,0:0:0:0:
256,192,149877,1,0,0:0:0:0:
475,192,149962,1,0,0:0:0:0:
402,192,149962,1,0,0:0:0:0:
182,192,149962,1,0,0:0:0:0:
36,192,150132,1,0,0:0:0:0:
182,192,150132,1,0,0:0:0:0:
329,192,150132,1,0,0:0:0:0:
402,192,150216,1,0,0:0:0:0:
475,192,150301,1,0,0:0:0:0:
329,192,150301,1,0,0:0:0:0:
256,192,150301,1,0,0:0:0:0:
109,192,150301,1,0,0:0:0:0:
109,192,150471,1,0,0:0:0:0:
402,192,150471,1,0,0:0:0:0:
256,192,150555,1,0,0:0:0:0:
475,192,150640,1,0,0:0:0:0:
182,192,150640,1,0,0:0:0:0:
329,192,150725,1,0,0:0:0:0:
36,192,150810,1,0,0:0:0:0:
402,192,150810,1,0,0:0:0:0:
256,192,150810,1,0,0:0:0:0:
109,192,150810,1,0,0:0:0:0:
182,192,150894,1,0,0:0:0:0:
475,192,150979,1,0,0:0:0:0:
329,192,150979,1,0,0:0:0:0:
256,192,151064,1,0,0:0:0:0:
109,192,151149,1,0,0:0:0:0:
402,192,151149,1,0,0:0:0:0:
329,192,151233,1,0,0:0:0:0:
475,192,151318,1,0,0:0:0:0:
182,192,151318,1,0,0:0:0:0:
36,192,151318,1,0,0:0:0:0:
256,192,151403,1,0,0:0:0:0:
36,192,151488,1,0,0:0:0:0:
402,192,151488,1,0,0:0:0:0:
182,192,151488,1,0,0:0:0:0:
329,192,151572,1,0,0:0:0:0:
475,192,151657,1,0,0:0:0:0:
256,192,151657,1,0,0:0:0:0:
402,192,151742,1,0,0:0:0:0:
36,192,151827,1,0,0:0:0:0:
109,192,151827,1,0,0:0:0:0:
182,192,151911,1,0,0:0:0:0:
475,192,151996,1,0,0:0:0:0:
256,192,151996,1,0,0:0:0:0:
329,192,151996,1,0,0:0:0:0:
109,192,152081,1,0,0:0:0:0:
36,192,152166,1,0,0:0:0:0:
402,192,152166,1,0,0:0:0:0:
329,192,152250,1,0,0:0:0:0:
475,192,152335,1,0,0:0:0:0:
256,192,152335,1,0,0:0:0:0:
182,192,152335,1,0,0:0:0:0:
402,192,152420,1,0,0:0:0:0:
36,192,152505,1,0,0:0:0:0:
109,192,152505,1,0,0:0:0:0:
256,192,152589,1,0,0:0:0:0:
475,192,152674,1,0,0:0:0:0:
329,192,152674,1,0,0:0:0:0:
182,192,152674,1,0,0:0:0:0:
256,192,152759,1,0,0:0:0:0:
36,192,152844,1,0,0:0:0:0:
402,192,152844,1,0,0:0:0:0:
329,192,152844,1,0,0:0:0:0:
256,192,152928,1,0,0:0:0:0:
402,192,153013,5,0,0:0:0:0:
182,192,153013,1,0,0:0:0:0:
109,192,153013,1,0,0:0:0:0:
36,192,153098,1,0,0:0:0:0:
256,192,153183,1,0,0:0:0:0:
475,192,153183,1,0,0:0:0:0:
109,192,153183,1,0,0:0:0:0:
329,192,153267,1,0,0:0:0:0:
402,192,153352,1,0,0:0:0:0:
36,192,153352,1,0,0:0:0:0:
182,192,153352,1,0,0:0:0:0:
329,192,153437,1,0,0:0:0:0:
256,192,153522,1,0,0:0:0:0:
109,192,153522,1,0,0:0:0:0:
475,192,153522,1,0,0:0:0:0:
329,192,153606,1,0,0:0:0:0:
36,192,153606,1,0,0:0:0:0:
402,192,153691,1,0,0:0:0:0:
182,192,153691,1,0,0:0:0:0:
475,192,153776,1,0,0:0:0:0:
182,192,153861,1,0,0:0:0:0:
329,192,153861,1,0,0:0:0:0:
36,192,153861,1,0,0:0:0:0:
256,192,153945,1,0,0:0:0:0:
402,192,154030,1,0,0:0:0:0:
109,192,154030,1,0,0:0:0:0:
329,192,154115,1,0,0:0:0:0:
182,192,154200,1,0,0:0:0:0:
475,192,154200,1,0,0:0:0:0:
36,192,154200,1,0,0:0:0:0:
256,192,154285,1,0,0:0:0:0:
402,192,154369,1,0,0:0:0:0:
109,192,154369,1,0,0:0:0:0:
256,192,154539,1,0,0:0:0:0:
109,192,154539,1,0,0:0:0:0:
475,192,154539,1,0,0:0:0:0:
329,192,154624,1,0,0:0:0:0:
402,192,154708,1,0,0:0:0:0:
182,192,154708,1,0,0:0:0:0:
475,192,154793,1,0,0:0:0:0:
256,192,154878,1,0,0:0:0:0:
36,192,154878,1,0,0:0:0:0:
109,192,154878,1,0,0:0:0:0:
402,192,154878,1,0,0:0:0:0:
329,192,154963,1,0,0:0:0:0:
182,192,154963,1,0,0:0:0:0:
402,192,155047,1,0,0:0:0:0:
256,192,155047,1,0,0:0:0:0:
109,192,155047,1,0,0:0:0:0:
36,192,155132,1,0,0:0:0:0:
182,192,155217,1,0,0:0:0:0:
475,192,155217,1,0,0:0:0:0:
329,192,155217,1,0,0:0:0:0:
109,192,155217,1,0,0:0:0:0:
402,192,155386,1,0,0:0:0:0:
109,192,155386,1,0,0:0:0:0:
36,192,155386,1,0,0:0:0:0:
256,192,155386,1,0,0:0:0:0:
329,192,155471,1,0,0:0:0:0:
182,192,155556,1,0,0:0:0:0:
475,192,155556,1,0,0:0:0:0:
109,192,155556,1,0,0:0:0:0:
256,192,155641,1,0,0:0:0:0:
402,192,155725,1,0,0:0:0:0:
36,192,155725,1,0,0:0:0:0:
329,192,155725,1,0,0:0:0:0:
109,192,155725,1,0,0:0:0:0:
256,192,155895,1,0,0:0:0:0:
475,192,155895,1,0,0:0:0:0:
329,192,155980,1,0,0:0:0:0:
402,192,156064,1,0,0:0:0:0:
182,192,156064,1,0,0:0:0:0:
36,192,156064,1,0,0:0:0:0:
256,192,156234,1,0,0:0:0:0:
329,192,156234,1,0,0:0:0:0:
109,192,156234,1,0,0:0:0:0:
182,192,156319,1,0,0:0:0:0:
402,192,156403,1,0,0:0:0:0:
256,192,156403,1,0,0:0:0:0:
329,192,156573,1,0,0:0:0:0:
109,192,156573,1,0,0:0:0:0:
182,192,156573,1,0,0:0:0:0:
36,192,156658,1,0,0:0:0:0:
402,192,156742,1,0,0:0:0:0:
182,192,156742,1,0,0:0:0:0:
36,192,156827,1,0,0:0:0:0:
329,192,156912,1,0,0:0:0:0:
182,192,156912,1,0,0:0:0:0:
475,192,156912,1,0,0:0:0:0:
109,192,156997,1,0,0:0:0:0:
402,192,157081,1,0,0:0:0:0:
36,192,157081,1,0,0:0:0:0:
182,192,157081,1,0,0:0:0:0:
256,192,157251,1,0,0:0:0:0:
109,192,157251,1,0,0:0:0:0:
475,192,157251,1,0,0:0:0:0:
329,192,157336,1,0,0:0:0:0:
402,192,157420,1,0,0:0:0:0:
182,192,157420,1,0,0:0:0:0:
36,192,157505,1,0,0:0:0:0:
256,192,157590,1,0,0:0:0:0:
475,192,157590,1,0,0:0:0:0:
329,192,157675,1,0,0:0:0:0:
402,192,157759,1,0,0:0:0:0:
109,192,157759,1,0,0:0:0:0:
256,192,157759,1,0,0:0:0:0:
182,192,157929,1,0,0:0:0:0:
329,192,157929,1,0,0:0:0:0:
36,192,158014,1,0,0:0:0:0:
475,192,158014,1,0,0:0:0:0:
402,192,158099,1,0,0:0:0:0:
109,192,158099,1,0,0:0:0:0:
256,192,158099,1,0,0:0:0:0:
475,192,158183,1,0,0:0:0:0:
402,192,158268,1,0,0:0:0:0:
36,192,158268,1,0,0:0:0:0:
329,192,158268,1,0,0:0:0:0:
109,192,158353,1,0,0:0:0:0:
402,192,158438,1,0,0:0:0:0:
182,192,158438,1,0,0:0:0:0:
256,192,158438,1,0,0:0:0:0:
36,192,158438,1,0,0:0:0:0:
475,192,158607,1,0,0:0:0:0:
329,192,158607,1,0,0:0:0:0:
36,192,158607,1,0,0:0:0:0:
256,192,158692,1,0,0:0:0:0:
109,192,158777,1,0,0:0:0:0:
402,192,158777,1,0,0:0:0:0:
329,192,158946,1,0,0:0:0:0:
182,192,158946,1,0,0:0:0:0:
402,192,159031,1,0,0:0:0:0:
109,192,159116,1,0,0:0:0:0:
256,192,159116,1,0,0:0:0:0:
475,192,159116,1,0,0:0:0:0:
329,192,159200,1,0,0:0:0:0:
475,192,159285,1,0,0:0:0:0:
182,192,159285,1,0,0:0:0:0:
402,192,159285,1,0,0:0:0:0:
256,192,159370,1,0,0:0:0:0:
109,192,159455,1,0,0:0:0:0:
329,192,159455,1,0,0:0:0:0:
36,192,159455,1,0,0:0:0:0:
475,192,159455,1,0,0:0:0:0:
402,192,159539,1,0,0:0:0:0:
109,192,159624,1,0,0:0:0:0:
475,192,159624,1,0,0:0:0:0:
256,192,159624,1,0,0:0:0:0:
36,192,159709,1,0,0:0:0:0:
109,192,159794,1,0,0:0:0:0:
402,192,159794,1,0,0:0:0:0:
329,192,159794,1,0,0:0:0:0:
182,192,159794,1,0,0:0:0:0:
475,192,159794,1,0,0:0:0:0:
36,192,159963,1,0,0:0:0:0:
256,192,159963,1,0,0:0:0:0:
182,192,160048,1,0,0:0:0:0:
475,192,160048,1,0,0:0:0:0:
402,192,160133,1,0,0:0:0:0:
329,192,160133,1,0,0:0:0:0:
182,192,160302,1,0,0:0:0:0:
36,192,160302,1,0,0:0:0:0:
475,192,160302,1,0,0:0:0:0:
109,192,160387,1,0,0:0:0:0:
402,192,160472,1,0,0:0:0:0:
256,192,160472,1,0,0:0:0:0:
475,192,160472,1,0,0:0:0:0:
329,192,160556,1,0,0:0:0:0:
36,192,160641,1,0,0:0:0:0:
109,192,160641,1,0,0:0:0:0:
256,192,160641,1,0,0:0:0:0:
475,192,160726,1,0,0:0:0:0:
402,192,160811,1,0,0:0:0:0:
182,192,160811,1,0,0:0:0:0:
329,192,160811,1,0,0:0:0:0:
402,192,160980,1,0,0:0:0:0:
36,192,160980,1,0,0:0:0:0:
256,192,160980,1,0,0:0:0:0:
109,192,161150,1,0,0:0:0:0:
402,192,161150,1,0,0:0:0:0:
182,192,161150,1,0,0:0:0:0:
475,192,161150,1,0,0:0:0:0:
256,192,161150,1,0,0:0:0:0:
329,192,161319,1,0,0:0:0:0:
256,192,161319,1,0,0:0:0:0:
402,192,161319,1,0,0:0:0:0:
109,192,161489,1,0,0:0:0:0:
256,192,161489,1,0,0:0:0:0:
402,192,161489,1,0,0:0:0:0:
402,192,161658,1,0,0:0:0:0:
182,192,161658,1,0,0:0:0:0:
256,192,161658,1,0,0:0:0:0:
109,192,161828,1,0,0:0:0:0:
475,192,161828,1,0,0:0:0:0:
182,192,161828,1,0,0:0:0:0:
329,192,161997,1,0,0:0:0:0:
256,192,161997,1,0,0:0:0:0:
182,192,161997,1,0,0:0:0:0:
109,192,162167,1,0,0:0:0:0:
256,192,162167,1,0,0:0:0:0:
36,192,162167,1,0,0:0:0:0:
402,192,162336,1,0,0:0:0:0:
182,192,162336,1,0,0:0:0:0:
256,192,162336,1,0,0:0:0:0:
36,192,162336,1,0,0:0:0:0:
329,192,162421,1,0,0:0:0:0:
109,192,162506,1,0,0:0:0:0:
256,192,162506,1,0,0:0:0:0:
36,192,162506,1,0,0:0:0:0:
182,192,162591,1,0,0:0:0:0:
402,192,162675,1,0,0:0:0:0:
329,192,162675,1,0,0:0:0:0:
36,192,162675,1,0,0:0:0:0:
475,192,162675,1,0,0:0:0:0:
182,192,162760,1,0,0:0:0:0:
109,192,162845,1,0,0:0:0:0:
256,192,162845,1,0,0:0:0:0:
329,192,162930,1,0,0:0:0:0:
402,192,163014,1,0,0:0:0:0:
182,192,163014,1,0,0:0:0:0:
256,192,163014,1,0,0:0:0:0:
329,192,163099,1,0,0:0:0:0:
109,192,163184,1,0,0:0:0:0:
475,192,163184,1,0,0:0:0:0:
256,192,163184,1,0,0:0:0:0:
402,192,163269,1,0,0:0:0:0:
182,192,163269,1,0,0:0:0:0:
109,192,163353,1,0,0:0:0:0:
329,192,163353,1,0,0:0:0:0:
36,192,163353,1,0,0:0:0:0:
402,192,163438,1,0,0:0:0:0:
182,192,163438,1,0,0:0:0:0:
256,192,163523,1,0,0:0:0:0:
109,192,163524,1,0,0:0:0:0:
402,192,163608,1,0,0:0:0:0:
109,192,163692,1,0,0:0:0:0:
182,192,163692,1,0,0:0:0:0:
36,192,163692,1,0,0:0:0:0:
402,192,163777,1,0,0:0:0:0:
256,192,163777,1,0,0:0:0:0:
109,192,163862,1,0,0:0:0:0:
329,192,163862,1,0,0:0:0:0:
475,192,163862,1,0,0:0:0:0:
256,192,165218,1,0,0:0:0:0:
36,192,165218,1,0,0:0:0:0:
475,192,165218,1,0,0:0:0:0:
475,192,165387,1,0,0:0:0:0:
256,192,165472,1,0,0:0:0:0:
256,192,165726,1,0,0:0:0:0:
109,192,165896,1,0,0:0:0:0:
402,192,166066,1,0,0:0:0:0:
256,192,166574,1,0,0:0:0:0:
402,192,166574,1,0,0:0:0:0:
109,192,166574,1,0,0:0:0:0:
256,192,166744,1,0,0:0:0:0:
182,192,168947,1,0,0:0:0:0:
256,192,169286,1,0,0:0:0:0:
256,192,169456,1,0,0:0:0:0:
329,192,170642,1,0,0:0:0:0:
475,192,170812,1,0,0:0:0:0:
329,192,170897,1,0,0:0:0:0:
402,192,171151,1,0,0:0:0:0:
109,192,171320,1,0,0:0:0:0:
109,192,171490,1,0,0:0:0:0:
256,192,171659,1,0,0:0:0:0:
475,192,171659,1,0,0:0:0:0:
109,192,171659,1,0,0:0:0:0:
182,192,171998,5,0,0:0:0:0:
329,192,171998,1,0,0:0:0:0:
36,192,171998,1,0,0:0:0:0:
475,192,172168,1,0,0:0:0:0:
182,192,172337,1,0,0:0:0:0:
109,192,172337,1,0,0:0:0:0:
402,192,172507,1,0,0:0:0:0:
109,192,172507,1,0,0:0:0:0:
36,192,172592,1,0,0:0:0:0:
182,192,172676,1,0,0:0:0:0:
256,192,172676,1,0,0:0:0:0:
109,192,172676,1,0,0:0:0:0:
475,192,172846,1,0,0:0:0:0:
182,192,173015,1,0,0:0:0:0:
329,192,173015,1,0,0:0:0:0:
36,192,173015,1,0,0:0:0:0:
402,192,173185,1,0,0:0:0:0:
109,192,173185,1,0,0:0:0:0:
182,192,173354,1,0,0:0:0:0:
329,192,173354,1,0,0:0:0:0:
36,192,173354,1,0,0:0:0:0:
109,192,173693,1,0,0:0:0:0:
329,192,173693,1,0,0:0:0:0:
182,192,173693,1,0,0:0:0:0:
475,192,173863,1,0,0:0:0:0:
256,192,173863,1,0,0:0:0:0:
182,192,173948,1,0,0:0:0:0:
109,192,174033,1,0,0:0:0:0:
256,192,174033,1,0,0:0:0:0:
182,192,174117,1,0,0:0:0:0:
402,192,174202,1,0,0:0:0:0:
109,192,174202,1,0,0:0:0:0:
36,192,174287,1,0,0:0:0:0:
256,192,174371,1,0,0:0:0:0:
109,192,174372,1,0,0:0:0:0:
182,192,174372,1,0,0:0:0:0:
475,192,174541,1,0,0:0:0:0:
182,192,174541,1,0,0:0:0:0:
329,192,174710,1,0,0:0:0:0:
109,192,174711,1,0,0:0:0:0:
256,192,174711,1,0,0:0:0:0:
402,192,174880,1,0,0:0:0:0:
182,192,174880,1,0,0:0:0:0:
329,192,175049,1,0,0:0:0:0:
109,192,175050,1,0,0:0:0:0:
402,192,175219,1,0,0:0:0:0:
256,192,175219,1,0,0:0:0:0:
109,192,175389,1,0,0:0:0:0:
475,192,175389,1,0,0:0:0:0:
256,192,175389,1,0,0:0:0:0:
36,192,175558,1,0,0:0:0:0:
182,192,175728,1,0,0:0:0:0:
329,192,175728,1,0,0:0:0:0:
256,192,175728,1,0,0:0:0:0:
475,192,175898,1,0,0:0:0:0:
182,192,176067,1,0,0:0:0:0:
109,192,176067,1,0,0:0:0:0:
36,192,176151,1,0,0:0:0:0:
109,192,176236,1,0,0:0:0:0:
402,192,176237,1,0,0:0:0:0:
36,192,176321,1,0,0:0:0:0:
182,192,176406,1,0,0:0:0:0:
256,192,176406,1,0,0:0:0:0:
475,192,176406,1,0,0:0:0:0:
109,192,176575,1,0,0:0:0:0:
475,192,176576,1,0,0:0:0:0:
182,192,176745,1,0,0:0:0:0:
329,192,176745,1,0,0:0:0:0:
36,192,176745,1,0,0:0:0:0:
256,192,176914,1,0,0:0:0:0:
402,192,176915,1,0,0:0:0:0:
182,192,177084,1,0,0:0:0:0:
329,192,177084,1,0,0:0:0:0:
256,192,177084,1,0,0:0:0:0:
329,192,177423,5,0,0:0:0:0:
182,192,177423,1,0,0:0:0:0:
256,192,177423,1,0,0:0:0:0:
256,192,177592,1,0,0:0:0:0:
36,192,177593,1,0,0:0:0:0:
329,192,177762,1,0,0:0:0:0:
475,192,177762,1,0,0:0:0:0:
402,192,177846,1,0,0:0:0:0:
475,192,177931,1,0,0:0:0:0:
109,192,177932,1,0,0:0:0:0:
402,192,178016,1,0,0:0:0:0:
329,192,178101,1,0,0:0:0:0:
256,192,178101,1,0,0:0:0:0:
182,192,178101,1,0,0:0:0:0:
402,192,178270,1,0,0:0:0:0:
36,192,178271,1,0,0:0:0:0:
329,192,178440,1,0,0:0:0:0:
182,192,178440,1,0,0:0:0:0:
475,192,178440,1,0,0:0:0:0:
402,192,178609,1,0,0:0:0:0:
109,192,178610,1,0,0:0:0:0:
329,192,178779,1,0,0:0:0:0:
182,192,178779,1,0,0:0:0:0:
475,192,178779,1,0,0:0:0:0:
109,192,178948,1,0,0:0:0:0:
329,192,179118,1,0,0:0:0:0:
36,192,179118,1,0,0:0:0:0:
256,192,179118,1,0,0:0:0:0:
475,192,179118,1,0,0:0:0:0:
109,192,179203,1,0,0:0:0:0:
402,192,179203,1,0,0:0:0:0:
182,192,179287,1,0,0:0:0:0:
109,192,179372,1,0,0:0:0:0:
402,192,179457,1,0,0:0:0:0:
182,192,179457,1,0,0:0:0:0:
256,192,179457,1,0,0:0:0:0:
475,192,179457,1,0,0:0:0:0:
36,192,179627,1,0,0:0:0:0:
402,192,179796,1,0,0:0:0:0:
256,192,179796,1,0,0:0:0:0:
475,192,179965,1,0,0:0:0:0:
109,192,179966,1,0,0:0:0:0:
402,192,180135,1,0,0:0:0:0:
256,192,180135,1,0,0:0:0:0:
182,192,180135,1,0,0:0:0:0:
36,192,180305,1,0,0:0:0:0:
402,192,180474,1,0,0:0:0:0:
182,192,180474,1,0,0:0:0:0:
329,192,180474,1,0,0:0:0:0:
475,192,180643,1,0,0:0:0:0:
109,192,180644,1,0,0:0:0:0:
402,192,180813,1,0,0:0:0:0:
182,192,180813,1,0,0:0:0:0:
475,192,180813,1,0,0:0:0:0:
329,192,181152,1,0,0:0:0:0:
182,192,181152,1,0,0:0:0:0:
256,192,181152,1,0,0:0:0:0:
256,192,181321,1,0,0:0:0:0:
36,192,181322,1,0,0:0:0:0:
329,192,181491,1,0,0:0:0:0:
402,192,181491,1,0,0:0:0:0:
475,192,181576,1,0,0:0:0:0:
402,192,181660,1,0,0:0:0:0:
109,192,181661,1,0,0:0:0:0:
475,192,181745,1,0,0:0:0:0:
329,192,181830,1,0,0:0:0:0:
256,192,181830,1,0,0:0:0:0:
36,192,181830,1,0,0:0:0:0:
36,192,182000,1,0,0:0:0:0:
402,192,182000,1,0,0:0:0:0:
329,192,182169,1,0,0:0:0:0:
182,192,182169,1,0,0:0:0:0:
475,192,182169,1,0,0:0:0:0:
109,192,182339,1,0,0:0:0:0:
402,192,182339,1,0,0:0:0:0:
329,192,182508,1,0,0:0:0:0:
182,192,182508,1,0,0:0:0:0:
475,192,182508,1,0,0:0:0:0:
109,192,182678,1,0,0:0:0:0:
402,192,182678,1,0,0:0:0:0:
329,192,182847,1,0,0:0:0:0:
36,192,182847,1,0,0:0:0:0:
475,192,182847,1,0,0:0:0:0:
109,192,182932,1,0,0:0:0:0:
402,192,182932,1,0,0:0:0:0:
182,192,183017,1,0,0:0:0:0:
109,192,183101,1,0,0:0:0:0:
402,192,183186,1,0,0:0:0:0:
182,192,183186,1,0,0:0:0:0:
36,192,183356,1,0,0:0:0:0:
402,192,183525,1,0,0:0:0:0:
329,192,183525,1,0,0:0:0:0:
256,192,183610,1,0,0:0:0:0:
109,192,183695,1,0,0:0:0:0:
329,192,183695,1,0,0:0:0:0:
475,192,183779,1,0,0:0:0:0:
402,192,183864,1,0,0:0:0:0:
256,192,183864,1,0,0:0:0:0:
182,192,183864,1,0,0:0:0:0:
36,192,184034,1,0,0:0:0:0:
402,192,184203,1,0,0:0:0:0:
182,192,184203,1,0,0:0:0:0:
109,192,184373,1,0,0:0:0:0:
402,192,184542,1,0,0:0:0:0:
182,192,184542,1,0,0:0:0:0:
182,192,184712,1,0,0:0:0:0:
402,192,184796,1,0,0:0:0:0:
256,192,184796,1,0,0:0:0:0:
36,192,184796,1,0,0:0:0:0:
182,192,185051,1,0,0:0:0:0:
256,192,185051,1,0,0:0:0:0:
36,192,185051,1,0,0:0:0:0:
402,192,185220,1,0,0:0:0:0:
36,192,185220,1,0,0:0:0:0:
329,192,185305,1,0,0:0:0:0:
402,192,185390,1,0,0:0:0:0:
329,192,185474,1,0,0:0:0:0:
182,192,185559,1,0,0:0:0:0:
256,192,185616,1,0,0:0:0:0:
402,192,185672,1,0,0:0:0:0:
475,192,185729,1,0,0:0:0:0:
329,192,185785,1,0,0:0:0:0:
256,192,185842,1,0,0:0:0:0:
36,192,185898,5,0,0:0:0:0:
182,192,185898,1,0,0:0:0:0:
402,192,185898,1,0,0:0:0:0:
109,192,186067,1,0,0:0:0:0:
329,192,186067,1,0,0:0:0:0:
256,192,186152,1,0,0:0:0:0:
36,192,186237,1,0,0:0:0:0:
182,192,186237,1,0,0:0:0:0:
475,192,186237,1,0,0:0:0:0:
329,192,186321,1,0,0:0:0:0:
402,192,186406,1,0,0:0:0:0:
256,192,186406,1,0,0:0:0:0:
475,192,186406,1,0,0:0:0:0:
109,192,186491,1,0,0:0:0:0:
329,192,186491,1,0,0:0:0:0:
36,192,186576,1,0,0:0:0:0:
182,192,186576,1,0,0:0:0:0:
402,192,186576,1,0,0:0:0:0:
329,192,186660,1,0,0:0:0:0:
256,192,186660,1,0,0:0:0:0:
109,192,186745,1,0,0:0:0:0:
475,192,186745,1,0,0:0:0:0:
402,192,186830,1,0,0:0:0:0:
182,192,186830,1,0,0:0:0:0:
36,192,186915,1,0,0:0:0:0:
256,192,186915,1,0,0:0:0:0:
182,192,186999,1,0,0:0:0:0:
402,192,187084,1,0,0:0:0:0:
109,192,187084,1,0,0:0:0:0:
256,192,187169,1,0,0:0:0:0:
36,192,187254,1,0,0:0:0:0:
329,192,187254,1,0,0:0:0:0:
475,192,187338,1,0,0:0:0:0:
182,192,187423,1,0,0:0:0:0:
402,192,187423,1,0,0:0:0:0:
256,192,187508,1,0,0:0:0:0:
36,192,187593,1,0,0:0:0:0:
109,192,187593,1,0,0:0:0:0:
182,192,187677,1,0,0:0:0:0:
402,192,187762,1,0,0:0:0:0:
256,192,187762,1,0,0:0:0:0:
475,192,187847,1,0,0:0:0:0:
36,192,187932,1,0,0:0:0:0:
329,192,187932,1,0,0:0:0:0:
109,192,188016,1,0,0:0:0:0:
182,192,188101,1,0,0:0:0:0:
402,192,188101,1,0,0:0:0:0:
256,192,188186,1,0,0:0:0:0:
36,192,188271,1,0,0:0:0:0:
109,192,188271,1,0,0:0:0:0:
475,192,188271,1,0,0:0:0:0:
329,192,188355,1,0,0:0:0:0:
256,192,188355,1,0,0:0:0:0:
402,192,188440,1,0,0:0:0:0:
182,192,188440,1,0,0:0:0:0:
109,192,188440,1,0,0:0:0:0:
329,192,188525,1,0,0:0:0:0:
256,192,188525,1,0,0:0:0:0:
36,192,188610,1,0,0:0:0:0:
475,192,188610,1,0,0:0:0:0:
402,192,188610,1,0,0:0:0:0:
182,192,188694,1,0,0:0:0:0:
329,192,188694,1,0,0:0:0:0:
256,192,188779,1,0,0:0:0:0:
109,192,188779,1,0,0:0:0:0:
402,192,188864,1,0,0:0:0:0:
36,192,188949,1,0,0:0:0:0:
329,192,188949,1,0,0:0:0:0:
182,192,189033,1,0,0:0:0:0:
256,192,189033,1,0,0:0:0:0:
402,192,189118,1,0,0:0:0:0:
109,192,189118,1,0,0:0:0:0:
256,192,189203,1,0,0:0:0:0:
329,192,189203,1,0,0:0:0:0:
36,192,189288,1,0,0:0:0:0:
475,192,189288,1,0,0:0:0:0:
182,192,189288,1,0,0:0:0:0:
402,192,189372,1,0,0:0:0:0:
329,192,189372,1,0,0:0:0:0:
256,192,189457,1,0,0:0:0:0:
109,192,189457,1,0,0:0:0:0:
329,192,189542,1,0,0:0:0:0:
36,192,189627,1,0,0:0:0:0:
182,192,189627,1,0,0:0:0:0:
475,192,189627,1,0,0:0:0:0:
256,192,189711,1,0,0:0:0:0:
402,192,189796,1,0,0:0:0:0:
109,192,189796,1,0,0:0:0:0:
182,192,189881,1,0,0:0:0:0:
36,192,189966,1,0,0:0:0:0:
329,192,189966,1,0,0:0:0:0:
475,192,190051,1,0,0:0:0:0:
256,192,190135,1,0,0:0:0:0:
402,192,190135,1,0,0:0:0:0:
329,192,190220,1,0,0:0:0:0:
36,192,190305,1,0,0:0:0:0:
182,192,190305,1,0,0:0:0:0:
475,192,190305,1,0,0:0:0:0:
256,192,190390,1,0,0:0:0:0:
402,192,190474,1,0,0:0:0:0:
109,192,190474,1,0,0:0:0:0:
182,192,190559,1,0,0:0:0:0:
329,192,190559,1,0,0:0:0:0:
36,192,190644,1,0,0:0:0:0:
475,192,190644,1,0,0:0:0:0:
256,192,190644,1,0,0:0:0:0:
329,192,190729,1,0,0:0:0:0:
182,192,190729,1,0,0:0:0:0:
475,192,190813,1,0,0:0:0:0:
109,192,190813,1,0,0:0:0:0:
402,192,190813,1,0,0:0:0:0:
256,192,190898,1,0,0:0:0:0:
36,192,190983,1,0,0:0:0:0:
182,192,190983,1,0,0:0:0:0:
402,192,190983,1,0,0:0:0:0:
329,192,191068,1,0,0:0:0:0:
402,192,191152,1,0,0:0:0:0:
109,192,191152,1,0,0:0:0:0:
182,192,191237,1,0,0:0:0:0:
329,192,191237,1,0,0:0:0:0:
475,192,191322,5,0,0:0:0:0:
36,192,191322,1,0,0:0:0:0:
256,192,191322,1,0,0:0:0:0:
402,192,191322,1,0,0:0:0:0:
182,192,191407,1,0,0:0:0:0:
329,192,191491,1,0,0:0:0:0:
109,192,191491,1,0,0:0:0:0:
256,192,191576,1,0,0:0:0:0:
182,192,191576,1,0,0:0:0:0:
475,192,191661,1,0,0:0:0:0:
36,192,191661,1,0,0:0:0:0:
329,192,191746,1,0,0:0:0:0:
182,192,191830,1,0,0:0:0:0:
402,192,191830,1,0,0:0:0:0:
256,192,191915,1,0,0:0:0:0:
329,192,191915,1,0,0:0:0:0:
475,192,192000,1,0,0:0:0:0:
36,192,192000,1,0,0:0:0:0:
182,192,192085,1,0,0:0:0:0:
109,192,192169,1,0,0:0:0:0:
402,192,192169,1,0,0:0:0:0:
256,192,192254,1,0,0:0:0:0:
475,192,192339,1,0,0:0:0:0:
329,192,192339,1,0,0:0:0:0:
182,192,192339,1,0,0:0:0:0:
256,192,192424,1,0,0:0:0:0:
36,192,192508,1,0,0:0:0:0:
402,192,192508,1,0,0:0:0:0:
109,192,192593,1,0,0:0:0:0:
475,192,192678,1,0,0:0:0:0:
256,192,192678,1,0,0:0:0:0:
402,192,192763,1,0,0:0:0:0:
109,192,192847,1,0,0:0:0:0:
329,192,192847,1,0,0:0:0:0:
182,192,192932,1,0,0:0:0:0:
475,192,193017,1,0,0:0:0:0:
402,192,193017,1,0,0:0:0:0:
329,192,193102,1,0,0:0:0:0:
182,192,193186,1,0,0:0:0:0:
36,192,193186,1,0,0:0:0:0:
256,192,193271,1,0,0:0:0:0:
402,192,193271,1,0,0:0:0:0:
475,192,193356,1,0,0:0:0:0:
109,192,193356,1,0,0:0:0:0:
182,192,193441,1,0,0:0:0:0:
329,192,193525,1,0,0:0:0:0:
36,192,193525,1,0,0:0:0:0:
109,192,193610,1,0,0:0:0:0:
475,192,193695,1,0,0:0:0:0:
329,192,193695,1,0,0:0:0:0:
256,192,193695,1,0,0:0:0:0:
182,192,193780,1,0,0:0:0:0:
402,192,193865,1,0,0:0:0:0:
36,192,193865,1,0,0:0:0:0:
256,192,193949,1,0,0:0:0:0:
475,192,194034,1,0,0:0:0:0:
109,192,194034,1,0,0:0:0:0:
329,192,194034,1,0,0:0:0:0:
36,192,194034,1,0,0:0:0:0:
182,192,194119,1,0,0:0:0:0:
402,192,194204,1,0,0:0:0:0:
256,192,194204,1,0,0:0:0:0:
329,192,194204,1,0,0:0:0:0:
109,192,194288,1,0,0:0:0:0:
182,192,194288,1,0,0:0:0:0:
475,192,194373,1,0,0:0:0:0:
329,192,194373,1,0,0:0:0:0:
36,192,194373,1,0,0:0:0:0:
182,192,194458,1,0,0:0:0:0:
256,192,194458,1,0,0:0:0:0:
402,192,194543,1,0,0:0:0:0:
36,192,194543,1,0,0:0:0:0:
329,192,194543,1,0,0:0:0:0:
256,192,194627,1,0,0:0:0:0:
475,192,194712,1,0,0:0:0:0:
109,192,194712,1,0,0:0:0:0:
182,192,194797,1,0,0:0:0:0:
402,192,194882,1,0,0:0:0:0:
329,192,194882,1,0,0:0:0:0:
36,192,194966,1,0,0:0:0:0:
475,192,195051,1,0,0:0:0:0:
109,192,195051,1,0,0:0:0:0:
256,192,195051,1,0,0:0:0:0:
182,192,195136,1,0,0:0:0:0:
329,192,195221,1,0,0:0:0:0:
36,192,195221,1,0,0:0:0:0:
402,192,195305,1,0,0:0:0:0:
475,192,195390,1,0,0:0:0:0:
182,192,195390,1,0,0:0:0:0:
256,192,195390,1,0,0:0:0:0:
109,192,195390,1,0,0:0:0:0:
329,192,195390,1,0,0:0:0:0:
36,192,195475,1,0,0:0:0:0:
329,192,195560,1,0,0:0:0:0:
182,192,195560,1,0,0:0:0:0:
109,192,195644,1,0,0:0:0:0:
475,192,195729,1,0,0:0:0:0:
256,192,195729,1,0,0:0:0:0:
402,192,195814,1,0,0:0:0:0:
182,192,195899,1,0,0:0:0:0:
329,192,195899,1,0,0:0:0:0:
109,192,195983,1,0,0:0:0:0:
475,192,196068,1,0,0:0:0:0:
36,192,196068,1,0,0:0:0:0:
329,192,196153,1,0,0:0:0:0:
182,192,196238,1,0,0:0:0:0:
402,192,196238,1,0,0:0:0:0:
256,192,196322,1,0,0:0:0:0:
475,192,196407,1,0,0:0:0:0:
109,192,196407,1,0,0:0:0:0:
329,192,196492,1,0,0:0:0:0:
182,192,196577,1,0,0:0:0:0:
402,192,196577,1,0,0:0:0:0:
109,192,196661,1,0,0:0:0:0:
402,192,196746,1,0,0:0:0:0:
182,192,196746,1,0,0:0:0:0:
329,192,196746,1,0,0:0:0:0:
329,192,196916,1,0,0:0:0:0:
402,192,197000,1,0,0:0:0:0:
109,192,197000,1,0,0:0:0:0:
36,192,197000,1,0,0:0:0:0:
402,192,197170,1,0,0:0:0:0:
182,192,197170,1,0,0:0:0:0:
36,192,197212,1,0,0:0:0:0:
475,192,197255,1,0,0:0:0:0:
256,192,197255,1,0,0:0:0:0:
329,192,197297,1,0,0:0:0:0:
402,192,197339,1,0,0:0:0:0:
109,192,197339,1,0,0:0:0:0:
256,192,197382,1,0,0:0:0:0:
329,192,197424,1,0,0:0:0:0:
182,192,197424,1,0,0:0:0:0:
329,192,197594,1,0,0:0:0:0:
402,192,197763,1,0,0:0:0:0:
402,192,198018,1,0,0:0:0:0:
256,192,198060,1,0,0:0:0:0:
182,192,198102,1,0,0:0:0:0:
256,192,198611,1,0,0:0:0:0:
402,192,198780,1,0,0:0:0:0:
475,192,198950,1,0,0:0:0:0:
329,192,199289,1,0,0:0:0:0:
36,192,199797,1,0,0:0:0:0:
182,192,200136,1,0,0:0:0:0:
36,192,200475,1,0,0:0:0:0:
402,192,200701,1,0,0:0:0:0:
256,192,200758,1,0,0:0:0:0:
182,192,200814,1,0,0:0:0:0:
475,192,200984,1,0,0:0:0:0:
402,192,201153,1,0,0:0:0:0:
182,192,201323,1,0,0:0:0:0:
36,192,201492,1,0,0:0:0:0:
475,192,201662,1,0,0:0:0:0:
329,192,202001,5,0,0:0:0:0:
182,192,202849,1,0,0:0:0:0:
475,192,203188,5,0,0:0:0:0:
475,192,203357,1,0,0:0:0:0:
182,192,203357,1,0,0:0:0:0:
256,192,203527,5,0,0:0:0:0:
475,192,203527,1,0,0:0:0:0:
182,192,203527,1,0,0:0:0:0:
36,192,204544,1,0,0:0:0:0:
329,192,204713,1,0,0:0:0:0:
36,192,204713,1,0,0:0:0:0:
256,192,204883,1,0,0:0:0:0:
329,192,204883,1,0,0:0:0:0:
36,192,204883,1,0,0:0:0:0:
475,192,204883,1,0,0:0:0:0:
329,192,205900,1,0,0:0:0:0:
182,192,206069,1,0,0:0:0:0:
329,192,206069,1,0,0:0:0:0:
256,192,206239,1,0,0:0:0:0:
475,192,206239,1,0,0:0:0:0:
182,192,206239,1,0,0:0:0:0:
36,192,206239,1,0,0:0:0:0:
329,192,206239,1,0,0:0:0:0:
402,192,206408,1,0,0:0:0:0:
36,192,206408,128,0,207849:0:0:0:0:
182,192,206578,128,0,207849:0:0:0:0:
475,192,206578,1,0,0:0:0:0:
329,192,206747,128,0,207849:0:0:0:0:
256,192,206747,1,0,0:0:0:0:
475,192,206917,1,0,0:0:0:0:
109,192,207086,1,0,0:0:0:0:
475,192,207256,1,0,0:0:0:0:
475,192,208273,5,0,0:0:0:0:
256,192,208273,1,0,0:0:0:0:
36,192,208273,1,0,0:0:0:0:
109,192,208442,1,0,0:0:0:0:
402,192,208442,1,0,0:0:0:0:
329,192,208527,1,0,0:0:0:0:
475,192,208612,1,0,0:0:0:0:
109,192,208612,1,0,0:0:0:0:
256,192,208612,1,0,0:0:0:0:
36,192,208612,1,0,0:0:0:0:
182,192,208781,1,0,0:0:0:0:
329,192,208781,1,0,0:0:0:0:
402,192,208781,1,0,0:0:0:0:
256,192,208866,1,0,0:0:0:0:
475,192,208951,1,0,0:0:0:0:
182,192,208951,1,0,0:0:0:0:
36,192,208951,1,0,0:0:0:0:
109,192,209120,1,0,0:0:0:0:
329,192,209120,1,0,0:0:0:0:
402,192,209120,1,0,0:0:0:0:
256,192,209205,1,0,0:0:0:0:
475,192,209290,1,0,0:0:0:0:
109,192,209290,1,0,0:0:0:0:
182,192,209290,1,0,0:0:0:0:
182,192,209459,1,0,0:0:0:0:
329,192,209459,1,0,0:0:0:0:
402,192,209459,1,0,0:0:0:0:
256,192,209544,1,0,0:0:0:0:
475,192,209629,1,0,0:0:0:0:
182,192,209629,1,0,0:0:0:0:
36,192,209629,1,0,0:0:0:0:
402,192,209629,1,0,0:0:0:0:
36,192,209798,1,0,0:0:0:0:
329,192,209798,1,0,0:0:0:0:
182,192,209798,1,0,0:0:0:0:
256,192,209883,1,0,0:0:0:0:
475,192,209968,1,0,0:0:0:0:
109,192,209968,1,0,0:0:0:0:
402,192,209968,1,0,0:0:0:0:
109,192,210137,1,0,0:0:0:0:
256,192,210137,1,0,0:0:0:0:
329,192,210137,1,0,0:0:0:0:
182,192,210222,1,0,0:0:0:0:
475,192,210307,1,0,0:0:0:0:
36,192,210307,1,0,0:0:0:0:
402,192,210307,1,0,0:0:0:0:
36,192,210476,1,0,0:0:0:0:
329,192,210476,1,0,0:0:0:0:
402,192,210561,1,0,0:0:0:0:
475,192,210646,1,0,0:0:0:0:
109,192,210646,1,0,0:0:0:0:
256,192,210646,1,0,0:0:0:0:
329,192,210646,1,0,0:0:0:0:
109,192,210815,1,0,0:0:0:0:
402,192,210815,1,0,0:0:0:0:
475,192,210815,1,0,0:0:0:0:
256,192,210900,1,0,0:0:0:0:
329,192,210900,1,0,0:0:0:0:
475,192,210985,1,0,0:0:0:0:
182,192,210985,1,0,0:0:0:0:
402,192,210985,1,0,0:0:0:0:
36,192,210985,1,0,0:0:0:0:
109,192,210985,1,0,0:0:0:0:
182,192,211154,1,0,0:0:0:0:
329,192,211154,1,0,0:0:0:0:
109,192,211239,1,0,0:0:0:0:
475,192,211324,1,0,0:0:0:0:
329,192,211324,1,0,0:0:0:0:
256,192,211324,1,0,0:0:0:0:
36,192,211324,1,0,0:0:0:0:
329,192,211493,1,0,0:0:0:0:
256,192,211493,1,0,0:0:0:0:
109,192,211493,1,0,0:0:0:0:
36,192,211578,1,0,0:0:0:0:
475,192,211663,1,0,0:0:0:0:
182,192,211663,1,0,0:0:0:0:
402,192,211663,1,0,0:0:0:0:
182,192,211832,1,0,0:0:0:0:
256,192,211832,1,0,0:0:0:0:
402,192,211832,1,0,0:0:0:0:
109,192,211917,1,0,0:0:0:0:
475,192,212002,1,0,0:0:0:0:
329,192,212002,1,0,0:0:0:0:
182,192,212002,1,0,0:0:0:0:
329,192,212171,1,0,0:0:0:0:
36,192,212171,1,0,0:0:0:0:
109,192,212256,1,0,0:0:0:0:
475,192,212341,1,0,0:0:0:0:
182,192,212341,1,0,0:0:0:0:
256,192,212341,1,0,0:0:0:0:
402,192,212341,1,0,0:0:0:0:
182,192,212510,1,0,0:0:0:0:
329,192,212510,1,0,0:0:0:0:
402,192,212595,1,0,0:0:0:0:
475,192,212680,1,0,0:0:0:0:
36,192,212680,1,0,0:0:0:0:
256,192,212680,1,0,0:0:0:0:
36,192,212849,1,0,0:0:0:0:
402,192,212849,1,0,0:0:0:0:
182,192,212934,1,0,0:0:0:0:
475,192,213019,1,0,0:0:0:0:
109,192,213019,1,0,0:0:0:0:
256,192,213019,1,0,0:0:0:0:
329,192,213019,1,0,0:0:0:0:
109,192,213188,1,0,0:0:0:0:
402,192,213188,1,0,0:0:0:0:
182,192,213273,1,0,0:0:0:0:
475,192,213358,1,0,0:0:0:0:
329,192,213358,1,0,0:0:0:0:
256,192,213358,1,0,0:0:0:0:
36,192,213358,1,0,0:0:0:0:
475,192,213527,1,0,0:0:0:0:
329,192,213527,1,0,0:0:0:0:
182,192,213527,1,0,0:0:0:0:
109,192,213612,1,0,0:0:0:0:
36,192,213697,5,0,0:0:0:0:
182,192,213697,1,0,0:0:0:0:
256,192,213697,1,0,0:0:0:0:
402,192,213697,1,0,0:0:0:0:
329,192,213697,1,0,0:0:0:0:
182,192,213866,1,0,0:0:0:0:
475,192,213866,1,0,0:0:0:0:
329,192,213866,1,0,0:0:0:0:
36,192,214036,1,0,0:0:0:0:
402,192,214036,1,0,0:0:0:0:
256,192,214036,1,0,0:0:0:0:
109,192,214036,1,0,0:0:0:0:
182,192,214205,1,0,0:0:0:0:
329,192,214205,1,0,0:0:0:0:
402,192,214290,1,0,0:0:0:0:
36,192,214375,1,0,0:0:0:0:
182,192,214375,1,0,0:0:0:0:
256,192,214375,1,0,0:0:0:0:
475,192,214375,1,0,0:0:0:0:
402,192,214544,1,0,0:0:0:0:
182,192,214544,1,0,0:0:0:0:
329,192,214629,1,0,0:0:0:0:
36,192,214714,1,0,0:0:0:0:
402,192,214714,1,0,0:0:0:0:
256,192,214714,1,0,0:0:0:0:
329,192,214799,1,0,0:0:0:0:
36,192,214883,1,0,0:0:0:0:
182,192,214883,1,0,0:0:0:0:
475,192,214883,1,0,0:0:0:0:
329,192,214968,1,0,0:0:0:0:
36,192,215053,1,0,0:0:0:0:
402,192,215053,1,0,0:0:0:0:
256,192,215053,1,0,0:0:0:0:
475,192,215053,1,0,0:0:0:0:
109,192,215053,1,0,0:0:0:0:
402,192,215222,1,0,0:0:0:0:
256,192,215222,1,0,0:0:0:0:
36,192,215392,1,0,0:0:0:0:
182,192,215392,1,0,0:0:0:0:
475,192,215392,1,0,0:0:0:0:
402,192,215561,1,0,0:0:0:0:
182,192,215561,1,0,0:0:0:0:
329,192,215646,1,0,0:0:0:0:
36,192,215731,1,0,0:0:0:0:
402,192,215731,1,0,0:0:0:0:
256,192,215731,1,0,0:0:0:0:
109,192,215731,1,0,0:0:0:0:
329,192,215816,1,0,0:0:0:0:
475,192,215900,1,0,0:0:0:0:
182,192,215900,1,0,0:0:0:0:
329,192,215985,1,0,0:0:0:0:
36,192,216070,1,0,0:0:0:0:
402,192,216070,1,0,0:0:0:0:
256,192,216070,1,0,0:0:0:0:
109,192,216070,1,0,0:0:0:0:
36,192,216240,1,0,0:0:0:0:
402,192,216240,1,0,0:0:0:0:
182,192,216240,1,0,0:0:0:0:
329,192,216240,1,0,0:0:0:0:
109,192,216324,1,0,0:0:0:0:
475,192,216324,1,0,0:0:0:0:
36,192,216409,1,0,0:0:0:0:
329,192,216409,1,0,0:0:0:0:
256,192,216409,1,0,0:0:0:0:
182,192,216409,1,0,0:0:0:0:
402,192,216579,1,0,0:0:0:0:
256,192,216579,1,0,0:0:0:0:
36,192,216748,1,0,0:0:0:0:
402,192,216748,1,0,0:0:0:0:
182,192,216748,1,0,0:0:0:0:
475,192,216748,1,0,0:0:0:0:
36,192,216918,1,0,0:0:0:0:
329,192,216918,1,0,0:0:0:0:
256,192,216918,1,0,0:0:0:0:
182,192,216918,1,0,0:0:0:0:
475,192,217002,1,0,0:0:0:0:
402,192,217002,1,0,0:0:0:0:
36,192,217087,1,0,0:0:0:0:
182,192,217087,1,0,0:0:0:0:
329,192,217087,1,0,0:0:0:0:
182,192,217257,1,0,0:0:0:0:
475,192,217257,1,0,0:0:0:0:
36,192,217426,1,0,0:0:0:0:
329,192,217426,1,0,0:0:0:0:
475,192,217426,1,0,0:0:0:0:
36,192,217596,1,0,0:0:0:0:
329,192,217596,1,0,0:0:0:0:
182,192,217596,1,0,0:0:0:0:
475,192,217680,1,0,0:0:0:0:
256,192,217680,1,0,0:0:0:0:
109,192,217680,1,0,0:0:0:0:
36,192,217765,1,0,0:0:0:0:
182,192,217765,1,0,0:0:0:0:
402,192,217765,1,0,0:0:0:0:
475,192,217935,1,0,0:0:0:0:
182,192,217935,1,0,0:0:0:0:
256,192,217935,1,0,0:0:0:0:
36,192,218104,1,0,0:0:0:0:
329,192,218104,1,0,0:0:0:0:
256,192,218104,1,0,0:0:0:0:
109,192,218104,1,0,0:0:0:0:
402,192,218189,1,0,0:0:0:0:
475,192,218274,1,0,0:0:0:0:
329,192,218274,1,0,0:0:0:0:
182,192,218274,1,0,0:0:0:0:
36,192,218443,1,0,0:0:0:0:
182,192,218443,1,0,0:0:0:0:
256,192,218443,1,0,0:0:0:0:
402,192,218443,1,0,0:0:0:0:
329,192,218443,1,0,0:0:0:0:
475,192,218613,1,0,0:0:0:0:
182,192,218613,1,0,0:0:0:0:
109,192,218613,1,0,0:0:0:0:
329,192,218613,1,0,0:0:0:0:
402,192,218697,1,0,0:0:0:0:
36,192,218782,1,0,0:0:0:0:
329,192,218782,1,0,0:0:0:0:
256,192,218782,1,0,0:0:0:0:
182,192,218782,1,0,0:0:0:0:
475,192,218867,1,0,0:0:0:0:
109,192,218867,1,0,0:0:0:0:
36,192,218952,1,0,0:0:0:0:
329,192,218952,1,0,0:0:0:0:
182,192,218952,1,0,0:0:0:0:
475,192,219036,1,0,0:0:0:0:
402,192,219036,1,0,0:0:0:0:
109,192,219121,5,0,0:0:0:0:
36,192,219121,1,0,0:0:0:0:
256,192,219121,1,0,0:0:0:0:
329,192,219121,1,0,0:0:0:0:
182,192,219206,1,0,0:0:0:0:
402,192,219291,1,0,0:0:0:0:
256,192,219291,1,0,0:0:0:0:
475,192,219375,1,0,0:0:0:0:
109,192,219460,1,0,0:0:0:0:
256,192,219460,1,0,0:0:0:0:
329,192,219460,1,0,0:0:0:0:
36,192,219545,1,0,0:0:0:0:
402,192,219630,1,0,0:0:0:0:
182,192,219630,1,0,0:0:0:0:
256,192,219630,1,0,0:0:0:0:
329,192,219714,1,0,0:0:0:0:
109,192,219799,1,0,0:0:0:0:
475,192,219799,1,0,0:0:0:0:
329,192,219884,1,0,0:0:0:0:
402,192,219969,1,0,0:0:0:0:
182,192,219969,1,0,0:0:0:0:
256,192,219969,1,0,0:0:0:0:
36,192,220053,1,0,0:0:0:0:
109,192,220138,1,0,0:0:0:0:
329,192,220138,1,0,0:0:0:0:
256,192,220223,1,0,0:0:0:0:
402,192,220308,1,0,0:0:0:0:
182,192,220308,1,0,0:0:0:0:
475,192,220308,1,0,0:0:0:0:
329,192,220393,1,0,0:0:0:0:
109,192,220477,1,0,0:0:0:0:
256,192,220477,1,0,0:0:0:0:
475,192,220562,1,0,0:0:0:0:
402,192,220647,1,0,0:0:0:0:
182,192,220647,1,0,0:0:0:0:
329,192,220647,1,0,0:0:0:0:
256,192,220732,1,0,0:0:0:0:
109,192,220816,1,0,0:0:0:0:
475,192,220816,1,0,0:0:0:0:
329,192,220901,1,0,0:0:0:0:
402,192,220986,1,0,0:0:0:0:
182,192,220986,1,0,0:0:0:0:
36,192,220986,1,0,0:0:0:0:
256,192,221071,1,0,0:0:0:0:
109,192,221155,1,0,0:0:0:0:
475,192,221155,1,0,0:0:0:0:
329,192,221240,1,0,0:0:0:0:
402,192,221325,1,0,0:0:0:0:
182,192,221325,1,0,0:0:0:0:
36,192,221410,1,0,0:0:0:0:
109,192,221494,1,0,0:0:0:0:
256,192,221494,1,0,0:0:0:0:
475,192,221494,1,0,0:0:0:0:
329,192,221579,1,0,0:0:0:0:
402,192,221664,1,0,0:0:0:0:
182,192,221664,1,0,0:0:0:0:
36,192,221749,1,0,0:0:0:0:
109,192,221833,1,0,0:0:0:0:
256,192,221833,1,0,0:0:0:0:
475,192,221833,1,0,0:0:0:0:
329,192,221918,1,0,0:0:0:0:
402,192,222003,1,0,0:0:0:0:
182,192,222003,1,0,0:0:0:0:
36,192,222088,1,0,0:0:0:0:
109,192,222172,1,0,0:0:0:0:
256,192,222172,1,0,0:0:0:0:
329,192,222172,1,0,0:0:0:0:
475,192,222257,1,0,0:0:0:0:
402,192,222342,1,0,0:0:0:0:
182,192,222342,1,0,0:0:0:0:
329,192,222342,1,0,0:0:0:0:
256,192,222427,1,0,0:0:0:0:
109,192,222511,1,0,0:0:0:0:
475,192,222511,1,0,0:0:0:0:
329,192,222596,1,0,0:0:0:0:
402,192,222681,1,0,0:0:0:0:
182,192,222681,1,0,0:0:0:0:
36,192,222681,1,0,0:0:0:0:
256,192,222766,1,0,0:0:0:0:
109,192,222850,1,0,0:0:0:0:
475,192,222850,1,0,0:0:0:0:
329,192,222935,1,0,0:0:0:0:
402,192,223020,1,0,0:0:0:0:
182,192,223020,1,0,0:0:0:0:
36,192,223105,1,0,0:0:0:0:
109,192,223189,1,0,0:0:0:0:
256,192,223189,1,0,0:0:0:0:
475,192,223189,1,0,0:0:0:0:
329,192,223274,1,0,0:0:0:0:
402,192,223359,1,0,0:0:0:0:
182,192,223359,1,0,0:0:0:0:
256,192,223444,1,0,0:0:0:0:
109,192,223528,1,0,0:0:0:0:
36,192,223528,1,0,0:0:0:0:
329,192,223613,1,0,0:0:0:0:
402,192,223698,1,0,0:0:0:0:
182,192,223698,1,0,0:0:0:0:
329,192,223783,1,0,0:0:0:0:
109,192,223867,1,0,0:0:0:0:
256,192,223867,1,0,0:0:0:0:
475,192,223867,1,0,0:0:0:0:
329,192,223952,1,0,0:0:0:0:
402,192,224037,1,0,0:0:0:0:
182,192,224037,1,0,0:0:0:0:
36,192,224037,1,0,0:0:0:0:
329,192,224122,1,0,0:0:0:0:
109,192,224207,1,0,0:0:0:0:
256,192,224207,1,0,0:0:0:0:
475,192,224207,1,0,0:0:0:0:
182,192,224291,1,0,0:0:0:0:
109,192,224376,1,0,0:0:0:0:
402,192,224376,1,0,0:0:0:0:
329,192,224376,1,0,0:0:0:0:
182,192,224461,1,0,0:0:0:0:
109,192,224546,1,0,0:0:0:0:
402,192,224546,1,0,0:0:0:0:
256,192,224546,1,0,0:0:0:0:
36,192,224630,1,0,0:0:0:0:
109,192,224715,1,0,0:0:0:0:
329,192,224800,1,0,0:0:0:0:
402,192,224885,1,0,0:0:0:0:
182,192,224885,1,0,0:0:0:0:
36,192,224969,1,0,0:0:0:0:
109,192,225054,1,0,0:0:0:0:
329,192,225054,1,0,0:0:0:0:
182,192,225139,1,0,0:0:0:0:
402,192,225224,1,0,0:0:0:0:
256,192,225224,1,0,0:0:0:0:
36,192,225224,1,0,0:0:0:0:
475,192,225308,1,0,0:0:0:0:
109,192,225393,1,0,0:0:0:0:
182,192,225393,1,0,0:0:0:0:
329,192,225393,1,0,0:0:0:0:
475,192,225478,1,0,0:0:0:0:
402,192,225563,1,0,0:0:0:0:
256,192,225563,1,0,0:0:0:0:
36,192,225563,1,0,0:0:0:0:
182,192,225647,1,0,0:0:0:0:
402,192,225732,1,0,0:0:0:0:
109,192,225732,1,0,0:0:0:0:
329,192,225732,1,0,0:0:0:0:
182,192,225817,1,0,0:0:0:0:
402,192,225902,1,0,0:0:0:0:
109,192,225902,1,0,0:0:0:0:
256,192,225902,1,0,0:0:0:0:
475,192,225902,1,0,0:0:0:0:
36,192,225986,1,0,0:0:0:0:
402,192,226071,1,0,0:0:0:0:
182,192,226071,1,0,0:0:0:0:
329,192,226156,1,0,0:0:0:0:
109,192,226241,1,0,0:0:0:0:
256,192,226241,1,0,0:0:0:0:
36,192,226325,1,0,0:0:0:0:
402,192,226410,1,0,0:0:0:0:
182,192,226410,1,0,0:0:0:0:
475,192,226495,1,0,0:0:0:0:
109,192,226580,1,0,0:0:0:0:
256,192,226580,1,0,0:0:0:0:
329,192,226580,1,0,0:0:0:0:
182,192,226664,1,0,0:0:0:0:
402,192,226749,1,0,0:0:0:0:
329,192,226749,1,0,0:0:0:0:
36,192,226749,1,0,0:0:0:0:
182,192,226834,1,0,0:0:0:0:
109,192,226919,1,0,0:0:0:0:
256,192,226919,1,0,0:0:0:0:
475,192,226919,1,0,0:0:0:0:
109,192,227088,1,0,0:0:0:0:
402,192,227088,1,0,0:0:0:0:
182,192,227088,1,0,0:0:0:0:
329,192,227088,1,0,0:0:0:0:
402,192,227258,1,0,0:0:0:0:
109,192,227258,1,0,0:0:0:0:
256,192,227258,1,0,0:0:0:0:
36,192,227258,1,0,0:0:0:0:
109,192,227427,1,0,0:0:0:0:
475,192,227427,1,0,0:0:0:0:
402,192,227427,1,0,0:0:0:0:
329,192,227512,1,0,0:0:0:0:
402,192,227597,1,0,0:0:0:0:
256,192,227597,1,0,0:0:0:0:
475,192,227766,1,0,0:0:0:0:
109,192,227766,1,0,0:0:0:0:
256,192,227766,1,0,0:0:0:0:
36,192,227766,1,0,0:0:0:0:
402,192,227936,1,0,0:0:0:0:
256,192,227936,1,0,0:0:0:0:
36,192,227936,1,0,0:0:0:0:
329,192,228020,1,0,0:0:0:0:
109,192,228105,1,0,0:0:0:0:
475,192,228105,1,0,0:0:0:0:
402,192,228190,1,0,0:0:0:0:
109,192,228275,1,0,0:0:0:0:
256,192,228275,1,0,0:0:0:0:
36,192,228444,1,0,0:0:0:0:
475,192,228444,1,0,0:0:0:0:
329,192,228444,1,0,0:0:0:0:
402,192,228529,1,0,0:0:0:0:
256,192,228529,1,0,0:0:0:0:
36,192,228614,1,0,0:0:0:0:
329,192,228614,1,0,0:0:0:0:
475,192,228614,1,0,0:0:0:0:
182,192,228614,1,0,0:0:0:0:
109,192,228783,1,0,0:0:0:0:
329,192,228783,1,0,0:0:0:0:
475,192,228783,1,0,0:0:0:0:
182,192,228783,1,0,0:0:0:0:
402,192,228868,1,0,0:0:0:0:
36,192,228953,1,0,0:0:0:0:
329,192,228953,1,0,0:0:0:0:
182,192,228953,1,0,0:0:0:0:
256,192,229038,1,0,0:0:0:0:
109,192,229122,1,0,0:0:0:0:
182,192,229122,1,0,0:0:0:0:
402,192,229122,1,0,0:0:0:0:
109,192,229292,1,0,0:0:0:0:
402,192,229292,1,0,0:0:0:0:
256,192,229292,1,0,0:0:0:0:
475,192,229377,1,0,0:0:0:0:
182,192,229377,1,0,0:0:0:0:
402,192,229461,1,0,0:0:0:0:
36,192,229461,1,0,0:0:0:0:
256,192,229461,1,0,0:0:0:0:
109,192,229546,1,0,0:0:0:0:
329,192,229546,1,0,0:0:0:0:
36,192,229631,1,0,0:0:0:0:
256,192,229631,1,0,0:0:0:0:
109,192,229716,1,0,0:0:0:0:
182,192,229716,1,0,0:0:0:0:
475,192,229716,1,0,0:0:0:0:
402,192,229800,1,0,0:0:0:0:
329,192,229800,1,0,0:0:0:0:
256,192,229800,1,0,0:0:0:0:
475,192,229885,1,0,0:0:0:0:
182,192,229885,1,0,0:0:0:0:
402,192,229970,1,0,0:0:0:0:
256,192,229970,1,0,0:0:0:0:
36,192,229970,1,0,0:0:0:0:
109,192,229970,1,0,0:0:0:0:
329,192,231326,1,0,0:0:0:0:
402,192,231326,1,0,0:0:0:0:
182,192,231326,1,0,0:0:0:0:
36,192,231326,1,0,0:0:0:0:
182,192,232682,5,0,0:0:0:0:
329,192,232682,1,0,0:0:0:0:
475,192,232682,1,0,0:0:0:0:
109,192,232682,1,0,0:0:0:0:
256,192,232682,1,0,0:0:0:0:
402,192,232852,1,0,0:0:0:0:
36,192,232852,1,0,0:0:0:0:
256,192,232936,1,0,0:0:0:0:
182,192,233021,1,0,0:0:0:0:
329,192,233021,1,0,0:0:0:0:
109,192,233021,1,0,0:0:0:0:
402,192,233191,1,0,0:0:0:0:
256,192,233191,1,0,0:0:0:0:
36,192,233191,1,0,0:0:0:0:
109,192,233275,1,0,0:0:0:0:
182,192,233360,1,0,0:0:0:0:
475,192,233360,1,0,0:0:0:0:
402,192,233445,1,0,0:0:0:0:
36,192,233530,1,0,0:0:0:0:
329,192,233530,1,0,0:0:0:0:
182,192,233530,1,0,0:0:0:0:
256,192,233614,1,0,0:0:0:0:
182,192,233699,1,0,0:0:0:0:
402,192,233699,1,0,0:0:0:0:
36,192,233869,1,0,0:0:0:0:
256,192,233869,1,0,0:0:0:0:
329,192,233953,1,0,0:0:0:0:
182,192,234038,1,0,0:0:0:0:
475,192,234038,1,0,0:0:0:0:
109,192,234038,1,0,0:0:0:0:
402,192,234208,1,0,0:0:0:0:
256,192,234208,1,0,0:0:0:0:
109,192,234292,1,0,0:0:0:0:
182,192,234377,1,0,0:0:0:0:
329,192,234377,1,0,0:0:0:0:
475,192,234377,1,0,0:0:0:0:
402,192,234462,1,0,0:0:0:0:
36,192,234547,1,0,0:0:0:0:
256,192,234547,1,0,0:0:0:0:
475,192,234547,1,0,0:0:0:0:
329,192,234631,1,0,0:0:0:0:
182,192,234716,1,0,0:0:0:0:
36,192,234716,1,0,0:0:0:0:
109,192,234801,1,0,0:0:0:0:
402,192,234886,1,0,0:0:0:0:
256,192,234886,1,0,0:0:0:0:
36,192,234886,1,0,0:0:0:0:
109,192,234970,1,0,0:0:0:0:
182,192,235055,1,0,0:0:0:0:
329,192,235055,1,0,0:0:0:0:
402,192,235225,1,0,0:0:0:0:
36,192,235225,1,0,0:0:0:0:
256,192,235309,1,0,0:0:0:0:
182,192,235394,1,0,0:0:0:0:
329,192,235394,1,0,0:0:0:0:
475,192,235394,1,0,0:0:0:0:
36,192,235564,1,0,0:0:0:0:
402,192,235564,1,0,0:0:0:0:
329,192,235648,1,0,0:0:0:0:
182,192,235733,1,0,0:0:0:0:
256,192,235733,1,0,0:0:0:0:
475,192,235733,1,0,0:0:0:0:
402,192,235818,1,0,0:0:0:0:
36,192,235903,1,0,0:0:0:0:
475,192,235903,1,0,0:0:0:0:
256,192,235903,1,0,0:0:0:0:
329,192,235987,1,0,0:0:0:0:
182,192,236072,1,0,0:0:0:0:
36,192,236072,1,0,0:0:0:0:
256,192,236157,1,0,0:0:0:0:
402,192,236242,1,0,0:0:0:0:
329,192,236242,1,0,0:0:0:0:
109,192,236242,1,0,0:0:0:0:
256,192,236327,1,0,0:0:0:0:
182,192,236411,1,0,0:0:0:0:
475,192,236411,1,0,0:0:0:0:
402,192,236496,1,0,0:0:0:0:
36,192,236581,1,0,0:0:0:0:
329,192,236581,1,0,0:0:0:0:
182,192,236581,1,0,0:0:0:0:
402,192,236666,1,0,0:0:0:0:
182,192,236750,1,0,0:0:0:0:
256,192,236750,1,0,0:0:0:0:
475,192,236750,1,0,0:0:0:0:
36,192,236750,1,0,0:0:0:0:
402,192,236920,1,0,0:0:0:0:
182,192,236920,1,0,0:0:0:0:
36,192,237089,1,0,0:0:0:0:
182,192,237089,1,0,0:0:0:0:
329,192,237089,1,0,0:0:0:0:
475,192,237089,1,0,0:0:0:0:
402,192,237259,1,0,0:0:0:0:
256,192,237259,1,0,0:0:0:0:
182,192,237428,1,0,0:0:0:0:
329,192,237428,1,0,0:0:0:0:
402,192,237428,1,0,0:0:0:0:
36,192,237428,1,0,0:0:0:0:
36,192,237598,1,0,0:0:0:0:
475,192,237598,1,0,0:0:0:0:
329,192,237598,1,0,0:0:0:0:
109,192,237683,1,0,0:0:0:0:
402,192,237683,1,0,0:0:0:0:
182,192,237767,1,0,0:0:0:0:
256,192,237767,1,0,0:0:0:0:
475,192,237767,1,0,0:0:0:0:
109,192,237852,1,0,0:0:0:0:
36,192,237852,1,0,0:0:0:0:
402,192,237937,1,0,0:0:0:0:
182,192,237937,1,0,0:0:0:0:
256,192,238022,1,0,0:0:0:0:
329,192,238106,5,0,0:0:0:0:
109,192,238106,1,0,0:0:0:0:
182,192,238106,1,0,0:0:0:0:
475,192,238276,1,0,0:0:0:0:
256,192,238276,1,0,0:0:0:0:
182,192,238361,1,0,0:0:0:0:
329,192,238445,1,0,0:0:0:0:
256,192,238445,1,0,0:0:0:0:
36,192,238445,1,0,0:0:0:0:
182,192,238615,1,0,0:0:0:0:
402,192,238615,1,0,0:0:0:0:
109,192,238615,1,0,0:0:0:0:
256,192,238700,1,0,0:0:0:0:
329,192,238784,1,0,0:0:0:0:
36,192,238784,1,0,0:0:0:0:
475,192,238954,1,0,0:0:0:0:
182,192,238954,1,0,0:0:0:0:
402,192,238954,1,0,0:0:0:0:
109,192,239039,1,0,0:0:0:0:
329,192,239123,1,0,0:0:0:0:
402,192,239123,1,0,0:0:0:0:
182,192,239293,1,0,0:0:0:0:
475,192,239293,1,0,0:0:0:0:
256,192,239378,1,0,0:0:0:0:
329,192,239462,1,0,0:0:0:0:
109,192,239462,1,0,0:0:0:0:
36,192,239462,1,0,0:0:0:0:
182,192,239547,1,0,0:0:0:0:
475,192,239632,1,0,0:0:0:0:
402,192,239632,1,0,0:0:0:0:
256,192,239717,1,0,0:0:0:0:
329,192,239801,1,0,0:0:0:0:
36,192,239801,1,0,0:0:0:0:
182,192,239801,1,0,0:0:0:0:
402,192,239886,1,0,0:0:0:0:
182,192,239971,1,0,0:0:0:0:
109,192,239971,1,0,0:0:0:0:
256,192,239971,1,0,0:0:0:0:
475,192,240056,1,0,0:0:0:0:
329,192,240141,1,0,0:0:0:0:
109,192,240141,1,0,0:0:0:0:
402,192,240225,1,0,0:0:0:0:
182,192,240310,1,0,0:0:0:0:
256,192,240310,1,0,0:0:0:0:
36,192,240310,1,0,0:0:0:0:
109,192,240395,1,0,0:0:0:0:
329,192,240480,1,0,0:0:0:0:
475,192,240480,1,0,0:0:0:0:
36,192,240649,1,0,0:0:0:0:
182,192,240649,1,0,0:0:0:0:
109,192,240734,1,0,0:0:0:0:
329,192,240819,1,0,0:0:0:0:
256,192,240819,1,0,0:0:0:0:
475,192,240819,1,0,0:0:0:0:
182,192,240988,1,0,0:0:0:0:
402,192,240988,1,0,0:0:0:0:
256,192,241073,1,0,0:0:0:0:
329,192,241158,1,0,0:0:0:0:
475,192,241158,1,0,0:0:0:0:
109,192,241158,1,0,0:0:0:0:
402,192,241242,1,0,0:0:0:0:
36,192,241327,1,0,0:0:0:0:
256,192,241327,1,0,0:0:0:0:
182,192,241327,1,0,0:0:0:0:
475,192,241412,1,0,0:0:0:0:
329,192,241497,1,0,0:0:0:0:
402,192,241497,1,0,0:0:0:0:
109,192,241581,1,0,0:0:0:0:
182,192,241666,1,0,0:0:0:0:
256,192,241666,1,0,0:0:0:0:
36,192,241666,1,0,0:0:0:0:
402,192,241751,1,0,0:0:0:0:
329,192,241836,1,0,0:0:0:0:
475,192,241836,1,0,0:0:0:0:
182,192,241836,1,0,0:0:0:0:
402,192,241920,1,0,0:0:0:0:
109,192,241920,1,0,0:0:0:0:
36,192,242005,1,0,0:0:0:0:
256,192,242005,1,0,0:0:0:0:
329,192,242005,1,0,0:0:0:0:
182,192,242090,1,0,0:0:0:0:
402,192,242090,1,0,0:0:0:0:
329,192,242175,1,0,0:0:0:0:
36,192,242175,1,0,0:0:0:0:
475,192,242175,1,0,0:0:0:0:
329,192,242401,1,0,0:0:0:0:
182,192,242401,1,0,0:0:0:0:
329,192,242627,1,0,0:0:0:0:
475,192,242627,1,0,0:0:0:0:
402,192,242683,1,0,0:0:0:0:
256,192,242740,1,0,0:0:0:0:
36,192,242796,1,0,0:0:0:0:
182,192,242853,1,0,0:0:0:0:
329,192,242853,1,0,0:0:0:0:
329,192,243079,1,0,0:0:0:0:
475,192,243079,1,0,0:0:0:0:
109,192,243079,1,0,0:0:0:0:
182,192,243305,1,0,0:0:0:0:
329,192,243305,1,0,0:0:0:0:
475,192,243305,1,0,0:0:0:0:
36,192,243531,5,0,0:0:0:0:
329,192,243531,1,0,0:0:0:0:
256,192,243531,1,0,0:0:0:0:
402,192,243531,1,0,0:0:0:0:
182,192,243615,1,0,0:0:0:0:
475,192,243700,1,0,0:0:0:0:
329,192,243700,1,0,0:0:0:0:
402,192,243785,1,0,0:0:0:0:
36,192,243870,1,0,0:0:0:0:
182,192,243870,1,0,0:0:0:0:
329,192,243870,1,0,0:0:0:0:
109,192,243954,1,0,0:0:0:0:
475,192,244039,1,0,0:0:0:0:
256,192,244039,1,0,0:0:0:0:
402,192,244039,1,0,0:0:0:0:
329,192,244124,1,0,0:0:0:0:
36,192,244209,1,0,0:0:0:0:
182,192,244209,1,0,0:0:0:0:
109,192,244294,1,0,0:0:0:0:
475,192,244378,1,0,0:0:0:0:
256,192,244378,1,0,0:0:0:0:
402,192,244378,1,0,0:0:0:0:
329,192,244463,1,0,0:0:0:0:
36,192,244548,1,0,0:0:0:0:
182,192,244548,1,0,0:0:0:0:
402,192,244633,1,0,0:0:0:0:
475,192,244717,1,0,0:0:0:0:
256,192,244717,1,0,0:0:0:0:
109,192,244802,1,0,0:0:0:0:
36,192,244887,1,0,0:0:0:0:
329,192,244887,1,0,0:0:0:0:
182,192,244887,1,0,0:0:0:0:
402,192,244972,1,0,0:0:0:0:
475,192,245056,1,0,0:0:0:0:
329,192,245056,1,0,0:0:0:0:
402,192,245141,1,0,0:0:0:0:
36,192,245226,1,0,0:0:0:0:
256,192,245226,1,0,0:0:0:0:
109,192,245226,1,0,0:0:0:0:
329,192,245311,1,0,0:0:0:0:
475,192,245395,1,0,0:0:0:0:
182,192,245395,1,0,0:0:0:0:
402,192,245395,1,0,0:0:0:0:
256,192,245480,1,0,0:0:0:0:
36,192,245565,1,0,0:0:0:0:
402,192,245565,1,0,0:0:0:0:
182,192,245650,1,0,0:0:0:0:
475,192,245734,1,0,0:0:0:0:
256,192,245734,1,0,0:0:0:0:
109,192,245734,1,0,0:0:0:0:
402,192,245819,1,0,0:0:0:0:
36,192,245904,1,0,0:0:0:0:
329,192,245904,1,0,0:0:0:0:
182,192,245989,1,0,0:0:0:0:
475,192,246073,1,0,0:0:0:0:
256,192,246073,1,0,0:0:0:0:
109,192,246158,1,0,0:0:0:0:
36,192,246243,1,0,0:0:0:0:
329,192,246243,1,0,0:0:0:0:
182,192,246243,1,0,0:0:0:0:
402,192,246328,1,0,0:0:0:0:
475,192,246412,1,0,0:0:0:0:
329,192,246412,1,0,0:0:0:0:
182,192,246497,1,0,0:0:0:0:
36,192,246582,1,0,0:0:0:0:
256,192,246582,1,0,0:0:0:0:
402,192,246582,1,0,0:0:0:0:
329,192,246667,1,0,0:0:0:0:
475,192,246751,1,0,0:0:0:0:
182,192,246751,1,0,0:0:0:0:
109,192,246751,1,0,0:0:0:0:
256,192,246836,1,0,0:0:0:0:
36,192,246921,1,0,0:0:0:0:
402,192,246921,1,0,0:0:0:0:
329,192,247006,1,0,0:0:0:0:
475,192,247090,1,0,0:0:0:0:
256,192,247090,1,0,0:0:0:0:
109,192,247090,1,0,0:0:0:0:
182,192,247175,1,0,0:0:0:0:
36,192,247260,1,0,0:0:0:0:
402,192,247260,1,0,0:0:0:0:
109,192,247345,1,0,0:0:0:0:
329,192,247345,1,0,0:0:0:0:
475,192,247429,1,0,0:0:0:0:
256,192,247429,1,0,0:0:0:0:
36,192,247429,1,0,0:0:0:0:
182,192,247514,1,0,0:0:0:0:
402,192,247514,1,0,0:0:0:0:
109,192,247599,1,0,0:0:0:0:
329,192,247599,1,0,0:0:0:0:
256,192,247599,1,0,0:0:0:0:
475,192,247599,1,0,0:0:0:0:
182,192,247684,1,0,0:0:0:0:
402,192,247768,1,0,0:0:0:0:
36,192,247768,1,0,0:0:0:0:
182,192,247853,1,0,0:0:0:0:
109,192,247938,1,0,0:0:0:0:
256,192,247938,1,0,0:0:0:0:
475,192,247938,1,0,0:0:0:0:
402,192,248023,1,0,0:0:0:0:
329,192,248108,1,0,0:0:0:0:
182,192,248108,1,0,0:0:0:0:
475,192,248192,1,0,0:0:0:0:
109,192,248277,1,0,0:0:0:0:
182,192,248277,1,0,0:0:0:0:
402,192,248277,1,0,0:0:0:0:
36,192,248362,1,0,0:0:0:0:
256,192,248447,1,0,0:0:0:0:
475,192,248447,1,0,0:0:0:0:
329,192,248531,1,0,0:0:0:0:
36,192,248616,1,0,0:0:0:0:
475,192,248616,1,0,0:0:0:0:
182,192,248616,1,0,0:0:0:0:
329,192,248701,1,0,0:0:0:0:
256,192,248701,1,0,0:0:0:0:
182,192,248786,1,0,0:0:0:0:
109,192,248786,1,0,0:0:0:0:
475,192,248786,1,0,0:0:0:0:
402,192,248870,1,0,0:0:0:0:
329,192,248870,1,0,0:0:0:0:
475,192,248955,5,0,0:0:0:0:
256,192,248955,1,0,0:0:0:0:
36,192,248955,1,0,0:0:0:0:
182,192,248955,1,0,0:0:0:0:
402,192,249040,1,0,0:0:0:0:
109,192,249125,1,0,0:0:0:0:
256,192,249125,1,0,0:0:0:0:
182,192,249209,1,0,0:0:0:0:
475,192,249294,1,0,0:0:0:0:
329,192,249294,1,0,0:0:0:0:
36,192,249294,1,0,0:0:0:0:
182,192,249379,1,0,0:0:0:0:
109,192,249464,1,0,0:0:0:0:
256,192,249464,1,0,0:0:0:0:
402,192,249464,1,0,0:0:0:0:
329,192,249548,1,0,0:0:0:0:
475,192,249633,1,0,0:0:0:0:
182,192,249633,1,0,0:0:0:0:
256,192,249718,1,0,0:0:0:0:
109,192,249803,1,0,0:0:0:0:
329,192,249803,1,0,0:0:0:0:
36,192,249803,1,0,0:0:0:0:
182,192,249887,1,0,0:0:0:0:
475,192,249972,1,0,0:0:0:0:
402,192,249972,1,0,0:0:0:0:
256,192,250057,1,0,0:0:0:0:
109,192,250142,1,0,0:0:0:0:
329,192,250142,1,0,0:0:0:0:
402,192,250226,1,0,0:0:0:0:
475,192,250311,1,0,0:0:0:0:
256,192,250311,1,0,0:0:0:0:
109,192,250311,1,0,0:0:0:0:
182,192,250396,1,0,0:0:0:0:
36,192,250481,1,0,0:0:0:0:
402,192,250481,1,0,0:0:0:0:
256,192,250565,1,0,0:0:0:0:
475,192,250650,1,0,0:0:0:0:
182,192,250650,1,0,0:0:0:0:
329,192,250650,1,0,0:0:0:0:
109,192,250735,1,0,0:0:0:0:
36,192,250820,1,0,0:0:0:0:
256,192,250820,1,0,0:0:0:0:
402,192,250820,1,0,0:0:0:0:
329,192,250904,1,0,0:0:0:0:
475,192,250989,1,0,0:0:0:0:
109,192,250989,1,0,0:0:0:0:
256,192,251074,1,0,0:0:0:0:
36,192,251159,1,0,0:0:0:0:
329,192,251159,1,0,0:0:0:0:
182,192,251159,1,0,0:0:0:0:
402,192,251243,1,0,0:0:0:0:
475,192,251328,1,0,0:0:0:0:
256,192,251328,1,0,0:0:0:0:
109,192,251413,1,0,0:0:0:0:
36,192,251498,1,0,0:0:0:0:
402,192,251498,1,0,0:0:0:0:
256,192,251582,1,0,0:0:0:0:
475,192,251667,1,0,0:0:0:0:
329,192,251667,1,0,0:0:0:0:
109,192,251667,1,0,0:0:0:0:
256,192,251752,1,0,0:0:0:0:
109,192,251837,1,0,0:0:0:0:
402,192,251837,1,0,0:0:0:0:
182,192,251921,1,0,0:0:0:0:
475,192,252006,1,0,0:0:0:0:
256,192,252006,1,0,0:0:0:0:
36,192,252006,1,0,0:0:0:0:
402,192,252091,1,0,0:0:0:0:
109,192,252176,1,0,0:0:0:0:
329,192,252176,1,0,0:0:0:0:
182,192,252176,1,0,0:0:0:0:
36,192,252261,1,0,0:0:0:0:
475,192,252345,1,0,0:0:0:0:
256,192,252345,1,0,0:0:0:0:
182,192,252430,1,0,0:0:0:0:
109,192,252515,1,0,0:0:0:0:
329,192,252515,1,0,0:0:0:0:
36,192,252515,1,0,0:0:0:0:
402,192,252600,1,0,0:0:0:0:
475,192,252684,1,0,0:0:0:0:
182,192,252684,1,0,0:0:0:0:
329,192,252769,1,0,0:0:0:0:
109,192,252854,1,0,0:0:0:0:
402,192,252854,1,0,0:0:0:0:
182,192,252939,1,0,0:0:0:0:
475,192,253023,1,0,0:0:0:0:
256,192,253023,1,0,0:0:0:0:
36,192,253023,1,0,0:0:0:0:
329,192,253023,1,0,0:0:0:0:
402,192,253023,1,0,0:0:0:0:
475,192,253249,1,0,0:0:0:0:
329,192,253249,1,0,0:0:0:0:
109,192,253249,1,0,0:0:0:0:
182,192,253249,1,0,0:0:0:0:
256,192,253249,1,0,0:0:0:0:
475,192,253475,1,0,0:0:0:0:
329,192,253475,1,0,0:0:0:0:
36,192,253475,1,0,0:0:0:0:
182,192,253475,1,0,0:0:0:0:
109,192,253475,1,0,0:0:0:0:
402,192,253532,1,0,0:0:0:0:
256,192,253588,1,0,0:0:0:0:
329,192,253645,1,0,0:0:0:0:
475,192,253701,1,0,0:0:0:0:
36,192,253701,1,0,0:0:0:0:
182,192,253701,1,0,0:0:0:0:
402,192,253701,1,0,0:0:0:0:
475,192,253927,1,0,0:0:0:0:
109,192,253927,1,0,0:0:0:0:
256,192,253927,1,0,0:0:0:0:
36,192,253927,1,0,0:0:0:0:
402,192,253927,1,0,0:0:0:0:
475,192,254153,1,0,0:0:0:0:
109,192,254153,1,0,0:0:0:0:
329,192,254153,1,0,0:0:0:0:
256,192,254153,1,0,0:0:0:0:
475,192,254379,1,0,0:0:0:0:
36,192,254379,1,0,0:0:0:0:
109,192,254379,1,0,0:0:0:0:
256,192,254379,1,0,0:0:0:0:
402,192,254379,1,0,0:0:0:0:
36,192,254605,1,0,0:0:0:0:
329,192,254605,1,0,0:0:0:0:
475,192,254605,1,0,0:0:0:0:
256,192,254605,1,0,0:0:0:0:
182,192,254605,1,0,0:0:0:0:
36,192,254831,1,0,0:0:0:0:
329,192,254831,1,0,0:0:0:0:
109,192,254831,1,0,0:0:0:0:
182,192,254888,1,0,0:0:0:0:
402,192,254944,1,0,0:0:0:0:
256,192,255001,1,0,0:0:0:0:
36,192,255057,1,0,0:0:0:0:
109,192,255057,1,0,0:0:0:0:
475,192,255057,1,0,0:0:0:0:
329,192,255057,1,0,0:0:0:0:
109,192,255283,1,0,0:0:0:0:
256,192,255283,1,0,0:0:0:0:
475,192,255283,1,0,0:0:0:0:
402,192,255283,1,0,0:0:0:0:
329,192,255283,1,0,0:0:0:0:
36,192,255509,1,0,0:0:0:0:
256,192,255509,1,0,0:0:0:0:
402,192,255509,1,0,0:0:0:0:
109,192,255509,1,0,0:0:0:0:
182,192,255509,1,0,0:0:0:0:
36,192,255735,1,0,0:0:0:0:
256,192,255735,1,0,0:0:0:0:
329,192,255735,1,0,0:0:0:0:
475,192,255735,1,0,0:0:0:0:
182,192,255735,1,0,0:0:0:0:
402,192,255735,1,0,0:0:0:0:
