osu file format v5

[General]
AudioFilename: Code Geass - Nippon Giadius.mp3
AudioLeadIn: 0
PreviewTime: -1
Countdown: 0
SampleSet: Normal
StackLeniency: 0.7
Mode: 0
LetterboxInBreaks: 1
EditorDistanceSpacing: 0.800000011920929

[Metadata]
Title:Nippon Giadius
Artist:CodeGeass
Creator:StrayGirl
Version:All Hail Nipponpon
Source:Niconico
Tags:

[Difficulty]
HPDrainRate:5
CircleSize:5
OverallDifficulty:5
SliderMultiplier:1.4
SliderTickRate:1

[Events]
//Background and Video events
1,0,"CodeNippon2.avi"
0,0,"code.jpg"
//Break Periods
2,34918,36395
2,41493,42148
2,49711,50367
2,53206,53655
2,61219,61463
2,74164,75025
//Storyboard Layer 0 (Background)
//Storyboard Layer 1 (Failing)
//Storyboard Layer 2 (Passing)
//Storyboard Layer 3 (Foreground)
//Storyboard Sound Samples
//Background Colour Transformations
3,100,163,162,255

[TimingPoints]
18691,410.958904109589,4,1,0,100,1,0
43348,-100,4,1,0,100,0,0
44992,-100,4,2,0,100,0,0
48280,-100,4,1,0,100,0,0
51567,-100,4,1,0,100,0,0
56704,-100,4,2,0,100,0,0
62663,-100,4,1,0,100,0,0
63074,-100,4,2,0,100,0,0
72937,-100,4,1,0,100,0,0
79512,-100,4,1,0,100,0,0
82184,-100,4,2,0,100,0,0
83006,-100,4,1,0,100,0,1

[Colours]
Combo1 : 255,150,0
Combo2 : 0,0,0
Combo3 : 5,5,240
Combo4 : 192,192,192

[HitObjects]
64,96,18690,1,0
64,96,18896,2,0,B|64:128|96:160,1,70
96,160,19307,2,0,B|64:192|64:224,1,70
64,224,19718,2,8,B|65:254|97:286,1,70
160,288,20334,6,0,B|224:320,3,70
288,320,21156,5,0
288,320,21362,2,8,B|320:320|352:288,1,70
448,224,21978,6,0,B|448:160|416:160,1,70
423,162,22389,2,0,B|416:96|384:96,1,70
395,100,22800,2,0,B|384:128|352:160,1,70
320,160,23211,5,0
288,96,23622,5,0
288,96,23827,2,0,B|224:64,1,70
224,64,24238,2,0,B|160:96,1,70
160,96,24649,2,8,B|96:64,1,70
64,224,25266,5,0
64,224,25472,2,0,B|64:256|96:288,1,70
96,288,25883,2,0,B|128:320|160:320,1,70
160,320,26294,2,8,B|192:352|224:352,1,70
320,320,26910,6,0,B|352:320|384:288,4,70
448,320,27937,1,8
448,256,28143,1,8
480,192,28554,5,8
448,96,28896,1,8
384,128,29375,5,0
384,128,29444,1,0
384,64,29581,1,8
320,96,29786,1,8
352,192,30197,6,0,B|416:256|384:320,1,140
320,320,30814,1,0
224,320,31019,5,0
160,288,31225,1,8
96,320,31430,1,8
64,192,31841,6,0,B|128:160,1,70
126,160,32252,2,0,B|192:192,1,70
192,192,32663,2,0,B|256:160,1,70
320,192,33074,1,0
256,192,33485,12,0,33896
256,192,34307,5,4
256,192,34512,1,4
256,192,34718,1,4
256,192,37595,5,4
256,192,37800,1,4
256,192,38006,1,4
160,256,38417,6,0,B|160:327,1,70
224,352,38827,2,0,B|224:262,1,70
288,256,39238,2,0,B|361:295,3,70
448,224,40266,2,4,B|480:192|480:96|448:32|224:32,1,350,4|0
96,160,43348,5,4
96,224,43554,1,4
160,192,43759,1,4
256,192,43964,1,4
320,160,44170,1,4
320,224,44375,1,4
416,192,44581,1,4
416,320,44992,5,0
352,320,45403,1,0
288,320,45814,1,0
224,320,46225,1,0
160,320,46636,5,0
160,320,46841,2,0,B|128:256,1,70
64,256,47252,2,0,B|96:320,1,70
32,320,47663,2,0,B|0:256,1,70
64,128,48280,6,0,B|154:128,1,70
96,64,48690,2,0,B|173:64,1,70
224,64,49101,1,0
288,64,49307,2,0,B|352:128,1,70
352,96,51567,6,8,B|416:128|480:192,1,140
416,224,52389,1,8
352,192,52595,1,8
352,192,52663,2,8,B|352:256,1,46.6666666666667
416,288,53006,1,8
224,160,54855,5,0
224,224,55060,1,0
160,256,55266,1,0
160,192,55471,1,0
96,160,55677,1,0
96,224,55882,1,0
96,288,56088,1,0
32,256,56293,1,0
32,192,56499,1,0
32,128,56704,6,0,B|32:64|128:32|320:32|512:32,1,490
480,96,58348,1,0
480,160,58554,2,0,B|480:320|352:320|192:320|96:320|32:320|32:224|32:128|32:64|96:32|224:32,1,840
64,128,62663,5,0
64,192,62869,1,0
64,288,63074,6,0,B|128:256,1,70
126,256,63485,2,0,B|192:288,1,70
192,288,63896,2,0,B|256:256,1,70
320,288,64307,1,0
448,288,64718,1,0
384,256,64923,1,0
448,224,65129,1,0
384,192,65334,1,0
448,160,65540,1,0
384,128,65745,2,0,C|448:96,1,70
384,64,66362,5,0
320,96,66567,1,0
192,64,67184,1,0
128,96,67389,1,0
32,192,68211,1,0
96,320,69033,1,0
160,288,69238,1,0
288,320,69649,6,0,C|352:288,1,70
352,320,70129,1,0
416,288,70471,2,0,C|480:320,1,70
480,288,70951,1,0
480,224,71293,2,0,B|480:128|384:128,3,140
256,192,72937,5,0
256,192,73006,12,0,73759
256,192,73964,5,0
64,160,76430,5,0
64,224,76636,1,0
128,288,76841,6,0,B|128:210,1,70
128,160,77252,2,0,B|128:85,1,70
192,128,77663,1,0
256,128,77869,1,0
320,128,78074,1,0
320,192,78280,1,0
320,256,78485,1,0
384,256,78690,1,0
448,224,78896,1,4
384,160,79101,6,4,B|416:192|384:224,1,70
320,288,79718,6,0,B|256:352,1,70
256,288,80129,1,0
192,320,80334,1,0
192,256,80540,2,0,B|128:320,1,70
128,256,80951,1,0
64,320,81362,6,0,B|0:256,1,70
14,270,81773,2,0,B|64:192,1,70
96,128,82184,1,0
32,96,82389,1,0
96,64,82595,1,0
192,64,83006,6,0,B|256:32,1,70
254,32,83417,2,0,B|288:96,1,70
352,64,83827,1,0
352,64,83964,1,0
416,96,84238,2,0,B|480:64,1,70
480,128,84649,6,0,B|416:160,1,70
384,160,85060,1,0
320,160,85266,1,0
352,224,85471,2,0,B|288:256,1,70
289,255,85882,1,0
352,288,86293,5,0
288,320,86498,2,0,B|224:288,2,70
224,288,87115,1,0
224,288,87321,2,0,B|160:320,2,70
128,224,88143,5,4
128,160,88348,1,4
128,160,88485,1,4
192,192,88759,1,4
256,160,88964,1,4
320,192,89170,1,4
