osu file format v9

[General]
AudioFilename: code red - 18 (dan winter radio edit).mp3
AudioLeadIn: 0
PreviewTime: 68812
Countdown: 0
SampleSet: Normal
StackLeniency: 0.4
Mode: 0
LetterboxInBreaks: 0
EpilepsyWarning: 1

[Editor]
Bookmarks: 82955
DistanceSpacing: 1.2
BeatDivisor: 4
GridSize: 8

[Metadata]
Title:18 Mne Uzhe (Dan Winter Radio Edit)
Artist:Code Red
Creator:jericho2442
Version:Hardcore Rave!!!
Source:
Tags:SteRRuM

[Difficulty]
HPDrainRate:7
CircleSize:4
OverallDifficulty:8
ApproachRate:8
SliderMultiplier:2.1
SliderTickRate:1

[Events]
//Background and Video events
0,0,"BG.jpg"
//Break Periods
2,96441,109205
2,137583,143919
//Storyboard Layer 0 (Background)
//Storyboard Layer 1 (Fail)
//Storyboard Layer 2 (Pass)
//Storyboard Layer 3 (Foreground)
//Storyboard Sound Samples
//Background Colour Transformations
3,100,0,0,0

[TimingPoints]
241,428.571428571429,4,2,0,65,1,0
25955,-100,4,1,0,34,0,0
27562,-100,4,1,1,80,0,0
55312,-100,4,1,2,80,0,0
66133,-100,4,1,2,50,0,0
68812,-100,4,1,2,80,0,1
96241,-100,4,1,0,80,0,0
109741,-100,4,1,1,80,0,0
144241,-100,4,1,2,80,0,0
150955,-100,4,1,1,80,0,0
151383,-100,4,1,2,80,0,0
178526,-100,4,1,1,80,0,1
191812,-100,4,1,1,80,0,0

[Colours]
Combo1 : 128,0,128
Combo2 : 0,255,255
Combo3 : 0,0,255

[HitObjects]
32,240,14383,1,2
32,152,14598,1,0
96,104,14812,1,2
168,152,15026,1,0
168,240,15241,1,2
96,288,15455,1,0
32,240,15669,1,2
480,240,16098,5,2
480,152,16313,1,0
416,104,16527,1,2
344,152,16741,1,0
344,240,16956,1,2
416,288,17170,1,0
480,240,17384,1,2
256,32,17812,5,2
200,96,18026,1,0
120,120,18241,1,2
40,96,18455,1,0
56,176,18669,1,2
136,200,18883,1,0
216,176,19098,1,2
256,352,19526,5,2
312,288,19740,1,0
392,264,19955,1,2
472,288,20169,1,0
456,208,20383,1,2
376,184,20597,1,0
296,208,20812,1,2
32,352,21241,5,2
112,352,21455,1,0
184,312,21669,1,2
208,232,21883,1,0
184,152,22098,1,2
112,112,22312,1,0
32,112,22526,1,2
480,112,22955,5,2
400,112,23169,1,0
328,152,23383,1,6
328,312,23812,1,2
400,352,24026,1,0
480,352,24240,5,6
368,232,24669,1,6
200,232,25098,1,4
120,200,25312,1,4
184,152,25526,1,4
184,152,25633,1,0
184,152,25741,1,4
184,152,25848,1,0
208,120,25955,2,4,B|232:88,16,26.25
256,32,27669,5,4
88,32,28098,2,0,B|56:80|88:144,1,105,0|0
144,192,28526,2,0,B|176:144|144:80,1,105,2|0
216,32,28955,1,0
280,136,29169,1,0
216,248,29383,1,2
424,352,29812,6,0,B|456:304|424:240,1,105,0|0
368,192,30240,2,0,B|336:240|368:304,1,105,2|0
296,352,30669,1,0
232,248,30883,1,0
296,136,31097,1,2
32,352,31526,6,0,B|168:352,1,105
168,272,31955,2,0,B|48:272,1,105,2|0
32,192,32383,1,0
152,144,32598,1,0
184,24,32812,1,2
480,32,33241,6,0,B|344:32,1,105
344,112,33670,2,0,B|464:112,1,105,2|0
480,192,34098,1,0
360,240,34313,1,0
328,360,34527,1,2
24,192,34955,6,0,B|24:128|88:104,1,105,8|0
160,107,35383,2,0,B|209:127|212:190,1,105,2|0
296,192,35812,1,8
416,152,36026,1,0
448,32,36241,1,2
485,190,36669,6,0,B|485:254|421:278,1,105,8|0
349,275,37098,2,0,B|299:254|296:191,1,105,2|0
213,190,37526,1,8
93,230,37740,1,0
61,350,37955,1,2
256,32,38383,6,0,B|256:144,1,105,8|0
328,96,38812,2,0,B|328:208,1,105,2|0
400,152,39241,1,8
400,280,39455,1,0
296,352,39669,1,2
256,32,40098,6,0,B|256:144,1,105,8|0
184,96,40527,2,0,B|184:208,1,105,2|0
112,152,40956,1,8
112,280,41170,1,0
216,352,41384,1,2
480,160,41812,6,0,B|400:72,1,105,8|0
480,232,42241,2,0,B|400:304,1,105,2|0
344,192,42669,1,8
216,192,42883,1,0
88,192,43098,2,0,B|88:128|152:40|256:72,1,210,2|8
216,192,43741,5,0
224,320,43955,2,0,B|296:320|312:264,1,105,2|0
432,272,44383,2,0,B|432:160,1,105,8|0
432,40,44812,2,0,B|376:32|328:80|328:80|224:80,1,210,2|8
104,80,45455,5,0
80,200,45669,2,0,B|48:328,1,105,2|0
136,200,46098,2,0,B|168:328,1,105,8|0
192,176,46526,2,0,B|256:264|256:264|320:168,1,210,2|8
376,288,47169,5,0
408,168,47383,2,0,B|440:40,1,105,2|0
352,168,47812,2,0,B|320:40,1,105,8|0
296,192,48240,2,0,B|232:104|232:104|168:200,1,210,2|8
48,192,48883,5,0
16,272,49098,1,2
48,352,49312,1,0
128,352,49526,1,8
200,312,49741,1,0
272,352,49955,2,0,B|400:368|432:224,1,210,2|8
432,160,50598,5,0
368,104,50812,1,2
288,104,51026,1,0
232,168,51241,1,8
152,168,51455,1,0
72,168,51669,2,0,B|76:232|136:248|136:248|88:352,1,210,2|8
176,352,52312,5,0
216,280,52526,1,2
256,352,52741,1,0
296,280,52955,1,8
336,352,53169,1,0
376,280,53383,1,2
440,224,53598,1,0
376,176,53812,5,8
336,104,54026,1,0
296,176,54241,1,2
256,104,54455,1,0
216,176,54669,1,8
176,104,54883,1,0
136,176,55098,1,2
32,352,55526,5,2
32,352,55741,1,2
32,352,55955,1,2
160,352,56169,1,2
256,272,56383,1,2
304,152,56598,1,8
280,24,56812,1,4
480,352,57241,5,4
480,352,57456,1,4
480,352,57670,1,4
352,352,57884,1,4
256,272,58098,1,4
208,152,58313,1,2
232,24,58527,1,8
448,152,58955,5,8
320,152,59169,1,4
440,176,59383,1,8
328,128,59598,1,4
424,200,59812,1,8
344,104,60026,1,4
400,216,60241,1,8
48,152,60669,5,8
176,152,60883,1,4
56,128,61097,1,8
168,176,61312,1,4
72,104,61526,1,8
152,200,61740,1,4
96,88,61955,1,4
256,344,62383,5,2
256,344,62598,1,2
256,344,62812,1,2
224,224,63026,1,2
256,104,63241,1,2
360,176,63455,1,8
392,56,63669,1,4
32,32,64098,5,4
32,32,64312,1,4
32,32,64526,1,4
32,160,64741,1,4
144,112,64955,1,4
256,160,65169,1,2
368,112,65383,1,8
480,352,65812,5,8
480,352,66026,1,4
352,352,66241,2,0,B|312:360|296:320,1,52.5,2|0
256,304,66455,2,0,B|224:288|192:312,1,52.5,8|0
168,352,66669,2,0,B|136:368|104:344,1,52.5,2|0
64,320,66883,2,0,B|32:296|56:264,1,52.5,8|0
72,216,67098,6,0,B|88:176|64:160,1,52.5,2|0
32,120,67312,2,0,B|16:80|40:64,1,52.5,8|0
88,40,67526,1,2
152,40,67633,1,0
200,80,67741,1,8
248,40,67848,1,0
312,40,67955,1,2
480,352,68812,5,0
224,352,69241,1,2
352,352,69455,1,2
288,248,69669,1,2
416,248,69883,1,2
352,136,70098,1,2
480,136,70312,1,8
416,24,70526,1,4
96,360,70955,5,4
32,248,71169,1,4
160,248,71383,1,4
96,136,71598,1,4
224,136,71812,1,4
160,32,72026,1,2
288,32,72240,1,8
224,368,72669,6,0,B|160:368|144:304,1,105,8|4
288,368,73098,2,0,B|352:368|368:304,1,105,8|4
256,256,73526,2,0,B|256:152,1,105,8|4
256,24,73955,1,2
480,144,74383,6,0,B|456:272,1,105,8|4
376,152,74812,2,0,B|288:240,1,105,8|4
272,104,75241,2,0,B|168:112,1,105,8|4
160,240,75669,1,4
384,352,76098,6,0,B|456:352|464:288,1,105,2|2
280,352,76526,2,0,B|392:352,1,105,2|2
176,352,76955,2,0,B|288:352,1,105,2|8
72,352,77383,1,4
128,32,77812,6,4,B|56:32|48:96,1,105
232,32,78240,2,4,B|120:32,1,105
336,32,78669,2,0,B|224:32,1,105,4|2
440,32,79097,1,8
32,192,79526,6,0,B|88:160|144:200,1,105,8|4
192,192,79848,1,0
256,192,79955,2,0,B|312:160|368:200,1,105,8|4
416,192,80276,1,0
408,256,80383,2,0,B|352:288|296:248,1,105,8|4
248,256,80704,1,0
184,256,80812,1,8
32,56,81241,5,8
32,184,81455,2,0,B|8:216|40:248,2,52.5,4|0|8
160,184,81883,1,4
96,296,82098,1,8
160,184,82312,2,0,B|184:152|152:120,2,52.5,4|0|4
224,352,82955,6,0,B|288:352,2,52.5,2|0|2
96,352,83383,1,2
160,248,83597,1,2
120,200,83705,1,0
120,136,83812,1,2
160,88,83919,1,0
200,136,84026,1,8
328,136,84240,1,4
272,384,84669,6,0,B|272:312,2,52.5,4|0|4
360,288,85097,1,4
480,256,85312,1,4
432,216,85419,1,0
400,160,85526,1,4
432,104,85633,1,0
480,64,85740,1,2
360,32,85955,1,8
32,160,86383,5,8
32,160,86490,1,0
32,160,86597,1,4
144,216,86812,1,8
112,336,87026,1,4
168,368,87133,1,0
224,336,87240,1,8
280,368,87347,1,0
336,336,87455,1,4
464,336,87669,1,8
400,96,88097,5,8
400,160,88205,1,0
400,224,88312,1,4
272,224,88526,1,8
144,224,88740,1,4
88,200,88847,1,0
48,152,88955,1,8
48,88,89062,1,0
80,32,89169,1,4
184,104,89383,1,4
480,192,89812,5,2
352,200,90026,1,2
280,96,90241,1,2
208,200,90455,1,2
144,200,90562,1,0
80,208,90669,1,2
32,248,90776,1,0
32,312,90883,1,8
160,312,91098,1,4
480,352,91526,6,0,B|416:368|424:336|352:360,1,105,4|4
248,352,91955,1,4
312,248,92169,1,4
376,248,92276,1,0
432,216,92383,1,4
456,160,92491,1,0
440,96,92598,1,2
320,128,92812,1,8
32,32,93241,6,0,B|96:48|96:104,3,105,8|4|8|4
224,104,94098,1,8
352,104,94312,2,0,B|352:48|416:32,1,105,4|8
256,192,94955,12,4,96241
32,32,109955,5,6
256,336,110383,1,2
480,32,110812,1,2
136,192,111241,1,2
480,352,111669,5,6
256,48,112098,1,2
32,352,112526,1,2
376,192,112955,1,2
24,56,113383,5,6
184,352,113812,1,2
256,24,114241,1,2
488,264,114669,1,2
296,40,115098,5,6
256,328,115526,1,2
216,40,115955,1,2
328,312,116383,1,2
256,120,116812,5,6
256,264,117241,1,2
208,128,117669,1,2
304,240,118098,1,2
256,76,118526,5,6
256,307,118955,1,2
332,89,119383,1,2
179,268,119812,1,2
256,35,120241,5,6
256,348,120670,1,2
151,52,121098,1,2
360,296,121527,1,2
256,192,121955,5,6
256,192,122169,12,4,123669
32,32,124098,6,0,B|104:32|120:104,1,105,8|0
120,208,124526,2,0,B|120:272|200:296,1,105,2|0
240,176,124955,2,0,B|320:96,1,105,8|0
416,176,125383,1,2
256,368,125812,6,0,B|136:368,1,105,8|0
40,304,126241,2,0,B|0:240|56:184,1,105,2|0
120,112,126669,2,0,B|176:72|240:128,1,105,8|0
296,208,127098,1,2
480,32,127526,6,0,B|416:32|400:96,1,105,8|0
272,88,127955,2,0,B|240:136|280:208,1,105,2|0
200,288,128383,2,0,B|216:352|304:352,1,105,8|0
402,351,128812,1,2
32,192,129241,6,0,B|32:128|88:104,1,105,8|0
184,184,129669,2,0,B|184:248|128:272,1,105,2|0
224,352,130098,2,0,B|272:384|336:352,1,105,8|0
448,360,130526,1,2
480,32,130955,6,0,B|432:72|368:24,1,105,8|0
256,32,131383,1,2
136,80,131598,1,0
88,200,131812,2,0,B|64:256|96:304,1,105,8|0
208,248,132241,1,2
480,352,132669,6,0,B|480:288|416:264,1,105,8|0
304,248,133098,1,2
232,144,133312,1,0
112,96,133526,2,0,B|40:96|16:168,1,105,8|0
24,272,133955,1,2
256,32,134383,6,0,B|256:88|320:128,1,105,8|0
184,136,134812,2,0,B|232:192|216:264,1,105,2|0
344,208,135241,2,0,B|344:264|408:304,1,105,8|0
280,344,135669,1,2
24,352,136098,5,8
24,224,136312,1,0
104,120,136526,1,2
104,120,136955,5,8
216,64,137169,1,0
328,120,137383,1,4
32,32,144669,5,2
200,32,144955,1,2
232,88,145098,2,0,B|272:160|360:136,1,140,2|2
368,200,145526,2,0,B|290:224|295:306,1,140,2|8
232,304,145955,1,4
32,192,146383,5,4
160,192,146669,1,4
96,192,146812,2,0,B|96:240|152:272|200:240,1,140,4|4
224,184,147241,2,0,B|224:136|283:99|328:136,1,140,4|2
288,184,147669,1,8
480,352,148098,6,0,B|440:352|440:256|376:256,1,140,2|8
320,256,148526,2,0,B|267:260|265:351|225:351,1,140,2|8
160,352,148955,2,0,B|120:352|120:256|56:256,1,140,2|8
64,192,149383,2,0,B|116:187|118:96|158:96,1,140,2|8
224,96,149812,2,0,B|264:96|264:192|328:192,1,140,2|8
400,192,150241,5,0
256,32,151098,1,0
256,32,151526,5,2
256,160,151812,1,2
256,96,151955,1,2
152,160,152241,1,2
152,224,152383,1,2
64,312,152669,1,8
64,248,152812,1,4
256,352,153241,5,4
256,224,153527,1,4
256,288,153670,1,4
360,224,153956,1,4
360,160,154098,1,4
448,72,154384,1,2
448,136,154527,1,8
32,32,154955,5,8
104,136,155241,2,0,B|144:200,1,70,4|8
224,288,155669,1,4
224,288,155812,1,8
309,195,156098,2,0,B|346:135,1,70,4|8
32,352,156669,5,8
32,224,156955,2,0,B|32:144,1,70,4|8
152,192,157383,2,0,B|152:112,1,70,4|8
272,152,157812,2,4,B|272:240,1,70
480,352,158383,5,2
480,224,158669,1,2
480,224,158812,1,2
416,112,159098,1,2
416,112,159241,1,2
296,72,159526,1,8
296,72,159669,1,4
32,352,160098,5,4
32,224,160384,1,4
32,224,160527,1,4
96,112,160813,1,4
96,112,160956,1,4
216,72,161241,1,2
216,72,161384,1,8
256,352,161812,5,8
192,240,162098,1,4
192,240,162241,1,8
320,240,162526,1,4
320,240,162669,1,8
125,103,162955,1,4
125,103,163098,1,8
388,103,163383,1,4
388,103,163526,1,0
256,8,163812,1,4
256,8,163955,5,8
256,352,164383,1,8
32,24,164812,1,4
32,192,165241,6,0,B|120:192|120:288,1,140,2|2
120,344,165669,2,0,B|272:344,1,140,2|2
261,280,166098,2,0,B|263:194|348:193,1,140,2|8
408,192,166526,2,0,B|496:184|480:88,1,140,4|0
440,48,166955,6,0,B|288:48,1,140,4|4
280,104,167383,2,0,B|128:104,1,140,4|4
120,160,167812,2,0,B|56:200|72:296,1,140,4|2
120,320,168241,2,0,B|192:280|264:328,1,140,8|0
304,360,168669,6,0,B|448:360,1,140,8|4
472,304,169098,2,0,B|424:232|480:168,1,140,8|4
432,128,169526,2,0,B|360:72|296:136,1,140,8|4
264,176,169955,2,0,B|314:233|266:305,1,140,8|0
208,304,170383,6,0,B|157:246|205:174,1,140,8|4
200,112,170812,2,0,B|136:72|65:112,1,140,8|4
64,176,171241,2,0,B|16:248|72:312,1,140,8|4
112,352,171669,1,4
256,40,172098,6,0,B|272:120|352:128,1,140,2|2
352,192,172526,2,0,B|496:192,1,140,2|2
256,344,172955,6,0,B|272:264|352:256,1,140,2|8
352,192,173383,2,0,B|496:192,1,140,4|0
256,40,173812,6,0,B|240:120|160:128,1,140,4|4
160,192,174240,2,0,B|16:192,1,140,4|4
256,344,174669,6,0,B|240:264|160:256,1,140,4|2
160,192,175097,2,0,B|16:192,1,140,8|0
256,32,175526,6,0,B|256:176,1,140,2|8
320,168,175955,2,0,B|320:24,1,140,2|8
488,32,176383,6,0,B|488:176,1,140,2|8
424,168,176812,1,2
360,344,177241,1,2
168,344,177669,1,2
104,168,178098,1,2
256,32,178526,5,4
488,32,178955,1,8
464,160,179169,1,0
376,248,179383,1,2
256,288,179598,1,0
136,248,179812,1,8
48,160,180026,1,0
24,32,180241,1,2
24,32,180669,5,8
152,32,180883,1,0
248,120,181098,1,2
256,248,181312,1,0
264,120,181526,1,8
352,32,181741,1,0
480,32,181955,1,2
480,32,182383,6,0,B|480:152,1,105,8|0
440,256,182812,2,0,B|432:328|352:320,1,105,2|0
248,360,183241,2,0,B|136:360,1,105,8|0
24,320,183669,1,2
24,320,184098,6,0,B|24:208,1,105,8|0
144,176,184526,2,0,B|144:96|224:96,1,105,2|0
288,8,184955,2,0,B|392:8,1,105,8|0
480,96,185383,1,2
256,352,185812,5,8
128,352,186026,1,0
192,248,186241,1,2
320,248,186455,1,0
384,352,186669,1,8
320,248,186883,1,0
192,248,187098,1,2
256,32,187526,5,8
128,32,187740,1,0
192,136,187955,1,2
320,136,188169,1,0
384,32,188383,1,8
320,136,188597,1,0
192,136,188812,1,2
40,336,189241,5,8
168,336,189455,2,0,B|224:312|288:344,1,105,0|2
400,336,189883,2,0,B|432:280|400:224,1,105,0|8
288,192,190312,1,0
160,192,190526,5,2
104,160,190633,1,0
48,192,190741,1,0
48,64,190955,1,8
104,32,191062,1,0
160,64,191169,1,0
264,128,191383,1,2
328,128,191491,1,0
384,96,191598,1,8
440,128,191705,1,0
432,192,191812,2,0,B|376:224|328:184,1,105,8|0
