osu file format v9

[General]
AudioFilename: code red - 18 (dan winter radio edit).mp3
AudioLeadIn: 0
PreviewTime: 68812
Countdown: 0
SampleSet: Normal
StackLeniency: 0.4
Mode: 0
LetterboxInBreaks: 0
EpilepsyWarning: 1

[Editor]
Bookmarks: 77812,82955
DistanceSpacing: 0.7
BeatDivisor: 2
GridSize: 8

[Metadata]
Title:18 Mne Uzhe (Dan Winter Radio Edit)
Artist:Code Red
Creator:jericho2442
Version:Dancehall Rave!!
Source:
Tags:SteRRuM

[Difficulty]
HPDrainRate:4
CircleSize:3
OverallDifficulty:4
ApproachRate:4
SliderMultiplier:1.3
SliderTickRate:1

[Events]
//Background and Video events
0,0,"BG.jpg"
//Break Periods
2,55298,67492
2,96441,108635
2,137583,143349
//Storyboard Layer 0 (Background)
//Storyboard Layer 1 (Fail)
//Storyboard Layer 2 (Pass)
//Storyboard Layer 3 (Foreground)
//Storyboard Sound Samples
//Background Colour Transformations
3,100,0,0,0

[TimingPoints]
241,428.571428571429,4,2,0,65,1,0
25955,-100,4,1,0,34,0,0
27562,-100,4,1,1,80,0,0
68812,-100,4,1,2,80,0,1
96241,-100,4,1,0,80,0,0
109741,-100,4,1,1,80,0,0
144241,-100,4,1,2,80,0,0
150955,-100,4,1,1,80,0,0
151383,-100,4,1,2,80,0,0
178526,-100,4,1,1,80,0,1
191812,-100,4,1,0,80,0,0

[Colours]
Combo1 : 128,0,128
Combo2 : 0,255,255
Combo3 : 0,0,255

[HitObjects]
32,32,14383,1,2
120,32,14812,1,0
192,88,15241,1,2
200,176,15669,1,0
176,264,16098,5,2
248,320,16526,1,0
320,264,16955,1,2
392,320,17383,1,0
400,232,17812,6,0,B|392:160|456:120,2,130,2|0|2
312,232,19098,1,0
312,144,19526,6,0,B|232:128|240:40,1,130,2|0
152,48,20383,2,0,B|152:184,1,130,2|0
64,216,21241,5,2
104,296,21669,1,0
192,296,22098,1,2
240,216,22526,1,0
288,296,22955,6,0,B|424:352,1,130,2|0
392,256,23812,2,0,B|496:168,1,130,2|0
416,120,24669,1,2
336,72,25098,5,4
336,72,25312,1,4
336,72,25526,1,4
336,72,25741,1,4
256,192,25955,12,4,27669
32,40,28098,5,8
32,40,28312,1,0
32,40,28526,2,0,B|32:144|160:144|160:264,1,260,2|2
248,256,29812,5,8
248,256,30026,1,0
248,256,30240,2,0,B|248:152|376:152|376:32,1,260,2|2
464,40,31526,5,8
464,40,31741,1,0
464,40,31955,2,0,B|432:160|504:216|456:320,1,260,2|2
384,344,33241,5,8
384,256,33669,1,2
384,344,34098,2,0,B|304:304|240:360,1,130,8|2
168,344,34955,5,8
168,344,35169,1,0
168,344,35383,2,0,B|48:336|50:173|193:183,1,260,2|2
208,264,36669,5,8
208,264,36883,1,0
208,264,37098,2,0,B|327:251|319:88|177:103,1,260,2|2
256,32,38383,5,8
256,32,38598,1,0
256,32,38812,2,0,B|352:16|456:56|480:160,1,260,2|2
480,224,40098,5,8
456,312,40526,1,2
376,352,40955,2,0,B|248:352,1,130,8|2
152,352,41812,6,0,B|152:264|72:256,3,130,8|2|8|2
32,176,43526,6,0,B|168:176,3,130,8|2|8|2
232,112,45241,6,0,B|272:176|232:240,3,130,8|2|8|2
288,304,46955,6,0,B|352:264|424:312,3,130,8|2|8|2
472,232,48669,5,8
480,184,48883,1,0
480,136,49098,2,0,B|472:56|384:48,1,130,2|8
304,40,49955,1,2
216,40,50383,5,8
168,40,50598,1,0
120,48,50812,2,0,B|56:88|72:168,1,130,2|8
72,248,51669,1,2
96,336,52098,5,8
136,360,52312,1,0
176,336,52526,2,0,B|312:336,1,130,2|8
400,336,53383,1,2
256,192,53812,12,4,55098
256,192,68812,5,4
256,104,69241,6,0,B|208:96|184:144,1,65,2|2
160,152,69669,2,0,B|80:152|80:256,1,130,2|2
80,328,70526,1,4
168,352,70955,6,0,B|216:360|240:312,1,65,4|4
264,304,71383,2,0,B|344:304|344:200,1,130,4|4
344,128,72241,1,8
344,40,72669,6,0,B|280:40,1,65,8|4
232,40,73098,2,0,B|168:88|104:32,1,130,8|4
40,96,73955,1,8
40,184,74383,6,0,B|104:184,1,65,8|4
152,184,74812,2,0,B|216:136|280:192,1,130,8|4
344,128,75669,1,4
432,128,76098,6,0,B|432:176|480:192,1,65,2|2
464,232,76526,2,0,B|464:312|384:328,2,130,2|2|4
376,232,77812,6,0,B|296:232,1,65,4|4
264,232,78241,2,0,B|200:200|120:240,2,130,4|4|8
288,144,79526,6,0,B|304:112|288:80,1,65,8|4
248,56,79955,2,0,B|184:24|120:56,2,130,8|4|8
184,120,81241,6,0,B|184:200,1,65,8|4
184,232,81669,2,0,B|184:312|272:352,2,130,8|4|4
272,248,82955,6,0,B|336:208|408:256,1,130,2|2
488,248,83812,2,0,B|488:168,2,65,2|8|4
456,336,84669,6,0,B|392:384|328:328,1,130,4|4
248,336,85526,2,0,B|208:336|184:376,2,65,4|2|8
288,256,86383,6,0,B|288:176|216:160,1,130,8|4
128,160,87241,2,0,B|64:160,2,65,8|4|8
176,88,88098,6,0,B|240:48|312:96,1,130,8|4
392,88,88955,2,0,B|456:88,2,65,8|4|4
392,176,89812,5,2
448,248,90241,1,2
392,320,90669,2,0,B|344:320|336:352,2,65,2|8|4
336,248,91526,5,4
280,176,91955,1,4
224,248,92383,2,0,B|152:248,2,65,4|2|8
256,192,93241,12,4,96241
56,40,109955,6,0,B|192:40,3,130,6|2|2|2
192,128,111669,6,0,B|336:128,3,130,6|2|2|2
328,40,113383,6,0,B|464:40,3,130,4|2|2|2
456,128,115098,6,0,B|312:128,3,130,4|2|2|2
304,216,116812,5,6
368,280,117241,1,2
304,344,117669,1,2
240,280,118098,1,2
176,216,118526,5,6
112,280,118955,1,2
176,344,119383,1,2
240,280,119812,1,2
304,216,120241,5,6
368,152,120669,1,2
304,88,121098,1,2
240,152,121526,1,2
152,152,121955,5,4
40,40,124098,5,8
88,40,124312,1,0
136,40,124526,2,0,B|208:72|280:32,1,130,2|8
304,40,125169,1,0
352,40,125383,1,2
352,128,125812,5,8
304,128,126026,1,0
256,128,126240,2,0,B|184:160|112:120,1,130,2|8
88,128,126883,1,0
40,128,127097,1,2
40,216,127526,5,8
64,256,127741,1,0
112,256,127955,2,0,B|176:232|240:256,1,130,2|8
288,256,128598,1,0
312,216,128812,1,2
400,216,129241,5,8
440,192,129455,1,0
448,144,129669,2,0,B|440:64|360:40,1,130,2|8
328,48,130312,1,0
280,48,130526,1,2
192,48,130955,6,0,B|112:48|104:136,2,130,8|2|8
192,96,132026,1,0
192,144,132241,1,2
192,240,132669,6,0,B|272:240|280:152,2,130,8|2|8
192,192,133740,1,0
192,144,133955,1,2
104,168,134383,6,0,B|24:176|24:256,1,130,8|2
80,328,135241,1,8
128,328,135455,1,0
176,328,135669,1,2
264,328,136098,6,0,B|336:288|400:336,3,130,8|2|8|4
256,40,144669,6,0,B|336:32|368:112,1,130,2|2
368,192,145526,2,0,B|368:264|416:280,1,86.6666666666667,2|8
400,304,145955,1,4
320,344,146383,6,0,B|240:312|184:352,1,130,4|4
104,344,147241,2,0,B|64:312|72:256,1,86.6666666666667,4|2
72,240,147669,1,8
136,176,148098,6,0,B|224:184|240:104,2,130,8|4|8
152,88,149383,6,0,B|176:16|264:24,2,130,8|4|8
480,24,151098,5,4
392,24,151526,2,0,B|304:24|288:104,1,130,2|2
200,96,152383,2,0,B|200:208,1,86.6666666666667,2|8
200,216,152812,1,4
256,288,153241,6,0,B|336:248|400:304,1,130,4|4
472,288,154098,2,0,B|496:240|464:192,1,86.6666666666667,4|2
472,176,154526,1,8
472,88,154955,6,0,B|392:96|360:24,1,130,8|8
272,32,155812,2,0,B|176:32,1,86.6666666666667,8|4
152,32,156241,1,8
64,64,156669,6,0,B|16:128|64:200,1,130,8|8
56,280,157526,2,0,B|112:280|112:336,1,86.6666666666667,8|4
144,328,157955,1,4
232,328,158383,6,0,B|320:328|344:232,2,130,2|2|2
232,264,159526,1,8
232,232,159669,1,4
224,144,160098,6,0,B|296:176|280:104|384:160,2,130,4|4|4
160,144,161241,1,2
128,144,161383,1,8
144,56,161812,6,0,B|248:72|280:0,2,130,8|4|8
80,56,162955,1,4
64,80,163098,1,8
80,168,163526,6,8,B|80:304,3,130,8|8|8|4
160,344,165241,5,2
248,344,165669,1,2
336,344,166098,2,0,B|400:344|400:288,1,86.6666666666667,10|8
400,272,166526,1,4
448,200,166955,5,4
400,128,167383,1,4
312,128,167812,2,0,B|256:128|248:72,1,86.6666666666667,4|2
216,80,168241,1,8
128,80,168669,5,8
80,160,169098,1,8
128,240,169526,2,0,B|128:304|176:320,1,86.6666666666667,8|4
192,312,169955,1,8
264,256,170383,5,8
336,312,170812,1,8
408,256,171241,2,0,B|464:256|464:192,1,86.6666666666667,8|4
464,176,171669,1,4
424,96,172098,6,0,B|304:16,1,130,2|2
224,24,172955,2,0,B|152:80,1,86.6666666666667,2|8
136,96,173383,1,4
136,184,173812,6,0,B|104:256|136:320,1,130,4|4
208,256,174669,2,0,B|304:256,1,86.6666666666667,4|2
328,256,175098,1,8
408,208,175526,6,0,B|472:160|448:80,1,130,8|8
368,128,176383,2,0,B|288:96,1,86.6666666666667,8|4
256,88,176812,5,0
168,88,177241,1,8
104,152,177669,1,8
104,240,178098,1,8
104,328,178526,5,4
192,352,178955,1,8
240,352,179169,1,0
288,352,179383,2,0,B|368:352|376:264,1,130,2|8
424,272,180026,1,0
472,272,180241,1,2
472,184,180669,5,8
424,184,180884,1,0
375,182,181098,2,0,B|360:103|286:102,1,130,2|8
240,104,181741,1,0
192,104,181955,1,2
104,104,182383,5,8
64,120,182598,1,0
56,168,182812,2,0,B|56:304,1,130,2|8
64,344,183455,1,0
104,360,183670,1,2
192,360,184098,5,8
232,344,184313,1,0
240,296,184527,2,0,B|240:160,1,130,2|8
232,120,185170,1,0
192,104,185383,1,2
248,32,185812,5,8
336,32,186241,1,2
424,32,186669,2,0,B|456:32|480:64,2,65,8|0|2
384,112,187526,5,8
296,112,187955,1,2
208,112,188383,2,0,B|176:112|152:80,2,65,8|0|2
256,192,189241,12,4,191812
