osu file format v12

[General]
AudioFilename: Bloody Stream.mp3
AudioLeadIn: 2500
PreviewTime: 51675
Countdown: 0
SampleSet: Soft
StackLeniency: 0.7
Mode: 0
LetterboxInBreaks: 0

[Editor]
Bookmarks: 72578
DistanceSpacing: 1
BeatDivisor: 2
GridSize: 4

[Metadata]
Title:BLOODY STREAM (TV Size)
TitleUnicode:BLOODY STREAM (TV Size)
Artist:Coda
ArtistUnicode:Coda
Creator:a3272509123
Version:Normal
Source:Jojo's Bizarre Adventure
Tags:lkx_Shore opening pokedigi
BeatmapID:237712
BeatmapSetID:78027

[Difficulty]
HPDrainRate:3
CircleSize:3
OverallDifficulty:3
ApproachRate:5
SliderMultiplier:1.5
SliderTickRate:1

[Events]
//Background and Video events
Video,0,"jojo.flv"
0,0,"32113597.jpg",0,0
//Break Periods
//Storyboard Layer 0 (Background)
//Storyboard Layer 1 (Fail)
//Storyboard Layer 2 (Pass)
//Storyboard Layer 3 (Foreground)
//Storyboard Sound Samples
//Background Colour Transformations
3,100,163,162,255

[TimingPoints]
306,454.545454545455,4,2,1,70,1,0
7578,-100,4,2,2,70,0,0
36669,-100,4,2,2,30,0,0
51669,-100,4,2,1,70,0,0
53033,-100,4,2,1,70,0,1
67465,-100,4,2,1,70,0,0
67578,-100,4,2,1,70,0,1
85646,-100,4,2,1,70,0,0
85760,-100,4,2,1,70,0,1
89396,-100,4,2,1,70,0,0

[HitObjects]
84,104,306,2,0,L|176:100,1,75,4|0,0:0|0:0,0:0:0:0:
224,136,760,2,0,P|324:216|348:204,1,150,8|0,0:0|0:0,0:0:0:0:
420,100,1669,2,0,L|336:100,1,75,8|0,0:0|0:0,0:0:0:0:
280,64,2124,6,0,P|208:44|132:116,1,150,0|8,0:0|0:0,0:0:0:0:
112,148,2806,2,0,P|124:276|204:312,1,225,0|8,0:0|0:0,0:0:0:0:
352,308,3942,6,0,P|392:316|452:296,1,75,0|0,0:0|0:0,0:0:0:0:
468,248,4396,2,0,L|452:88,1,150,8|0,0:0|0:0,0:0:0:0:
316,40,5306,1,8,0:0:0:0:
244,52,5533,6,0,P|140:128|240:336,1,375,2|2,0:0|0:0,0:0:0:0:
364,332,7124,1,2,0:0:0:0:
492,252,7578,6,0,L|480:84,1,150,4|8,0:0|0:0,0:0:0:0:
436,40,8260,2,0,P|372:8|296:64,1,150,0|0,0:0|0:0,0:0:0:0:
268,104,8942,1,8,0:0:0:0:
244,252,9396,6,0,P|248:300|268:332,2,75,0|0|8,0:0|0:0|0:0,0:0:0:0:
240,176,10078,1,0,0:0:0:0:
288,120,10306,2,0,P|384:100|456:144,1,150,0|8,0:0|0:0,0:0:0:0:
464,292,11215,6,0,P|344:316|248:280,2,225,4|0|8,0:0|0:0|0:0,0:0:0:0:
356,188,13033,2,0,L|368:88,1,75
344,36,13487,2,0,P|276:24|180:80,2,150,8|0|8,0:0|0:0|0:0,0:0:0:0:
460,128,14851,6,0,L|480:216,1,75
488,276,15306,2,0,P|460:340|360:332,1,150,8|0,0:0|0:0,0:0:0:0:
256,280,16215,2,0,L|180:308,1,75,8|0,0:0|0:0,0:0:0:0:
116,336,16669,6,0,P|62:318|50:210,1,150,2|8,0:0|0:0,0:0:0:0:
168,160,17578,2,0,L|144:240,2,75,0|0|8,0:0|0:0|0:0,0:0:0:0:
208,96,18260,1,0,0:0:0:0:
268,48,18487,2,0,P|376:36|432:64,1,150,0|8,0:0|0:0,0:0:0:0:
488,40,19169,2,0,B|488:104|432:124|432:124|416:212,1,150
416,240,19851,1,8,0:0:0:0:
296,332,20306,6,0,P|248:344|160:284,1,150,2|8,0:0|0:0,0:0:0:0:
208,152,21215,2,0,P|256:140|344:200,1,150,2|8,0:0|0:0,0:0:0:0:
368,256,21896,1,8,0:0:0:0:
356,332,22124,6,0,P|440:300|420:208,1,150,4|8,0:0|0:0,0:0:0:0:
444,172,22806,2,0,L|432:8,1,150
360,8,23487,1,8,0:0:0:0:
208,12,23942,6,0,P|168:12|132:36,1,75
92,88,24396,2,0,P|77:130|104:172,1,75,8|0,0:0|0:0,0:0:0:0:
140,212,24851,2,0,P|252:200|268:140,1,150,0|8,0:0|0:0,0:0:0:0:
400,112,25760,6,0,L|412:36,2,75,0|0|8,0:0|0:0|0:0,0:0:0:0:
468,160,26442,2,0,B|428:204|376:192|376:192|376:260|304:292,1,225,0|8,0:0|0:0,0:0:0:0:
176,224,27578,6,0,L|20:244,2,150,4|8|2,0:0|0:0|0:0,0:0:0:0:
328,244,28942,2,0,L|332:156,1,75,8|0,0:0|0:0,0:0:0:0:
336,96,29396,6,0,P|272:68|176:88,2,150,4|8|0,0:0|0:0|0:0,0:0:0:0:
464,176,30760,1,8,0:0:0:0:
464,176,30987,1,0,0:0:0:0:
464,176,31215,6,0,L|476:352,2,150,2|8|2,0:0|0:0|0:0,0:0:0:0:
392,160,32351,2,0,P|352:156|304:172,2,75,0|8|0,0:0|0:0|0:0,0:0:0:0:
452,116,33033,6,0,P|408:100|376:8,1,150,0|8,0:0|0:0,0:0:0:0:
256,100,33942,2,0,L|268:188,2,75,0|0|8,0:0|0:0|0:0,0:0:0:0:
116,44,34851,6,0,P|48:148|96:224,2,225,2|2|8,0:0|0:0|0:0,0:0:0:0:
264,72,36669,6,0,P|396:72|444:120,1,150,4|8,0:0|0:0,0:0:0:0:
472,212,37578,2,0,P|340:212|292:164,1,150,8|8,0:0|0:0,0:0:0:0:
276,152,38260,1,0,0:0:0:0:
256,80,38487,6,0,P|204:32|108:56,1,150,8|8,0:0|0:0,0:0:0:0:
144,188,39396,2,0,L|100:300,2,112.5,8|2|2,0:0|0:0|0:0,0:0:0:0:
208,148,40306,6,0,P|316:132|368:172,1,150,4|8,0:0|0:0,0:0:0:0:
388,212,40987,1,0,0:0:0:0:
436,272,41215,2,0,P|475:276|520:276,2,75,2|0|8,0:0|0:0|0:0,0:0:0:0:
428,120,42124,6,0,P|372:148|256:96,1,150,2|8,0:0|0:0,0:0:0:0:
232,84,42806,2,0,P|149:66|93:94,1,150,2|2,0:0|0:0,0:0:0:0:
56,160,43487,2,0,P|48:208|72:256,1,75,8|0,0:0|0:0,0:0:0:0:
100,296,43942,6,0,P|160:340|292:260,2,225,0|0|8,0:0|0:0|0:0,0:0:0:0:
100,220,45533,1,0,0:0:0:0:
116,148,45760,6,0,L|116:68,2,75,0|0|8,0:0|0:0|0:0,0:0:0:0:
172,200,46442,1,0,0:0:0:0:
244,224,46669,2,0,P|324:244|400:208,1,150,0|8,0:0|0:0,0:0:0:0:
420,76,47578,5,2,0:0:0:0:
509,198,48032,1,2,0:0:0:0:
420,319,48487,1,2,0:0:0:0:
278,272,48941,1,2,0:0:0:0:
278,122,49396,1,2,0:0:0:0:
256,192,49510,12,2,50874,0:0:0:0:
328,100,51669,6,0,P|396:120|468:80,2,150
260,68,52806,1,0,0:0:0:0:
200,24,53033,6,0,L|180:96,1,75,4|0,0:0|0:0,0:0:0:0:
144,160,53487,2,0,P|216:224|288:208,2,150,8|0|8,0:0|0:0|0:0,0:0:0:0:
20,76,54851,6,0,L|24:156,1,75
32,224,55306,2,0,P|64:324|136:328,1,150,10|0,0:0|0:0,0:0:0:0:
248,332,56215,1,8,0:0:0:0:
248,332,56442,1,0,0:0:0:0:
248,332,56669,6,0,L|264:160,1,150,0|8,0:0|0:0,0:0:0:0:
276,108,57351,2,0,P|424:104|444:136,1,150
456,152,58033,1,8,0:0:0:0:
420,296,58487,6,0,P|448:328|456:368,2,75,0|0|8,0:0|0:0|0:0,0:0:0:0:
284,232,59396,2,0,P|220:272|128:268,1,150,0|8,0:0|0:0,0:0:0:0:
80,244,60078,1,8,0:0:0:0:
40,180,60306,6,0,L|28:76,1,75,4|0,0:0|0:0,0:0:0:0:
60,36,60760,2,0,P|120:12|208:24,1,150,10|0,0:0|0:0,0:0:0:0:
284,148,61669,2,0,P|224:172|136:160,2,150,8|0|8,0:0|0:0|0:0,0:0:0:0:
424,116,63033,2,0,P|452:144|460:204,1,75
456,252,63487,2,0,P|449:290|404:331,1,75,8|0,0:0|0:0,0:0:0:0:
368,364,63942,6,0,P|260:372|212:288,1,150,0|8,0:0|0:0,0:0:0:0:
220,276,64624,2,0,P|144:208|76:252,1,150
52,268,65306,1,8,0:0:0:0:
76,120,65760,6,0,L|264:108,1,150,4|2,0:0|0:0,0:0:0:0:
364,52,66669,2,0,L|452:24,1,75,4|2,0:0|0:0,0:0:0:0:
440,256,67578,6,0,P|408:340|320:308,1,150,4|8,0:0|0:0,0:0:0:0:
244,248,68487,2,0,L|232:160,2,75,0|2|8,0:0|0:0|0:0,0:0:0:0:
216,316,69169,1,0,0:0:0:0:
156,360,69396,6,0,P|124:376|8:324,1,150,0|8,0:0|0:0,0:0:0:0:
12,196,70306,2,0,P|44:180|160:232,1,150,2|8,0:0|0:0,0:0:0:0:
208,256,70987,1,0,0:0:0:0:
260,308,71215,6,0,L|276:384,2,75,0|0|8,0:0|0:0|0:0,0:0:0:0:
244,160,72124,2,0,P|296:64|356:64,1,150,0|8,0:0|0:0,0:0:0:0:
448,148,73033,6,0,P|396:244|336:244,2,150,0|8|0,0:0|0:0|0:0,0:0:0:0:
460,76,74169,2,0,L|472:0,2,75,2|8|8,0:0|0:0|0:0,0:0:0:0:
388,96,74851,6,0,P|308:120|232:80,1,150,4|8,0:0|0:0,0:0:0:0:
160,216,75760,2,0,P|240:240|316:200,1,150,2|8,0:0|0:0,0:0:0:0:
360,172,76442,1,0,0:0:0:0:
420,128,76669,6,0,L|488:76,2,75,2|0|8,0:0|0:0|0:0,0:0:0:0:
272,112,77578,2,0,P|240:88|188:80,1,75,2|0,0:0|0:0,0:0:0:0:
132,84,78033,2,0,P|92:92|56:128,2,75,8|0|4,0:0|0:0|0:0,0:0:0:0:
256,192,78715,12,2,80306,0:0:0:0:
156,120,80760,6,0,P|136:192|184:264,1,150,4|2,0:0|0:0,0:0:0:0:
232,296,81442,1,2,0:0:0:0:
304,312,81669,1,8,0:0:0:0:
452,292,82124,6,0,P|504:192|444:124,2,150,4|8|0,0:0|0:0|0:0,0:0:0:0:
344,188,83487,2,0,L|320:92,1,75,8|0,0:0|0:0,0:0:0:0:
288,52,83942,6,0,P|192:52|104:112,1,150,4|8,0:0|0:0,0:0:0:0:
104,140,84624,1,0,0:0:0:0:
88,212,84851,2,0,P|84:284|108:332,2,112.5,8|8|8,0:0|0:0|0:0,0:0:0:0:
256,192,85760,12,2,89396,0:0:0:0:
