osu file format v12

[General]
AudioFilename: 01 - BLOODY STREAM.mp3
AudioLeadIn: 0
PreviewTime: 50969
Countdown: 1
SampleSet: Normal
StackLeniency: 0.7
Mode: 0
LetterboxInBreaks: 0
WidescreenStoryboard: 1

[Editor]
Bookmarks: 7333,21878,36423,43696,52787,60060,67333,74605,82992
DistanceSpacing: 1
BeatDivisor: 4
GridSize: 8

[Metadata]
Title:BLOODY STREAM (TV Size)
TitleUnicode:BLOODY STREAM (TV Size)
Artist:Coda
ArtistUnicode:Coda
Creator:D33d
Version:Easy
Source:JoJo's Bizarre Adventure
Tags:Xgor ジョジョの奇妙な冒険 Joseph Joestar ジョセフ・ジョースター Part II Battle Tendency opening theme no Kimyou na Bouken
BeatmapID:302583
BeatmapSetID:115873

[Difficulty]
HPDrainRate:3
CircleSize:3
OverallDifficulty:3
ApproachRate:3
SliderMultiplier:1.44
SliderTickRate:2

[Events]
//Background and Video events
0,0,"background.jpg",0,0
Video,-160,"Jojo's Bizarre Adventure - Opening II Video.avi"
//Break Periods
2,36624,42257
2,50970,51348
//Storyboard Layer 0 (Background)
//Storyboard Layer 1 (Fail)
//Storyboard Layer 2 (Pass)
//Storyboard Layer 3 (Foreground)
//Storyboard Sound Samples
//Background Colour Transformations
3,100,163,162,255

[TimingPoints]
61,454.545454545455,4,1,0,70,1,0
30970,-99.009900990099,4,1,0,70,0,0
33242,-100,4,1,0,70,0,0
36424,-100,4,1,0,80,0,0
43470,-100,4,1,0,60,0,0
52788,-100,4,1,0,80,0,1
53242,-100,4,1,0,90,0,1
53584,-100,4,1,0,90,0,1
53924,-100,4,1,0,80,0,1
55061,-100,4,1,0,90,0,1
55402,-100,4,1,0,90,0,1
55743,-100,4,1,0,80,0,1
59038,-100,4,1,0,80,0,1
60515,-100,4,1,0,90,0,1
61197,-100,4,1,0,80,0,1
62333,-100,4,1,0,90,0,1
63015,-100,4,1,0,80,0,1
66424,-100,4,1,0,80,0,0
66652,-100,4,1,0,100,0,1
67333,-100,4,1,0,80,0,1
67788,-100,4,1,0,90,0,1
68129,-100,4,1,0,90,0,1
68470,-100,4,1,0,80,0,1
69606,-100,4,1,0,90,0,1
69947,-100,4,1,0,90,0,1
70288,-100,4,1,0,80,0,1
73583,-100,4,1,0,80,0,1
78697,-100,4,1,0,45,0,1
78811,-100,4,1,0,50,0,1
79038,-100,4,1,0,60,0,1
79265,-100,4,1,0,70,0,1
79492,-100,4,1,0,80,0,1
79720,-100,4,1,0,90,0,1
79947,-100,4,1,0,95,0,1
80061,-100,4,1,0,100,0,0
80515,-100,4,1,0,80,0,1
80544,-100,4,1,0,80,0,0
81879,-100,4,1,0,70,0,0
89152,-100,4,1,0,50,0,0

[Colours]
Combo1 : 232,18,13
Combo2 : 237,0,140
Combo3 : 0,192,245
Combo4 : 255,102,0
Combo5 : 250,220,0

[HitObjects]
48,160,7333,2,0,P|128:80|224:48,2,216,4|10|8,0:0|3:0|0:0,0:0:0:0:
48,272,9151,1,4,1:2:0:0:
400,360,10061,5,0,0:0:0:0:
464,272,10515,1,8,0:0:0:0:
464,160,10970,2,0,P|384:80|288:48,2,216,4|10|8,0:0|3:0|0:0,0:0:0:0:
464,272,12788,2,0,B|368:332|320:212|224:272,1,252,4|0,3:0|1:2,0:0:0:0:
48,224,14151,1,8,0:0:0:0:
48,112,14606,6,0,B|144:52|192:172|288:112,1,252,4|2,1:0|1:2,0:0:0:0:
456,40,15970,1,8,0:0:0:0:
512,136,16424,2,0,P|445:322|256:272,1,432,4|8,0:2|0:0,0:0:0:0:
348,208,18242,6,0,P|256:160|164:208,2,216,4|4|8,0:2|0:0|0:0,0:0:0:0:
256,272,20061,1,6,0:0:0:0:
464,160,21879,22,0,P|384:80|288:48,2,216,4|2|8,0:0|0:3|0:0,0:0:0:0:
464,272,23697,1,4,1:2:0:0:
112,360,24606,5,0,0:0:0:0:
48,272,25060,1,8,0:0:0:0:
48,160,25515,2,0,P|128:80|224:48,2,216,4|0|0,0:0|0:0|0:0,0:0:0:0:
136,216,27333,6,0,P|256:149|376:216,2,288,4|4|4,0:3|1:2|0:3,0:0:0:0:
432,328,30061,5,0,0:0:0:0:
512,248,30515,1,8,0:0:0:0:
512,136,30970,2,0,B|472:64|388:16|296:16|144:176|368:176|216:16|124:16|40:64|0:136,1,581.759988459961,4|4,0:2|1:3,0:0:0:0:
128,208,33242,2,0,B|152:260|229:275|304:208|208:208|282:275|360:260|384:208,1,288,8|8,1:0|0:0,0:0:0:0:
256,192,34606,12,4,36424,0:0:0:0:
72,136,43697,38,0,B|112:240|256:248|256:136|400:144|440:248,1,432,4|0,3:0|0:0,0:0:0:0:
440,360,45515,1,0,0:0:0:0:
72,360,46424,1,4,3:0:0:0:
56,248,46879,1,0,0:0:0:0:
156,192,47333,6,0,L|300:192,1,144,4|8,3:0|0:0,0:0:0:0:
356,288,48242,2,0,L|212:288,1,144,8|8,1:3|0:0,0:0:0:0:
96,288,49151,6,0,P|48:246|28:204,1,108,4|8,1:0|1:2,0:0:0:0:
24,128,49720,1,0,0:0:0:0:
60,56,49947,2,0,P|131:14|256:40,1,216,8|2,1:3|1:0,0:0:0:0:
0,192,52788,22,0,P|117:233|184:336,1,252,4|4,0:0|1:2,0:0:0:0:
328,192,54151,1,8,0:0:0:0:
328,48,54606,2,0,P|445:89|512:192,1,252,6|4,0:0|1:2,0:0:0:0:
16,272,56424,6,0,B|112:332|160:212|256:272,1,252,4|2,1:0|1:2,0:0:0:0:
448,336,57788,1,8,0:0:0:0:
496,200,58242,2,0,P|421:108|304:136,1,252,4|2,1:3|1:2,0:0:0:0:
0,232,60061,6,0,P|67:335|184:376,1,252,4|4,0:0|1:2,0:0:0:0:
256,192,61424,1,8,0:0:0:0:
136,112,61879,2,0,P|224:52|328:68,1,216,4|2,0:0|3:0,0:0:0:0:
352,152,62788,2,0,B|288:224|224:160|160:232,1,216,2|8,0:0|3:0,0:0:0:0:
184,316,63697,6,0,P|289:331|376:272,2,216,4|8|12,1:0|1:3|0:0,0:0:0:0:
48,232,65515,6,0,B|-3:189|-3:94|85:45|161:88|158:116|155:144|227:148|255:121,1,360,4|12,0:0|0:3,0:0:0:0:
512,192,67333,6,0,P|395:233|328:336,1,252,4|4,0:0|1:2,0:0:0:0:
184,192,68697,1,8,0:0:0:0:
184,48,69151,2,0,P|67:89|0:192,1,252,6|4,0:0|1:2,0:0:0:0:
496,272,70970,38,0,B|400:332|352:212|256:272,1,252,4|2,1:0|1:2,0:0:0:0:
64,336,72333,1,8,0:0:0:0:
16,200,72788,2,0,P|91:108|208:136,1,252,4|2,1:3|1:2,0:0:0:0:
384,368,74606,38,0,P|256:312|128:368,2,288,4|0|4,0:0|0:0|0:2,0:0:0:0:
424,72,77333,1,0,0:0:0:0:
304,144,77788,1,8,0:0:0:0:
184,72,78242,6,0,P|128:136|160:292,1,252,4|8,0:0|1:2,0:0:0:0:
232,328,79265,1,2,1:2:0:0:
316,316,79492,2,0,P|376:260|388:156,1,180,8|2,1:3|0:0,0:0:0:0:
256,192,80515,1,4,0:2:0:0:
432,256,81879,38,0,B|424:312|376:368|296:352|176:240|336:240|216:352|136:368|88:312|80:256,1,432,4|8,0:0|0:0,0:0:0:0:
80,128,83697,38,0,B|88:72|136:16|216:32|336:144|176:144|296:32|376:16|424:72|432:128,1,432,4|8,0:0|0:0,0:0:0:0:
256,192,85515,12,4,89151,3:0:0:0:
