osu file format v12

[General]
AudioFilename: A Tropical Octav3 - Coconeru.mp3
AudioLeadIn: 0
PreviewTime: -1
Countdown: 0
SampleSet: Soft
StackLeniency: 0.7
Mode: 0
LetterboxInBreaks: 1
WidescreenStoryboard: 1

[Editor]
DistanceSpacing: 1.1
BeatDivisor: 4
GridSize: 8

[Metadata]
Title:A Tropical Octav3
TitleUnicode:A Tropical Octav3
Artist:Coconeru
ArtistUnicode:Coconeru
Creator:mattdo44
Version:Hard
Source:
Tags:pony happy my little brony friendship is magic friend vinyl octavia scratch
BeatmapID:267959
BeatmapSetID:99958

[Difficulty]
HPDrainRate:5
CircleSize:4
OverallDifficulty:5
ApproachRate:5
SliderMultiplier:1.4
SliderTickRate:2

[Events]
//Background and Video events
0,0,"tavi+vinyl.jpg",0,0
//Break Periods
2,90637,97024
//Storyboard Layer 0 (Background)
//Storyboard Layer 1 (Fail)
//Storyboard Layer 2 (Pass)
//Storyboard Layer 3 (Foreground)
//Storyboard Sound Samples
//Background Colour Transformations
3,100,163,162,255

[TimingPoints]
1489.93841196605,471.888113207547,4,2,0,70,1,0
14702,471.888113207547,4,2,0,70,1,0
15173,471.888113207547,4,2,0,70,1,0
30273,471.888113207547,4,2,0,70,1,0
75574,-100,4,2,0,80,0,1
90674,-100,4,2,0,70,0,0
105775,471.888113207547,4,2,0,80,1,1
120875,471.888113207547,4,2,0,80,1,1
128189,471.888113207547,4,2,0,70,1,1
136211,-100,4,2,0,100,0,0

[Colours]
Combo1 : 255,192,0
Combo2 : 32,255,32
Combo3 : 18,124,255
Combo4 : 242,24,57

[HitObjects]
256,192,13287,12,0,14702,0:0:0:0:
176,56,15172,5,0,0:0:0:0:
328,56,15644,1,0,0:0:0:0:
192,160,16116,1,0,0:0:0:0:
320,160,16588,1,0,0:0:0:0:
256,112,17060,6,0,L|256:184,2,70
256,40,18004,1,0,0:0:0:0:
328,80,18475,1,0,0:0:0:0:
400,152,18947,6,0,P|440:200|384:248,1,140
312,280,19891,1,0,0:0:0:0:
232,224,20363,1,0,0:0:0:0:
128,152,20835,6,0,L|56:120,2,70
240,144,21779,1,0,0:0:0:0:
352,136,22251,1,0,0:0:0:0:
384,264,22723,6,0,L|456:216,2,70
280,288,23666,1,0,0:0:0:0:
160,272,24138,1,0,0:0:0:0:
160,272,24374,2,0,L|160:192,1,70
160,96,25082,1,0,0:0:0:0:
264,96,25554,1,0,0:0:0:0:
360,96,26026,2,0,L|408:160,1,70
424,224,26498,5,0,0:0:0:0:
320,288,26969,1,0,0:0:0:0:
200,312,27441,1,0,0:0:0:0:
88,288,27913,1,0,0:0:0:0:
88,288,28149,2,0,P|88:256|112:216,3,70
144,128,29329,1,0,0:0:0:0:
232,80,29801,1,0,0:0:0:0:
336,120,30273,6,0,P|408:128|440:192,1,140
432,264,31216,2,0,P|400:328|320:328,1,140
240,336,32160,6,0,P|168:304|160:224,1,140
152,160,33104,2,0,P|184:80|248:72,1,140
377,147,34048,6,0,P|407:216|365:265,1,140
305,319,34991,2,0,P|247:350|181:312,1,140
133,259,35935,6,0,P|115:178|151:135,1,140
204,87,36879,2,0,P|274:57|329:93,1,140
336,80,37823,5,0,0:0:0:0:
376,48,38059,1,0,0:0:0:0:
376,104,38295,1,8,0:0:0:0:
384,208,38767,1,0,0:0:0:0:
328,288,39238,1,8,0:0:0:0:
328,288,39474,2,0,L|256:288,1,70
160,288,40182,1,8,0:0:0:0:
80,224,40654,1,0,0:0:0:0:
80,112,41126,2,0,L|144:80,1,70,8|0,0:0|0:0,0:0:0:0:
248,64,41598,5,0,0:0:0:0:
392,64,42070,1,8,0:0:0:0:
400,176,42542,1,0,0:0:0:0:
400,288,43014,2,0,L|328:312,3,70,8|0|0|0,0:0|0:0|0:0|0:0,0:0:0:0:
256,312,43957,1,8,0:0:0:0:
152,288,44429,1,0,0:0:0:0:
128,184,44901,1,8,0:0:0:0:
112,40,45373,6,0,L|176:104,1,70
216,144,45845,1,8,0:0:0:0:
272,200,46081,2,0,L|336:264,1,70,0|0,0:0|0:0,0:0:0:0:
376,312,46553,1,0,0:0:0:0:
296,312,46789,1,8,0:0:0:0:
216,312,47025,1,0,0:0:0:0:
80,312,47261,6,0,L|136:256,1,70
200,184,47732,1,8,0:0:0:0:
272,120,47968,2,0,L|336:56,1,70
416,80,48440,1,0,0:0:0:0:
416,160,48676,1,8,0:0:0:0:
416,240,48912,1,0,0:0:0:0:
392,336,49148,6,0,L|328:280,1,70
264,232,49620,1,8,0:0:0:0:
192,168,49856,2,0,L|128:104,1,70
88,40,50328,1,0,0:0:0:0:
160,40,50564,1,8,0:0:0:0:
232,40,50800,1,0,0:0:0:0:
392,56,51036,6,0,L|336:120,1,70
280,176,51508,1,8,0:0:0:0:
216,240,51744,2,0,L|152:304,1,70
72,320,52215,1,0,0:0:0:0:
72,248,52451,1,8,0:0:0:0:
72,176,52687,1,0,0:0:0:0:
80,48,52923,6,0,L|144:96,3,70,0|0|8|0,0:0|0:0|0:0|0:0,0:0:0:0:
208,128,53867,1,0,0:0:0:0:
256,56,54339,5,8,0:0:0:0:
432,48,54811,6,0,L|368:96,3,70,0|0|8|0,0:0|0:0|0:0|0:0,0:0:0:0:
304,128,55755,1,0,0:0:0:0:
256,200,56226,5,8,0:0:0:0:
256,272,56698,2,0,L|256:352,4,70,0|0|8|0|0,0:0|0:0|0:0|0:0|0:0,0:0:0:0:
256,192,58114,1,8,0:0:0:0:
256,112,58586,1,0,0:0:0:0:
208,48,59058,1,8,0:0:0:0:
296,48,59530,1,0,0:0:0:0:
256,120,60002,1,8,0:0:0:0:
104,160,60473,6,0,L|104:240,4,70,0|0|8|0|0,0:0|0:0|0:0|0:0|0:0,0:0:0:0:
104,88,61653,1,0,0:0:0:0:
136,24,61889,1,8,0:0:0:0:
208,16,62125,1,0,0:0:0:0:
256,152,62361,6,0,L|256:232,4,70,0|0|8|0|0,0:0|0:0|0:0|0:0|0:0,0:0:0:0:
256,72,63541,1,0,0:0:0:0:
208,16,63777,1,8,0:0:0:0:
136,8,64013,1,0,0:0:0:0:
128,96,64249,6,0,L|32:96,4,70,0|0|8|0|0,0:0|0:0|0:0|0:0|0:0,0:0:0:0:
128,176,65428,1,0,0:0:0:0:
160,240,65664,1,8,0:0:0:0:
224,280,65900,1,0,0:0:0:0:
280,224,66136,6,0,L|280:144,4,70,0|0|8|0|0,0:0|0:0|0:0|0:0|0:0,0:0:0:0:
256,288,67316,1,0,0:0:0:0:
208,344,67552,1,8,0:0:0:0:
136,344,67788,1,4,0:0:0:0:
72,264,68024,5,0,0:0:0:0:
56,200,68260,1,0,0:0:0:0:
104,160,68496,1,8,0:0:0:0:
144,208,68731,1,0,0:0:0:0:
128,264,68967,1,0,0:0:0:0:
248,144,69439,5,4,0:0:0:0:
344,264,69911,5,0,0:0:0:0:
328,208,70147,1,0,0:0:0:0:
368,176,70383,1,8,0:0:0:0:
408,208,70618,1,0,0:0:0:0:
392,264,70854,1,0,0:0:0:0:
272,120,71327,5,4,0:0:0:0:
184,136,71799,2,0,L|128:184,4,70,0|0|8|0|0,0:0|0:0|0:0|0:0|0:0,0:0:0:0:
248,80,73214,1,8,0:0:0:0:
344,112,73686,1,0,0:0:0:0:
256,168,74158,1,8,0:0:0:0:
368,192,74630,1,0,0:0:0:0:
288,248,75102,1,12,0:0:0:0:
328,296,75574,6,0,L|424:176,1,140,0|8,0:0|0:0,0:0:0:0:
448,96,76518,2,0,L|304:96,1,140,0|12,0:0|0:0,0:0:0:0:
200,96,77461,6,0,P|128:120|120:192,1,140
112,256,78405,2,0,P|136:328|208:336,1,140
336,336,79349,6,0,P|408:312|416:240,1,140
424,136,80293,2,0,P|400:64|328:56,1,140
192,56,81236,6,0,P|120:80|112:152,1,140
104,256,82180,2,0,P|128:328|200:336,1,140
288,304,83124,6,0,B|320:280|320:280|320:240,1,70
320,168,83596,1,8,0:0:0:0:
272,56,84068,1,0,0:0:0:0:
144,56,84540,1,8,0:0:0:0:
96,96,84776,2,0,B|72:128|72:128|72:176,1,70
120,272,85484,1,8,0:0:0:0:
216,320,85955,1,0,0:0:0:0:
328,288,86427,2,0,B|360:304|360:304|416:280,1,70,8|0,0:0|0:0,0:0:0:0:
464,288,86899,1,0,0:0:0:0:
424,192,87371,1,8,0:0:0:0:
424,64,87843,1,0,0:0:0:0:
288,40,88315,2,0,B|240:56|240:56|288:88|288:88|224:120|224:120|288:152|288:152|264:192,1,280,8|8,0:0|0:0,0:0:0:0:
152,208,89731,1,0,0:0:0:0:
56,168,90202,2,0,B|40:136|40:136|64:88,1,70,8|4,0:0|0:0,0:0:0:0:
64,64,98224,5,8,0:0:0:0:
144,64,98460,1,0,0:0:0:0:
224,64,98696,1,0,0:0:0:0:
360,64,99168,1,8,0:0:0:0:
440,128,99640,1,0,0:0:0:0:
384,200,99876,1,0,0:0:0:0:
328,264,100112,1,8,0:0:0:0:
224,272,100584,1,0,0:0:0:0:
120,272,101056,1,8,0:0:0:0:
120,176,101528,6,0,L|120:104,1,70
120,24,101999,1,8,0:0:0:0:
216,24,102471,2,0,P|288:48|296:112,1,140,0|8,0:0|0:0,0:0:0:0:
288,208,103415,1,0,0:0:0:0:
256,256,103651,1,0,0:0:0:0:
208,272,103887,1,8,0:0:0:0:
160,256,104123,1,0,0:0:0:0:
136,208,104359,1,0,0:0:0:0:
192,136,104831,1,8,0:0:0:0:
192,48,105303,1,0,0:0:0:0:
96,56,105774,5,8,0:0:0:0:
144,112,106246,1,0,0:0:0:0:
192,168,106717,1,8,0:0:0:0:
272,168,107190,2,0,L|336:112,2,70,0|0|8,0:0|0:0|0:0,0:0:0:0:
232,224,108134,6,0,B|232:304|232:304|304:344,1,140,0|8,0:0|0:0,0:0:0:0:
368,320,109078,2,0,B|400:320|400:320|440:264,1,70
432,248,109549,1,8,0:0:0:0:
432,152,110021,1,0,0:0:0:0:
368,80,110493,1,8,0:0:0:0:
280,72,110729,6,0,L|224:128,7,70,0|0|0|8|0|0|0|8,0:0|0:0|0:0|0:0|0:0|0:0|0:0|0:0,0:0:0:0:
152,144,112617,6,0,L|152:56,2,70
152,216,113324,1,8,0:0:0:0:
208,320,113796,1,0,0:0:0:0:
280,216,114268,1,8,0:0:0:0:
344,296,114740,6,0,L|416:248,1,70
424,192,115212,2,0,L|440:112,4,70,8|0|0|0|8,0:0|0:0|0:0|0:0|0:0,0:0:0:0:
416,296,116627,1,0,0:0:0:0:
320,272,117099,6,8,B|328:184|120:184|128:296|160:400|376:400|320:280|320:264,1,420
256,192,118987,12,8,120402,0:0:0:0:
328,296,120874,6,0,B|416:240|416:240|400:176,1,140,0|8,0:0|0:0,0:0:0:0:
384,96,121818,2,0,B|288:128|288:128|240:96,1,140,0|8,0:0|0:0,0:0:0:0:
112,96,122762,6,0,B|144:176|144:176|112:248,1,140,0|8,0:0|0:0,0:0:0:0:
112,336,123706,2,0,B|192:360|192:360|256:336,1,140,0|8,0:0|0:0,0:0:0:0:
192,240,124649,6,0,B|256:224|256:224|280:256|280:256|336:240,1,140,0|8,0:0|0:0,0:0:0:0:
304,128,125593,2,0,B|248:112|248:112|224:136|224:136|160:128,1,140,0|8,0:0|0:0,0:0:0:0:
432,128,126537,6,0,B|432:160|432:160|464:240|464:240|432:280,1,140,0|8,0:0|0:0,0:0:0:0:
56,256,127481,2,0,B|96:288|96:288|136:248|136:248|200:256,1,140,0|8,0:0|0:0,0:0:0:0:
424,304,128424,5,0,0:0:0:0:
448,256,128660,1,0,0:0:0:0:
456,208,128896,2,0,L|456:64,1,140,8|0,0:0|0:0,0:0:0:0:
336,64,129840,1,8,0:0:0:0:
288,64,130076,2,0,L|216:64,1,70
136,64,130784,1,8,0:0:0:0:
104,152,131256,1,0,0:0:0:0:
184,184,131728,5,8,0:0:0:0:
232,216,131964,2,0,B|256:240|256:240|288:200,1,70
288,128,132671,1,8,0:0:0:0:
360,88,133143,1,0,0:0:0:0:
408,152,133615,1,8,0:0:0:0:
408,208,133851,2,0,L|368:288,3,70,0|0|0|8,0:0|0:0|0:0|0:0,0:0:0:0:
280,304,135031,1,0,0:0:0:0:
184,304,135503,1,4,0:0:0:0:
