osu file format v7

[General]
AudioFilename: Cobra Starship - Snakes on a Plane (Bring It).mp3
AudioLeadIn: 0
PreviewTime: 41038
Countdown: 0
SampleSet: Normal
StackLeniency: 0.7
Mode: 0
LetterboxInBreaks: 1

[Editor]
Bookmarks: 14591,28403,41164,56056,63799,76758,89510,103323,118215,132020,138926,166128
DistanceSpacing: 1.20000004768372
BeatDivisor: 4
GridSize: 8

[Metadata]
Title:Snakes on a Plane (Bring It)
Artist:Cobra Starship
Creator:Glasslake
Version:Cobras on a Plane
Source:Snakes on a Plane
Tags:Behonkiss kingcobra52 gym class heroes sounds academy

[Difficulty]
HPDrainRate:4
CircleSize:3
OverallDifficulty:3
SliderMultiplier:1.4
SliderTickRate:2

[Events]
//Background and Video events
Video,-900,"Snakes On A Plane Music Video.avi"
0,0,"Cobra-Starship.jpg"
//Break Periods
2,56263,61530
2,118422,130595
//Storyboard Layer 0 (Background)
//Storyboard Layer 1 (Fail)
//Storyboard Layer 2 (Pass)
//Storyboard Layer 3 (Foreground)
//Storyboard Sound Samples
//Background Colour Transformations
3,100,163,162,255

[TimingPoints]
14625,431.654676258993,4,1,0,60,1,0
42250,-100,4,1,0,60,0,1
56063,-100,4,1,0,60,0,0
90704,-100,4,1,0,60,0,1
118222,-100,4,1,0,60,0,0
131927,-100,4,2,0,60,0,0
132134,-100,4,2,0,60,0,0
137107,-100,4,1,0,60,0,0
138933,-100,4,1,0,60,0,1
166135,-100,4,1,0,60,0,0

[Colours]
Combo1 : 128,255,128
Combo2 : 255,0,0
Combo3 : 5,5,240
Combo4 : 255,255,255
Combo5 : 5,240,240

[HitObjects]
256,192,12898,12,4,14625
64,192,15488,6,0,B|80:256|136:288|192:288,1,140,8|0
232,296,16135,2,0,B|304:312|376:296|440:248|448:152,1,280,4|0
256,80,17646,5,8
256,80,18078,2,0,B|16:80,2,210,4|0|8
256,224,19804,2,0,B|16:224,2,210,4|0|8
400,224,21531,6,0,B|287:170|359:42,1,210,4|8
200,192,22826,1,2
200,192,23258,1,2
200,56,23689,1,8
200,56,23905,1,2
408,56,24553,5,8
408,192,24984,2,0,B|357:141|269:141|213:181,2,210,4|4|8
408,328,26711,2,4,B|400:384|350:381|305:319|255:316|234:368,2,210,4|4|8
416,192,28437,6,0,B|372:141|268:141|228:197,1,210,4|0
160,192,29301,2,2,B|80:192,3,70
216,56,30380,5,8
216,56,30596,1,0
216,56,30812,2,0,B|201:138|298:150,1,140,0|8
416,64,31891,6,0,B|496:88|504:224|456:256,1,210,4|0
400,248,32754,2,2,B|304:248,3,70
160,248,33833,5,8
160,248,34049,1,0
160,248,34265,2,0,B|152:160|240:152,1,140,0|8
472,64,35344,5,4
320,264,35991,1,0
320,264,36207,1,2
488,264,36639,1,2
488,264,36855,1,0
368,192,37286,5,0
368,192,37502,1,8
368,192,37718,2,0,B|200:192,1,140,0|8
232,312,38797,5,4
440,312,39445,1,0
440,312,39660,1,2
440,168,40092,1,2
440,168,40308,1,0
232,192,40955,5,8
232,48,41387,2,4,B|296:104|384:80,2,140
256,192,42466,12,4,43977
256,192,44409,6,0,B|208:120|280:56,1,140,8|0
408,64,45272,2,0,B|496:88|480:192,1,140,4|4
416,296,46135,1,4
280,344,46567,2,4,B|160:296|216:160,1,210
376,40,47862,5,8
376,40,48078,2,2,B|280:136|168:48,1,210,2|6
48,56,49157,2,0,B|-23:107|25:187,5,140,0|4|0|4|0|4
144,248,51747,6,0,B|296:248,1,140,8|0
424,240,52610,2,0,B|448:176|416:88|328:64,2,210,4|0|0
256,192,54337,12,4,56063
256,192,62970,5,4
256,192,63833,2,0,B|224:120|304:56|392:64,2,210,8|0|0
16,336,65991,5,8
160,336,66423,2,0,B|384:336,1,210,4|8
368,128,67718,1,0
224,128,68150,2,2,B|-8:128,1,210,2|10
88,248,69229,1,0
224,248,69660,5,0
224,248,69876,1,8
224,248,70092,1,0
312,120,70524,2,0,B|240:200|112:184|56:80,1,280,4|4
72,312,72035,1,0
72,312,72250,1,8
280,312,72898,6,0,B|305:235|408:248,1,140,0|8
384,104,73761,2,0,B|299:92|274:169,1,140,0|8
184,312,74624,2,0,B|159:235|56:248,1,140,0|8
72,80,75488,2,0,B|157:68|182:145,2,140
64,248,76783,5,4
312,248,77430,1,0
312,248,77646,2,2,B|408:248,3,70
344,80,78725,5,0
344,80,78941,1,8
344,80,79157,2,0,B|416:120|376:232,1,140,0|8
256,32,80236,6,0,B|264:104|216:160|112:160,1,210,4|0
112,88,81099,2,2,B|80:56|32:72,3,70
56,208,82178,5,0
104,272,82394,1,8
176,272,82610,1,0
320,272,83042,1,8
248,80,83689,6,0,B|192:136|248:176|304:200|232:288,1,210,4|0
176,272,84553,1,2
216,336,84768,1,0
288,336,84984,1,2
320,272,85200,1,2
472,280,85632,5,0
472,280,85848,2,0,B|531:209|475:185|419:145|475:89,1,210,8|8
256,72,87142,5,4
48,72,87790,1,2
48,144,88006,1,2
48,216,88222,1,0
48,288,88437,1,2
48,360,88653,1,0
208,304,89085,6,0,B|208:336|256:336|256:296,1,70,8|8
256,224,89517,2,0,B|257:194|209:194|209:226,1,70,8|8
136,72,90164,1,0
304,72,90596,1,4
256,192,90704,12,4,92322
256,192,92754,6,0,B|304:120|232:56,1,140,8|0
104,64,93617,2,0,B|16:88|32:192,1,140,4|4
96,296,94481,1,4
232,344,94912,2,4,B|352:296|296:160,1,210
136,40,96207,5,8
136,40,96423,2,2,B|232:136|344:48,1,210,2|6
464,56,97502,2,0,B|535:107|487:187,5,140,0|4|0|4|0|4
368,248,100092,6,0,B|216:248,1,140,8|0
88,240,100955,2,0,B|64:176|96:88|184:64,2,210,4|0|0
224,248,102682,1,0
224,104,103114,1,8
360,104,103545,1,0
224,104,103977,1,8
80,104,104409,6,0,B|32:192|112:296|200:352|288:360|352:360|432:328|472:264,1,560,4|0
472,136,106567,6,0,B|376:24,1,140,8|0
240,32,107430,2,0,B|148:138,1,140,8|4
80,264,108294,1,0
216,264,108725,1,4
360,264,109157,1,0
360,264,109373,1,4
216,24,110020,5,0
216,24,110236,2,0,B|432:24,1,210,4|0
432,168,111315,6,0,B|288:168,1,140,0|8
152,168,112178,2,0,B|8:168,1,140,0|8
8,312,113042,2,0,B|160:312,1,140,0|8
288,312,113905,6,0,B|368:312,3,70,8|0|8|0
432,312,114768,2,4,B|496:232|408:112,2,210
256,192,116495,12,4,118222
328,272,132035,6,4,B|392:328|472:264,3,140,4|0|0|2
456,104,133761,2,4,B|392:48|312:112,3,140,4|0|0|2
159,100,135488,2,4,B|95:44|15:108,3,140,4|0|0|2
96,248,137214,1,4
336,328,137862,5,0
336,240,138078,1,2
336,152,138294,1,0
336,64,138509,1,2
256,192,138941,12,4,140668
184,232,141099,6,0,B|248:288|320:224,2,140,8|0|8
96,120,142394,1,4
200,32,142826,1,0
304,128,143258,1,4
408,32,143689,1,0
408,32,143905,1,4
400,280,144553,5,0
400,280,144768,2,0,B|376:360|280:352,1,140,8|0
224,352,145416,2,4,B|141:359|117:279,1,140
136,64,146279,5,8
280,64,146711,1,0
416,64,147142,1,8
416,208,147574,1,0
416,352,148006,1,8
280,352,148437,6,0,B|264:272|168:272,1,140,0|8
176,136,149301,2,4,B|56:184|-8:48,2,210,4|4|4
456,344,151675,6,0,B|496:312|464:256,1,70,0|8
456,216,152107,2,0,B|416:184|448:128,1,70,0|8
376,24,152754,6,4,B|328:8|280:16|272:88|288:144|224:208|128:192|112:128|154:69|88:32|-8:48|-40:152|24:240,1,560
120,312,154912,5,2
264,312,155344,1,8
408,312,155776,1,2
408,176,156207,2,4,B|378:104|282:120,3,140
224,120,157718,2,0,B|128:144|120:24|16:56,1,210
32,120,158581,6,0,B|16:192|80:264|152:272,1,210,4|0
288,272,159660,1,0
432,272,160092,1,8
360,152,160524,1,0
288,272,160955,1,8
432,272,161387,1,0
360,152,161819,1,8
224,152,162250,6,0,B|192:88|96:96,2,140,0|0|4
232,360,163761,2,0,B|312:280|456:296,1,210,4|4
256,192,164840,12,4,166567
256,192,167214,6,0,B|336:192,4,70,0|2|0|2|2
128,144,168509,1,0
128,144,168725,1,8
128,144,168941,2,0,B|199:188|143:268,1,140,0|8
296,272,170020,6,0,B|320:352|456:360|488:312,1,210,4|0
472,256,170883,2,2,B|472:186,3,70
336,144,171963,5,0
336,144,172178,1,8
336,144,172394,2,0,B|360:64|256:48,1,140,0|0
112,192,173473,5,4
320,192,174121,1,0
392,192,174337,1,2
464,192,174553,1,0
464,120,174768,1,2
464,48,174984,1,0
320,48,175416,5,0
320,48,175632,1,8
320,48,175848,2,0,B|180:48,1,140,0|8
112,248,176927,5,4
320,248,177574,1,0
392,248,177790,1,2
392,176,178006,1,0
320,176,178222,1,2
248,176,178437,1,0
104,176,178869,1,0
104,176,179085,1,8
104,176,179301,2,0,B|136:80|264:56|368:64|440:96,1,350,4|0
